#TITLE:Life Light;
#SUBTITLE:Oh Henry!;
#ARTIST:ASK;
#TITLETRANSLIT:;
#SUBTITLETRANSLIT:;
#ARTISTTRANSLIT:;
#CREDIT:;
#BANNER:../Fallback-Ban.png;
#BACKGROUND:../Fallback-BG.png;
#LYRICSPATH:;
#CDTITLE:../~CDTitle-@@.png;
#MUSIC:ASK - Life Light.ogg;
#OFFSET:-11.386;
#SAMPLESTART:82.123;
#SAMPLELENGTH:20.210;
#SELECTABLE:YES;
#DISPLAYBPM:190.000;
#BPMS:0.000=190.000,160.000=95.000,192.000=190.000,1160.000=95.000,1192.000=190.000;
#STOPS:;
#BGCHANGES:;
// cache tags:
#FIRSTBEAT:0.000;
#LASTBEAT:1532.000;
#SONGFILENAME:Songs/Oh Henry! Mad Stamina/Life Light (17)/Life Light.sm;
#HASMUSIC:1;
#HASBANNER:1;
#MUSICLENGTH:518.060;
// end cache tags

//---------------dance-single - @@----------------
#NOTES:
     dance-single:
     @@:
     Challenge:
     17:
     1.000,1.000,0.069,0.286,1.000,5025.000,36.000,148.000,1.000,0.000:
1000
0000
1000
0000
,
2200
3300
0000
0000
2002
3003
0000
0000
0001
0000
0000
0000
0000
0000
0000
0000
,
1000
0000
1000
0000
,
2020
3030
0000
0000
0000
0000
0000
0000
1000
0000
0000
0000
0000
0000
0000
0000
,
0001
0000
0001
0000
,
0202
0303
0000
0000
2002
3003
0000
0000
1000
0000
0000
0000
0000
0000
0000
0000
,
0001
0000
0001
0000
,
0022
0033
0000
0000
0000
0000
0000
0000
0001
0000
0000
0000
0000
0000
0000
0000
,
1000
0000
1000
0000
,
2020
3030
0000
0000
2002
3003
0000
0000
0001
0000
0000
0000
0000
0000
0000
0000
,
1000
0000
1000
0000
,
2200
3300
0000
0000
0000
0000
0000
0000
1000
0000
0000
0000
0000
0000
0000
0000
,
0001
0000
0001
0000
,
0022
0033
0000
0000
2002
3003
0000
0000
1000
0000
0000
0000
0000
0000
0000
0000
,
0002
0000
0000
0000
,
0000
0000
0203
0000
,
0301
1000
0001
1000
0001
1000
0001
1000
,
0100
0010
0100
0010
0100
0010
0100
0010
,
0001
0010
0001
0010
0001
0010
0001
0010
,
0001
0010
0001
0010
0100
1000
0010
0100
,
0002
0003
0100
0000
0001
0000
0100
0000
0001
0000
0100
0000
0001
0000
0100
0000
,
0020
0030
1000
0000
0010
0000
1000
0000
0010
0000
1000
0000
0010
0000
1000
0000
,
0200
0300
0020
0030
0002
0003
0020
0030
0200
0300
2000
3000
0020
0030
0200
0300
,
0002
0003
1000
0000
0001
0000
1000
0000
0010
0000
1000
0000
0100
0000
1000
0000
,
1001
0001
0010
0100
1000
0010
0100
0001
,
1000
0100
0010
0100
1000
0010
0100
0010
,
1000
0000
0100
0000
0010
0000
0001
0000
0100
0000
0001
0000
2000
3000
0020
0030
,
2000
3000
0100
0000
2000
3000
0001
0000
2000
3000
0010
0000
2000
3000
0001
0000
,
1001
1000
0010
0100
0001
0010
0100
1000
,
0001
0100
0010
0100
0001
0010
0100
0010
,
0001
0000
0100
0000
0010
0000
1000
0000
0100
0000
1000
0000
0002
0003
0020
0030
,
0002
0003
0100
0000
0002
0003
1000
0000
0002
0003
0010
0000
0002
0003
1000
0000
,
1001
0001
0010
0100
0010
0001
0100
0010
,
1000
0100
0010
0100
1000
0010
0100
0001
,
0010
0000
0100
0000
0010
0000
0001
0000
0100
0000
0001
0000
2000
3000
0020
0030
,
1000
0001
0010
0001
1000
0100
0010
0100
1000
0001
0100
0010
1000
0001
0100
0001
,
0010
0100
1000
0001
1000
0100
0010
0001
1000
0010
0100
0001
1000
0001
0100
0010
,
1000
0100
0010
0001
1000
0100
0010
0100
1000
0001
0100
0001
1000
0010
0100
0001
,
0010
0100
1000
0001
1000
0100
0010
0100
1000
0010
0100
0001
1000
0001
0100
0010
,
1000
0100
0010
0000
0001
0100
0010
0000
1000
0000
0001
1000
0001
0000
0001
0000
,
1000
0100
1000
0001
1000
0010
0100
0001
0000
0001
0100
0010
0100
0001
0010
0100
,
1000
0010
1000
0001
1000
0100
0010
0001
0000
0001
0010
0100
1000
0010
0100
0001
,
1000
0100
1000
0001
1000
0010
0100
0010
0000
0010
1000
0001
0100
0001
0010
0100
,
1000
0010
1000
0001
1000
0100
0010
0100
0000
0100
1000
0010
0100
0000
0100
0010
,
1000
0100
0010
0001
0100
0000
0010
0100
0001
0010
0100
0000
1000
0100
0010
0001
,
0100
0000
0010
0100
0001
0010
0100
0000
0100
0010
0001
0100
0000
0100
0001
0010
,
0100
1000
0001
1000
0010
1000
0100
0010
0000
0010
0100
1000
0010
0100
0001
0100
,
0010
1000
0100
1000
0001
0100
0010
0100
0000
0100
0001
0010
0100
0000
0100
0010
,
0001
0100
0001
1000
0001
0010
0100
1000
,
0000
1000
0100
0010
0100
1000
0010
0100
,
0001
0010
0001
1000
0001
0100
0010
1000
,
0000
1000
0010
0100
0001
0010
0100
0010
,
0001
0100
0001
1000
0001
0010
0100
0010
,
0000
0010
0001
1000
0100
1000
0010
0100
,
0001
0010
0001
1000
0001
0100
0010
0100
,
0000
0100
0001
0010
0100
0000
0100
0010
,
0001
0010
0100
1000
0100
0010
0001
1000
0010
0100
0010
0100
0001
1000
0010
1000
,
0001
0100
0010
1000
0001
0010
0001
0010
0100
1000
0001
0010
0001
1000
0100
0010
,
0001
0100
0001
0100
0010
1000
0001
1000
0010
0100
0001
1000
0100
0010
0100
0010
,
0001
1000
0100
0010
0100
1000
0001
0100
0001
0100
0010
1000
0001
1000
0100
0010
,
0001
0100
0010
1000
0001
0100
0010
0100
0001
1000
0010
1000
0001
0010
0100
0010
,
0001
0100
0010
1000
0010
0100
0001
1000
0100
1000
0001
0010
0100
1000
0001
0010
,
0001
0100
0010
1000
0001
0100
0010
0100
0001
0010
0100
1000
0100
0010
0001
0000
,
0000
0000
0022
0033
2002
3003
2020
3030
2002
3003
0000
0000
1000
0000
0001
0010
,
0100
1000
0001
0010
0001
1000
0100
1000
0001
0100
0010
1000
0001
1000
0010
0100
,
0010
0100
0001
1000
0001
0100
0010
0100
0001
1000
0100
0010
0001
0100
0010
1000
,
0001
1000
0010
0100
0001
1000
0010
1000
0001
0010
0100
1000
0001
1000
0100
0010
,
0100
0010
0001
1000
0001
0010
0100
0010
0001
0100
0010
1000
0100
0010
0100
1000
,
0001
0100
0010
1000
0001
0100
0001
1000
0100
0010
0100
1000
0001
0010
0100
1000
,
0100
1000
0001
0010
0100
0010
0001
1000
0010
1000
0001
0100
0001
0010
0100
0010
,
0001
0100
0010
1000
0001
0100
0001
1000
0100
0010
0100
1000
0001
0010
0001
1000
,
0010
0100
0001
1000
0001
0010
0100
1000
0001
0100
0010
1000
0100
0010
0001
0100
,
0001
1000
0100
0010
0100
1000
0001
1000
0010
0100
0010
0100
0001
1000
0100
0010
,
0100
1000
0001
1000
0010
0100
0010
0100
0001
1000
0100
0010
0001
0100
0010
1000
,
0100
0010
0100
0010
0001
1000
0010
0100
0010
1000
0001
1000
0100
0010
0100
0010
,
0001
1000
0010
1000
0001
0010
0100
1000
0010
0100
0001
0100
0010
1000
0100
0010
,
0001
0100
0010
1000
0001
1000
0010
0100
0001
1000
0100
0010
0100
1000
0001
0010
,
0001
0100
0010
0100
0001
1000
0010
1000
0001
0010
0100
1000
0001
0010
0100
0010
,
0001
0100
0010
0100
0001
1000
0010
0100
0001
0010
0100
1000
0001
1000
0100
0010
,
0001
1000
0010
0100
0001
1000
0001
0010
0100
1000
0010
0100
0001
0010
0100
1000
,
0001
0100
0010
0100
0001
0010
0100
0010
0001
1000
0010
0100
0001
0010
0100
1000
,
0001
0010
0100
0010
0001
0100
0010
1000
0001
1000
0100
0010
0001
0100
0010
1000
,
0001
1000
0010
0100
0001
0010
0100
1000
0001
1000
0010
0100
0001
0010
0100
1000
,
0001
1000
0100
0010
0001
0100
0010
1000
0100
0010
0100
1000
0010
0100
0001
1000
,
0001
0010
0100
0010
0001
0100
0010
0100
0001
1000
0100
0010
0001
0100
0010
1000
,
0001
0100
0010
0100
0001
0010
0100
1000
0001
1000
0010
0100
0001
0010
0100
1000
,
0001
1000
0100
0010
0001
0100
0010
1000
0001
1000
0100
0010
0001
0100
0010
1000
,
0001
1000
0010
0100
0001
1000
0100
1000
0010
0100
0001
0010
0100
1000
0010
0100
,
0001
1000
0100
1000
0001
0100
0010
1000
0001
0010
0100
0010
0001
1000
0010
1000
,
0001
0010
0100
1000
0001
0100
0010
0100
0001
1000
0100
0010
0001
1000
0010
1000
,
0100
0010
0001
1000
0010
0100
0010
1000
0001
0010
0100
0010
0001
1000
0010
0100
,
0001
1000
0100
0010
0001
1000
0010
1000
0100
0010
0001
1000
0001
0010
0100
1000
,
0010
0100
0001
1000
0100
0010
0100
1000
0001
0100
0010
1000
0001
0010
0100
0010
,
0001
0100
0010
1000
0001
0010
0100
0010
0001
1000
0010
1000
0001
0010
0100
0010
,
0001
0100
0010
1000
0001
0010
0100
0010
0001
0100
0010
1000
0001
0010
0100
1000
,
0001
0100
0010
1000
0001
0010
0100
1000
0010
0100
0001
0010
0001
0100
0010
1000
,
0200
0000
0000
0000
,
0000
0000
0000
0300
,
1000
0001
1000
0001
1000
0001
1000
0001
,
1000
0001
1000
0001
1000
0001
1000
0001
,
0010
0001
0010
0001
0010
0001
0010
0001
,
0010
0001
0010
0001
0010
0001
0010
0001
,
1000
0010
1000
0010
1000
0010
1000
0010
,
1000
0010
1000
0010
1000
0010
1000
0010
,
0100
0001
0100
0001
0100
0001
0100
0001
,
0100
0001
0100
0001
0010
0100
0010
0100
,
1000
0000
0001
0010
0100
0000
1000
0001
0010
0000
0100
1000
0001
0000
0010
0001
,
1000
0000
0010
0100
0001
0000
1000
0010
0100
0000
0010
1000
0001
0000
0100
0001
,
1000
0100
0010
0100
1000
0001
0010
0100
1000
0001
0100
0010
1000
0001
0100
0001
,
1000
0100
0010
0100
1000
0001
0010
0100
1000
0001
0100
0010
1000
0001
0100
0001
,
1000
0100
0010
0001
1000
0100
0010
0100
1000
0001
0100
0010
0100
0001
1000
0010
,
1000
0001
0010
0100
1000
0001
0010
0001
1000
0010
0100
0010
1000
0001
1000
0010
,
0100
0001
0010
0001
1000
0100
0010
0001
1000
0010
0100
0001
1000
0010
1000
0001
,
0010
0001
0100
0010
1000
0010
0100
0001
0010
0100
1000
0001
0010
0001
0100
0010
,
1000
0001
0010
0100
1000
0001
0010
0001
1000
0010
1000
0010
0100
0001
1000
0100
,
0010
0001
1000
0001
0100
0001
1000
0010
0100
0001
1000
0001
0010
0001
1000
0100
,
1000
0001
0100
0010
1000
0001
0100
0001
1000
0100
1000
0100
1000
0001
0100
0001
,
1000
0100
1000
0001
1000
0010
0100
0001
1000
0100
1000
0001
1000
0010
0100
0001
,
0010
0100
1000
0001
0010
0100
0010
0001
1000
0010
1000
0010
0100
0001
1000
0010
,
0100
0001
1000
0001
0010
0001
1000
0010
0100
0001
1000
0001
0010
0001
1000
0010
,
0100
0001
1000
0001
0100
0010
1000
0001
0010
0100
0010
0100
1000
0001
0100
0010
,
1000
0001
0010
0001
1000
0010
0100
0010
1000
0100
0010
0100
1000
0001
1000
0100
,
0010
0001
0100
0010
1000
0001
0100
0001
1000
0100
1000
0100
0010
0001
1000
0010
,
0100
0001
1000
0001
0010
0001
1000
0100
0010
0001
1000
0001
0100
0001
1000
0010
,
1000
0001
0010
0100
1000
0001
0010
0001
1000
0010
1000
0010
1000
0001
0010
0001
,
1000
0010
1000
0001
1000
0100
0010
0001
1000
0010
1000
0001
1000
0100
0010
0001
,
0100
0010
1000
0001
0100
0010
0100
0001
1000
0100
1000
0100
0010
0001
0010
0100
,
1000
0010
0100
0010
1000
0001
0100
0010
1000
0001
0010
0100
1000
0001
0010
0001
,
0100
0010
0100
0001
1000
0010
0100
0010
1000
0100
1000
0100
0010
0001
0010
0100
,
1000
0010
0100
0001
1000
0100
0010
0100
1000
0010
0100
0001
1000
0100
0010
0100
,
1000
0001
0100
0010
1000
0001
1000
0100
0010
0001
0010
0001
0100
0010
1000
0001
,
1000
0100
0010
0100
1000
0001
0010
0100
1000
0001
0100
0010
1000
0100
1000
0001
,
0100
0001
1000
0010
1000
0100
0010
0001
0010
0100
0010
0001
0100
0010
1000
0001
,
1000
0001
0100
0010
0100
0010
0100
0001
0100
0001
0010
0100
0010
0001
1000
0010
,
1000
0001
0100
0001
1000
0100
0010
0001
0010
0100
0010
0100
1000
0010
0100
0001
,
1000
0100
0010
0001
1000
0001
0010
0100
0010
0001
0100
0010
1000
0100
1000
0001
,
0100
0001
1000
0010
1000
0100
0010
0100
1000
0100
0010
0001
0100
0010
1000
0001
,
1000
0001
0100
0001
1000
0100
0010
0100
1000
0010
0100
0001
0100
0010
1000
0100
,
1000
0001
0010
0100
1000
0001
1000
0010
0100
0001
0100
0001
0010
0100
1000
0001
,
1000
0010
0100
0010
1000
0001
0100
0010
1000
0001
0010
0100
1000
0010
1000
0001
,
0010
0001
1000
0100
1000
0010
0100
0001
0100
0010
0100
0001
0010
0100
1000
0001
,
1000
0001
0010
0100
0010
0100
0010
0001
0010
0001
0100
0010
0100
0001
1000
0100
,
1000
0001
0100
0010
1000
0001
0100
0001
1000
0100
0010
0001
1000
0001
0010
0100
,
1000
0010
0100
0001
1000
0010
1000
0001
0010
0100
0010
0001
1000
0100
0010
0001
,
0100
0010
1000
0001
0100
0001
1000
0010
1000
0100
0010
0001
1000
0100
0010
0100
,
1000
0010
0100
0001
1000
0100
0010
0100
1000
0010
0100
0001
1000
0001
0010
0100
,
1000
0010
1000
0001
1000
0100
1000
0001
0100
0001
0010
0001
1000
0001
0100
0001
,
1000
0100
1000
0010
1000
0001
1000
0100
0010
0001
0100
0001
1000
0001
0010
0100
,
1000
0010
1000
0001
1000
0100
1000
0001
0010
0001
1000
0010
0100
0001
0010
0100
,
0010
0001
0100
0010
1000
0010
0100
0001
0010
0100
1000
0010
1000
0001
0100
0001
,
1000
0100
1000
0001
1000
0010
1000
0001
0010
0001
0100
0001
1000
0001
0010
0001
,
1000
0010
1000
0100
1000
0001
1000
0010
0100
0001
0010
0001
1000
0001
0100
0010
,
1000
0100
1000
0001
1000
0010
1000
0001
0100
0001
1000
0100
0010
0001
0100
0010
,
0100
0001
0010
0100
1000
0100
0010
0001
0100
0010
1000
0100
1000
0001
0010
0001
,
0100
0010
1000
0001
0100
0001
1000
0010
0100
0001
1000
0100
1000
0001
0010
0001
,
1000
0010
1000
0001
0100
0001
1000
0010
0100
0001
1000
0001
0010
0100
0010
0001
,
1000
0010
0100
0001
1000
0001
0100
0010
1000
0001
1000
0100
0010
0100
1000
0001
,
0100
0010
1000
0001
0010
0100
1000
0001
0100
0001
1000
0010
1000
0001
0010
0100
,
1000
0010
1000
0001
0100
0010
0100
0001
1000
0010
1000
0100
0010
0100
1000
0010
,
0100
0001
1000
0100
1000
0001
0010
0001
1000
0100
1000
0010
0100
0001
0010
0100
,
1000
0010
0100
0001
1000
0001
0100
0010
1000
0100
0010
0001
1000
0001
0010
0100
,
1000
0010
0100
0001
1000
0100
0010
0100
1000
0010
0100
0001
1000
0100
0010
0001
,
2000
3000
0000
0000
2000
3000
0000
0000
2000
3000
0020
0030
0000
0000
0200
0300
,
0000
0000
0002
0003
0000
0000
0002
0003
0020
0030
0000
0000
0200
0300
0000
0000
,
2000
3000
0000
0000
2000
3000
0000
0000
2000
3000
0200
0300
0000
0000
0020
0030
,
0000
0000
0002
0003
0000
0000
0002
0003
0200
0300
0000
0000
0020
0030
0000
0000
,
2000
3000
0000
0000
2000
3000
0000
0000
2000
3000
0020
0030
0000
0000
0200
0300
,
0000
0000
0002
0003
0000
0000
0002
0003
0020
0030
0000
0000
0200
0300
0000
0000
,
2000
3000
0000
0000
2000
3000
0000
0000
2000
3000
0200
0300
0000
0000
0020
0030
,
0000
0000
0002
0003
0000
0000
0002
0003
0200
0300
0000
0000
0020
0030
0000
0000
,
1000
0100
0010
0001
0010
0100
1000
0001
0100
0010
1000
0001
1000
0100
0010
0100
,
1000
0001
1000
0010
0100
0001
1000
0010
1000
0001
0010
0100
1000
0001
0100
0001
,
1000
0100
0010
0100
1000
0001
1000
0010
0100
0001
0100
0010
1000
0001
0010
0100
,
1000
0001
1000
0010
0100
0001
0100
0010
1000
0001
0010
0100
1000
0001
0100
0010
,
1000
0100
0010
0001
1000
0100
0010
0100
1000
0001
1000
0010
0100
0001
0100
0010
,
1000
0100
0010
0001
1000
0001
0010
0100
1000
0001
0100
0001
1000
0010
0100
0010
,
1000
0100
0010
0001
1000
0100
0010
0100
1000
0010
0100
0001
1000
0010
0100
0010
,
1000
0001
0010
0001
0100
0010
1000
0100
0010
0001
0100
0010
1000
0100
0010
0100
,
1000
0010
1000
0010
0100
0001
0100
0001
0010
0100
1000
0001
1000
0001
0100
0010
,
0100
0010
1000
0100
1000
0100
0010
0001
0100
0001
1000
0010
1000
0100
0010
0001
,
1000
0100
1000
0100
0010
0001
0010
0001
0100
0010
1000
0001
1000
0001
0010
0100
,
0010
0100
1000
0010
1000
0010
0100
0001
0010
0100
0010
0001
0100
0010
0100
0001
,
1000
0010
1000
0010
0100
0001
0100
0001
0010
0100
0010
0001
0010
0001
0100
0010
,
0100
0010
1000
0001
0100
0010
1000
0100
1000
0001
0100
0010
1000
0100
0010
0001
,
1000
0100
1000
0100
0010
0001
0010
0001
0100
0010
0100
0001
0100
0001
0010
0100
,
0010
0100
1000
0001
0010
0100
1000
0010
1000
0001
0010
0100
1000
0010
0100
0001
,
1000
0100
1000
0100
0010
0001
0100
0010
0100
0010
1000
0100
0010
0001
0010
0001
,
0100
0010
1000
0001
1000
0001
0010
0100
1000
0010
1000
0001
0010
0100
1000
0010
,
0100
0001
0100
0001
0010
0100
1000
0001
1000
0001
0100
0010
1000
0100
1000
0100
,
0010
0001
0100
0010
0100
0010
1000
0100
0010
0001
0100
0001
1000
0010
0100
0001
,
0010
0100
1000
0001
1000
0100
0010
0001
1000
0010
0100
0010
1000
0001
0100
0010
,
1000
0100
0010
0001
1000
0100
0010
0100
1000
0001
0100
0010
0100
0001
1000
0010
,
1000
0100
0010
0001
1000
0001
0010
0100
1000
0010
0100
0001
1000
0001
0100
0010
,
1000
0100
0010
0100
1000
0010
0100
0001
1000
0100
0010
0001
0100
0010
1000
0001
,
1000
0100
0010
0100
1000
0010
0100
0010
1000
0001
0010
0100
1000
0010
0100
0001
,
1000
0010
0100
0010
1000
0100
0010
0001
1000
0001
0100
0010
1000
0100
0010
0001
,
1000
0001
0010
0100
1000
0010
0100
0001
1000
0001
0010
0100
1000
0010
0100
0001
,
1000
0001
0100
0010
1000
0100
0010
0001
0100
0010
0100
0001
0010
0100
1000
0001
,
1000
0010
0100
0010
1000
0100
0010
0100
1000
0001
0100
0010
1000
0100
0010
0001
,
1000
0100
0010
0100
1000
0010
0100
0001
1000
0001
0010
0100
1000
0010
0100
0001
,
1000
0001
0100
0010
1000
0100
0010
0001
1000
0001
0100
0010
1000
0100
0010
0001
,
1000
0001
0010
0100
1000
0001
0100
0001
0010
0100
1000
0010
0100
0001
0010
0100
,
1000
0001
0100
0001
1000
0100
0010
0001
1000
0010
0100
0010
1000
0001
0010
0001
,
1000
0010
0100
0001
1000
0100
0010
0100
1000
0001
0100
0010
1000
0001
0010
0001
,
0100
0010
1000
0001
0010
0100
0010
0001
1000
0010
0100
0010
1000
0001
0010
0100
,
1000
0001
0100
0010
1000
0001
0010
0001
0100
0010
1000
0001
1000
0010
0100
0001
,
0010
0100
1000
0001
0100
0010
0100
0001
1000
0100
0010
0001
1000
0010
0100
0010
,
1000
0100
0010
0001
1000
0010
0100
0010
1000
0001
0010
0001
1000
0010
0100
0010
,
1000
0100
0010
0001
1000
0010
0100
0010
1000
0100
0010
0001
1000
0010
0100
0001
,
1000
0100
0010
0001
1000
0010
0100
0001
0010
0100
1000
0010
1000
0100
0010
0001
,
1000
0010
1000
0010
1000
0010
1000
0010
,
1000
0010
1000
0010
1000
0010
1000
0010
,
0100
0001
0100
0001
0100
0001
0100
0001
,
0100
0001
0100
0001
0100
0001
0100
0001
,
1000
0100
1000
0100
1000
0100
1000
0100
,
1000
0100
1000
0100
1000
0100
1000
0100
,
0010
0001
0010
0001
0010
0001
0010
0001
,
0010
0001
0010
0001
0100
0010
0100
0010
,
1000
0000
0100
0000
0010
0000
0001
0000
0100
0000
0001
0000
1000
0000
0100
0010
,
0001
1000
0001
0010
0100
0010
0001
1000
0001
0100
0010
0100
0001
1000
0010
1000
,
0001
0010
0100
1000
0001
1000
0100
0010
0001
1000
0010
0100
0010
1000
0001
1000
,
0100
0010
0001
1000
0001
0010
0100
1000
0001
0100
0010
0100
0001
1000
0010
1000
,
0001
0010
0100
1000
0001
0010
0100
0010
0001
1000
0010
0100
0010
1000
0001
0100
,
0001
1000
0100
0010
0100
1000
0001
1000
0010
0100
0010
1000
0001
0100
0001
1000
,
0100
0010
0001
0100
0010
1000
0001
1000
0100
0010
0001
1000
0001
0010
0100
1000
,
0010
0100
0001
1000
0010
1000
0100
0010
0001
1000
0100
1000
0010
0100
0001
1000
,
0001
0100
0010
0100
0001
1000
0010
1000
0001
0010
0001
0010
0100
1000
0001
0100
,
0010
1000
0001
1000
0100
1000
0001
0010
0100
1000
0001
1000
0010
1000
0001
0100
,
0001
1000
0100
0010
0001
1000
0100
1000
0001
0100
0001
0100
0001
1000
0100
1000
,
0001
0100
0001
1000
0001
0010
0100
1000
0001
0100
0001
1000
0001
0010
0100
1000
,
0010
0100
0001
1000
0010
0100
0010
1000
0001
0010
0001
0010
0100
1000
0001
0010
,
0100
1000
0001
1000
0010
1000
0001
0010
0100
1000
0001
1000
0010
1000
0001
0010
,
0100
1000
0001
1000
0100
0010
0001
1000
0010
0100
0010
0100
0001
1000
0100
0010
,
0001
1000
0010
1000
0001
0010
0100
0010
0001
0100
0010
0100
0001
1000
0001
0100
,
0010
1000
0100
0010
0001
1000
0100
1000
0001
0100
0001
0100
0010
1000
0001
0010
,
0100
1000
0001
1000
0010
1000
0001
0100
0010
1000
0001
1000
0100
1000
0001
0010
,
0001
1000
0010
0100
0001
1000
0010
1000
0001
0010
0001
0010
0001
1000
0010
1000
,
0001
0010
0001
1000
0001
0100
0010
1000
0001
0010
0001
1000
0001
0100
0010
1000
,
0100
0010
0001
1000
0100
0010
0100
1000
0001
0100
0001
0100
0010
1000
0010
0100
,
0001
0010
0100
0010
0001
1000
0100
0010
0001
1000
0010
0100
0001
1000
0010
1000
,
0100
0010
0100
1000
0001
0010
0100
0010
0001
0100
0001
0100
0010
1000
0010
0100
,
0001
0010
0100
1000
0001
0100
0010
0100
0001
0010
0100
1000
0001
0100
0010
0100
,
0001
1000
0100
0010
0001
1000
0001
0100
0010
1000
0010
1000
0100
0010
0001
1000
,
0001
0100
0010
0100
0001
1000
0010
0100
0001
1000
0100
0010
0001
0100
0001
1000
,
0100
1000
0001
0010
0001
0100
0010
1000
0010
0100
0010
1000
0100
0010
0001
1000
,
0001
1000
0100
0010
0100
0010
0100
1000
0100
1000
0010
0100
0010
1000
0001
0010
,
0001
1000
0100
1000
0001
0100
0010
1000
0010
0100
0010
0100
0001
0010
0100
1000
,
0001
0100
0010
1000
0001
1000
0010
0100
0010
1000
0100
0010
0001
0100
0001
1000
,
0100
1000
0001
0010
0001
0100
0010
0100
0001
0100
0010
1000
0100
0010
0001
1000
,
0001
1000
0100
1000
0001
0100
0010
0100
0001
0010
0100
1000
0100
0010
0001
0100
,
0001
1000
0010
0100
0001
1000
0001
0010
0100
1000
0100
1000
0010
0100
0001
1000
,
0001
0010
0100
0010
0001
1000
0100
0010
0001
1000
0010
0100
0001
0010
0001
1000
,
0010
1000
0001
0100
0001
0010
0100
1000
0100
0010
0100
1000
0010
0100
0001
1000
,
0001
1000
0010
0100
0010
0100
0010
1000
0010
1000
0100
0010
0100
1000
0001
0100
,
0001
1000
0100
0010
0001
1000
0100
1000
0001
0100
0010
1000
0001
1000
0010
0100
,
0001
0010
0100
1000
0001
0010
0001
1000
0010
0100
0010
1000
0001
0100
0010
1000
,
0100
0010
0001
1000
0100
1000
0001
0010
0001
0100
0010
1000
0001
0100
0010
0100
,
0001
0010
0100
1000
0001
0100
0010
0100
0001
0010
0100
1000
0001
1000
0010
0100
,
0001
0010
0001
1000
0001
0100
0001
1000
0100
1000
0010
1000
0001
1000
0100
1000
,
0001
0100
0001
0010
0001
1000
0001
0100
0010
1000
0100
1000
0001
1000
0010
0100
,
0001
0010
0001
1000
0001
0100
0001
1000
0010
1000
0001
0010
0100
1000
0010
0100
,
0010
1000
0100
0010
0001
0010
0100
1000
0010
0100
0001
0010
0001
1000
0100
1000
,
0001
0100
0001
1000
0001
0010
0001
1000
0010
1000
0100
1000
0001
1000
0010
1000
,
0001
0010
0001
0100
0001
1000
0001
0010
0100
1000
0010
1000
0001
1000
0100
0010
,
0001
0100
0001
1000
0001
0010
0001
1000
0100
1000
0001
0100
0010
1000
0100
0010
,
0100
1000
0010
0100
0001
0100
0010
1000
0100
0010
0001
0100
0001
1000
0010
1000
,
0200
0300
0010
0000
0001
0000
1000
0000
0010
0000
0200
0300
0010
0000
2000
3000
,
0200
0300
0010
0000
0001
0000
1000
0000
0001
0000
0200
0300
0001
0000
2000
3000
,
0200
0300
0010
0000
0001
0000
0010
0000
0100
0000
2000
3000
0020
0030
0200
0300
,
0001
0000
0020
0030
0100
0000
2000
3000
0010
0000
2000
3000
0002
0003
0100
0000
,
0202
0303
0001
0000
1000
0000
0010
0000
1000
0000
2002
3003
0001
0000
0020
0030
,
0220
0330
0100
0000
1000
0000
0001
0000
0100
0000
0220
0330
0010
0000
2000
3000
,
2002
3003
0001
0000
0010
0000
0100
0000
2200
3300
1000
0000
0001
0000
0100
0000
,
0001
0010
0100
0000
1000
0010
0100
0000
0001
0000
0010
0100
1000
0000
1000
0000
,
0001
0000
0001
0000
,
0022
0033
0000
0000
2002
3003
0000
0000
1000
0000
0000
0000
0000
0000
0000
0000
,
0001
0000
0001
0000
,
0202
0303
0000
0000
0000
0000
0000
0000
0001
0000
0000
0000
0000
0000
0000
0000
,
1000
0000
1000
0000
,
2020
3030
0000
0000
2002
3003
0000
0000
0001
0000
0000
0000
0000
0000
0000
0000
,
1000
0000
1000
0000
,
2200
3300
0000
0000
0000
0000
0000
0000
1000
0000
0000
0000
0000
0000
0000
0000
,
0001
0000
0001
0000
,
0202
0303
0000
0000
2002
3003
0000
0000
1000
0000
0000
0000
0000
0000
0000
0000
,
0001
0010
0100
1000
0001
0010
0001
1000
0010
0100
0010
1000
0001
0100
0001
1000
,
0100
0010
0100
1000
0001
0010
0100
1000
0001
0100
0010
1000
0001
0100
0001
1000
,
0100
0010
0100
1000
0001
0010
0001
1000
0010
0100
0010
1000
0001
0100
0001
1000
,
0100
0010
0100
1000
0001
0010
0100
1000
0001
0100
0001
1000
0010
1000
0001
0100
,
0001
1000
0100
0010
0100
1000
0001
0010
0001
1000
0010
1000
0001
0100
0001
1000
,
0100
0010
0100
1000
0001
0010
0100
0010
0001
1000
0010
0100
0001
1000
0100
0010
,
0001
0100
0001
1000
0001
0010
0100
1000
0000
1000
0100
0010
0100
1000
0010
0100
,
0001
0010
0001
1000
0001
0100
0010
1000
0000
1000
0010
0100
0001
0010
0100
1000
,
0001
0100
0001
1000
0001
0010
0100
0010
0000
0010
0001
1000
0100
1000
0010
0100
,
0001
0010
0001
1000
0001
0100
0010
0100
0000
0100
0001
0010
0100
0000
0100
0010
,
0001
0100
0010
1000
0100
0000
0010
0100
1000
0010
0100
0000
0001
0100
0010
1000
,
0100
0000
0010
0100
1000
0010
0100
0000
0100
0010
1000
0100
0000
0100
1000
0010
,
0100
0001
1000
0001
0010
0001
0100
0010
0000
0010
0100
0001
0010
0100
1000
0100
,
0010
0001
0100
0001
1000
0100
0010
0100
0000
0100
1000
0010
0100
0000
0100
0010
,
1000
0100
1000
0001
1000
0010
0100
0001
,
0000
0001
0100
0010
0100
0001
0010
0100
,
1000
0010
1000
0001
1000
0100
0010
0001
,
0000
0001
0010
0100
1000
0010
0100
0010
,
1000
0100
1000
0001
1000
0010
0100
0010
,
0000
0010
1000
0001
0100
0001
0010
0100
,
1000
0010
1000
0001
1000
0100
0010
0100
,
0000
0100
1000
0010
0100
0000
0100
0010
,
1000
0010
0100
0001
0100
0010
1000
0001
0010
0100
0010
0100
1000
0001
0010
0001
,
1000
0100
0010
0001
1000
0010
1000
0010
0100
0001
1000
0010
1000
0001
0100
0010
,
1000
0100
1000
0100
0010
0001
1000
0001
0010
0100
1000
0001
0100
0010
0100
0010
,
1000
0001
0100
0010
0100
0001
1000
0100
1000
0100
0010
0001
1000
0001
0100
0010
,
1000
0100
0010
0001
1000
0100
0010
0100
1000
0001
0010
0001
1000
0010
0100
0010
,
1000
0100
0010
0001
0010
0100
1000
0001
0100
0001
1000
0010
0100
0001
1000
0010
,
1000
0100
0010
0001
1000
0100
0010
0100
1000
0010
0100
0001
0100
0010
1000
0000
,
0000
0000
2020
3030
2002
3003
0022
0033
2002
3003
0000
0000
0001
0000
1000
0100
,
0010
0001
1000
0100
1000
0001
0010
0001
1000
0010
0100
0001
1000
0001
0100
0010
,
0100
0010
1000
0001
1000
0010
0100
0010
1000
0001
0010
0100
1000
0010
0100
0001
,
1000
0001
0100
0010
1000
0001
0100
0001
1000
0100
0010
0001
1000
0001
0010
0100
,
0010
0100
1000
0001
1000
0100
0010
0100
1000
0010
0100
0001
0010
0100
0010
0001
,
1000
0010
0100
0001
1000
0010
1000
0001
0010
0100
0010
0001
1000
0100
0010
0001
,
0010
0001
1000
0100
0010
0100
1000
0001
0100
0001
1000
0010
1000
0100
0010
0100
,
1000
0010
0100
0001
1000
0010
1000
0001
0010
0100
0010
0001
1000
0100
1000
0001
,
0100
0010
1000
0001
1000
0100
0010
0001
1000
0010
0100
0001
0010
0100
1000
0010
,
1000
0001
0010
0100
0010
0001
1000
0001
0100
0010
0100
0010
1000
0001
0010
0100
,
0010
0001
1000
0001
0100
0010
0100
0010
1000
0001
0010
0100
1000
0010
0100
0001
,
0010
0100
0010
0100
1000
0001
0100
0010
0100
0001
1000
0001
0010
0100
0010
0100
,
1000
0001
0100
0001
1000
0100
0010
0001
0100
0010
1000
0010
0100
0001
0010
0100
,
1000
0010
0100
0001
1000
0001
0100
0010
1000
0001
0010
0100
0010
0001
1000
0100
,
1000
0010
0100
0010
1000
0001
0100
0001
1000
0100
0010
0001
1000
0100
0010
0100
,
1000
0010
0100
0010
1000
0001
0100
0010
1000
0100
0010
0001
1000
0001
0010
0100
,
1000
0001
0100
0010
1000
0001
1000
0100
0010
0001
0100
0010
1000
0100
0010
0001
,
1000
0010
0100
0010
1000
0100
0010
0100
1000
0001
0100
0010
1000
0100
0010
0001
,
1000
0100
0010
0100
1000
0010
0100
0001
1000
0001
0010
0100
1000
0010
0100
0001
,
1000
0001
0100
0010
1000
0100
0010
0001
1000
0001
0100
0010
1000
0100
0010
0001
,
1000
0001
0010
0100
1000
0010
0100
0001
0010
0100
0010
0001
0100
0010
1000
0001
,
1000
0100
0010
0100
1000
0010
0100
0010
1000
0001
0010
0100
1000
0010
0100
0001
,
1000
0010
0100
0010
1000
0100
0010
0001
1000
0001
0100
0010
1000
0100
0010
0001
,
1000
0001
0010
0100
1000
0010
0100
0001
1000
0001
0010
0100
1000
0010
0100
0001
,
1000
0001
0100
0010
1000
0001
0010
0001
0100
0010
1000
0100
0010
0001
0100
0010
,
1000
0001
0010
0001
1000
0010
0100
0001
1000
0100
0010
0100
1000
0001
0100
0001
,
1000
0100
0010
0001
1000
0010
0100
0010
1000
0001
0010
0100
1000
0001
0100
0001
,
0010
0100
1000
0001
0100
0010
0100
0001
1000
0100
0010
0100
1000
0001
0100
0010
,
1000
0001
0010
0100
1000
0001
0100
0001
0010
0100
1000
0001
1000
0100
0010
0001
,
0100
0010
1000
0001
0010
0100
0010
0001
1000
0010
0100
0001
1000
0100
0010
0100
,
1000
0010
0100
0001
1000
0100
0010
0100
1000
0001
0100
0001
1000
0100
0010
0100
,
1000
0010
0100
0001
1000
0100
0010
0100
1000
0010
0100
0001
1000
0100
0010
0001
,
1000
0010
0100
0001
1000
0100
0010
0001
0100
0010
1000
0100
1000
0010
0100
0001
,
1000
0100
0010
0100
1000
0001
0100
0001
1000
0100
0010
0001
1000
0001
0010
0100
,
0010
0100
1000
0001
1000
0100
0010
0100
1000
0001
0100
0010
1000
0100
0010
0001
,
0100
0001
1000
0100
1000
0001
0010
0001
1000
0010
0100
0001
1000
0001
0100
0010
,
0100
0010
1000
0001
1000
0010
0100
0010
1000
0100
0010
0001
0100
0010
0100
0001
,
0010
0100
0010
0001
1000
0100
1000
0001
0100
0010
0100
0001
1000
0010
0100
0001
,
0100
0001
1000
0010
0100
0010
1000
0001
0010
0001
1000
0100
1000
0010
0100
0010
,
1000
0100
0010
0001
1000
0100
1000
0001
0100
0010
0100
0001
1000
0010
1000
0001
,
0010
0100
1000
0001
1000
0010
0100
0001
1000
0100
0010
0001
0100
0010
1000
0100
,
0010
0001
0010
0001
0100
0010
1000
0001
1000
0001
0010
0100
1000
0010
0100
0001
,
1000
0100
1000
0100
0010
0001
0100
0010
0100
0010
1000
0001
0010
0001
0100
0010
,
1000
0100
0010
0100
1000
0010
0100
0001
0100
0001
0010
0100
1000
0010
0100
0010
,
1000
0100
0010
0100
1000
0010
0100
0001
0100
0001
0010
0100
1000
0010
0100
0001
,
0010
0100
0010
0001
1000
0100
0010
0100
1000
0010
0100
0001
1000
0001
0100
0010
,
1000
0100
0010
0001
1000
0100
0010
0100
1000
0010
1000
0001
0100
0010
0100
0001
,
0010
0100
1000
0001
0010
0001
0100
0010
1000
0100
0010
0001
0100
0010
1000
0100
,
1000
0010
0100
0001
0100
0010
1000
0100
0010
0001
0100
0001
1000
0010
0100
0010
,
1000
0100
0010
0100
1000
0001
0100
0001
1000
0100
0010
0001
1000
0001
0010
0100
,
0010
0100
1000
0001
1000
0100
0010
0100
1000
0001
0100
0010
1000
0100
0010
0100
,
1000
0010
0100
0010
1000
0001
0010
0001
1000
0010
0100
0001
1000
0001
0100
0010
,
0100
0010
1000
0001
1000
0010
0100
0010
1000
0001
0010
0100
1000
0010
0100
0001
,
0010
0100
1000
0001
0010
0100
0010
0001
0100
0010
0100
0001
1000
0010
0100
0001
,
0010
0100
1000
0010
0100
0001
0100
0010
1000
0100
0010
0100
1000
0001
0010
0100
,
1000
0010
0100
0001
0010
0100
0010
0001
0100
0010
1000
0010
0100
0001
1000
0010
,
1000
0100
0010
0100
1000
0010
0100
0010
1000
0100
0010
0001
0100
0010
1000
0010
,
0100
0000
0000
0000
0002
0003
0002
0003
,
1000
0100
0010
0001
1000
0001
0100
0010
1000
0100
0010
0001
1000
0001
0100
0010
,
1000
0100
0010
0001
1000
0001
0100
0010
1000
0100
0010
0001
1000
0010
0100
0001
,
0010
0100
1000
0001
1000
0010
0100
0001
0010
0100
1000
0001
1000
0010
0100
0001
,
0010
0100
1000
0001
1000
0010
0100
0001
0010
0100
1000
0010
0100
0001
0010
0100
,
1000
0100
0010
0001
1000
0001
0100
0010
1000
0100
0010
0001
1000
0001
0100
0010
,
1000
0100
0010
0001
1000
0001
0100
0010
1000
0100
0010
0001
1000
0010
0100
0001
,
0010
0100
1000
0001
1000
0010
0100
0001
0010
0100
1000
0001
1000
0010
0100
0001
,
0010
0100
1000
0001
1000
0010
0100
0001
1000
0100
0010
0001
1000
0001
0100
0010
,
1000
0000
0000
0000
,
0000
0000
0000
0000
,
0000
0000
0000
0000
,
0000
0000
0000
0000
,
000M
0000
0000
0000
;
