#TITLE:WWIII;
#SUBTITLE:;
#ARTIST:KMFDM;
#TITLETRANSLIT:;
#SUBTITLETRANSLIT:;
#ARTISTTRANSLIT:;
#CREDIT:;
#BANNER:worldwariii-bn.png;
#BACKGROUND:worldwariii-bg.png;
#LYRICSPATH:;
#CDTITLE:!darkmagetitle2.png;
#MUSIC:WWIII.ogg;
#OFFSET:-26.163;
#SAMPLESTART:69.868;
#SAMPLELENGTH:29.900;
#SELECTABLE:YES;
#DISPLAYBPM:280.000;
#BPMS:0.000=140.000,72.000=280.000,264.000=140.000,296.000=280.000,424.000=140.000,456.000=70.000,464.000=35.000,468.000=280.000,660.000=140.000,692.000=280.000,1028.000=35.000;
#STOPS:;
#BGCHANGES:0.000=worldwariii-bg.png=1.000=0=0=1,
99999=-nosongbg-=1.000=0=0=0 // don't automatically add -songbackground-
;
// cache tags:
#FIRSTBEAT:4.000;
#LASTBEAT:1029.000;
#SONGFILENAME:Songs/Archmage and Dark0wl Hammer of Thor UltraHyperMegaPack/WWIII/WWIII.sm;
#HASMUSIC:1;
#HASBANNER:1;
#MUSICLENGTH:105.000;
// end cache tags

//---------------dance-single - Darkmage----------------
#NOTES:
     dance-single:
     Darkmage:
     Challenge:
     17:
     1.000,1.000,1.000,0.048,1.000,2399.000,388.000,5.000,98.000,1.000:
0000
0000
0000
0000
,
1000
0001
0110
1010
,
1000
0100
1000
0100
1000
0100
0010
0001
0010
0001
1000
0010
0100
0001
0010
0100
,
1000
0100
1000
0100
1000
0100
0010
0001
0010
0001
1000
0010
0100
0001
0010
0100
,
0010
0001
0010
0001
0010
0001
1000
0100
1000
0100
0010
0001
1000
0010
0100
0001
,
0100
0010
0100
0010
0100
0010
1000
0100
1000
0010
0100
0001
0010
0001
0100
0001
,
1000
0010
1000
0010
1000
0010
0100
0001
0100
0001
0100
0010
0100
0010
1000
0100
,
0010
0001
0010
0001
0010
0001
0010
0001
0010
0001
0010
0100
1000
0100
0010
0001
,
1000
0100
1000
0100
1000
0100
0010
0100
1000
0100
1000
0100
1000
0100
1000
0010
,
0100
0001
0010
0100
1000
0010
0100
0010
1000
0100
0010
0001
1000
0010
0100
0001
,
1000
0100
0010
0001
0100
1000
0100
0001
0100
1000
0100
0001
0100
1000
0100
0001
,
0100
0010
1000
0010
0001
0010
1000
0010
0001
0010
1000
0010
0001
0010
1000
0010
,
0100
0001
1000
0100
0001
0100
1000
0100
0001
0100
1000
0100
0001
0100
1000
0100
,
0010
1000
0010
0001
0010
1000
0010
0001
0010
1000
0010
0001
0010
1000
0010
0001
,
0010
1000
0100
0001
0100
1000
0100
0001
0100
1000
0100
0001
0100
1000
0100
0001
,
0100
0010
0001
0100
0001
0010
0001
0100
0001
0010
0001
0100
0001
0010
0001
0100
,
0010
1000
0100
1000
0010
1000
0100
1000
0010
1000
0100
1000
0010
1000
0100
1000
,
0010
0100
0001
1000
0100
0010
0000
0000
0000
0000
0000
0000
0000
0000
0000
0000
,
1001
1000
0100
1000
0100
1000
0100
1000
,
0100
1000
0100
1000
0100
1000
0101
1000
,
0110
1000
0100
1000
0100
1000
0100
1000
,
0100
1000
0101
1000
0100
1000
0101
1000
,
1001
0010
0100
0001
0100
0001
0100
0001
,
0100
0001
0100
0001
0100
0001
1010
0001
,
0110
0001
0100
0001
0100
0001
0110
0001
,
0100
0001
0110
0001
0100
0001
1010
0001
,
1100
0010
0100
0010
0100
0010
0100
0010
,
0100
0010
0100
0010
0100
0010
1100
0010
,
1001
0100
0010
0100
0010
0100
0010
0100
,
0010
0100
1010
0100
0010
0100
1010
0100
,
1001
0010
1000
0010
1000
0010
1000
0010
,
1000
0010
1000
0010
1000
0010
0101
1000
,
0110
0000
0000
MMMM
0000
0000
1100
0000
0000
MMMM
0000
0000
0011
0000
0000
MMMM
,
0000
0000
1100
0000
0000
MMMM
0000
0000
1010
0000
1100
0000
0011
0000
0101
0000
,
1001
0100
0001
0100
0001
0100
0001
0100
,
0001
0100
0001
0100
0001
0100
1010
0001
,
0110
0001
1000
0001
1000
0001
1000
0001
,
1000
0001
0110
1000
0001
1000
0110
0001
,
1100
0001
0100
0001
0100
0001
0100
0001
,
0100
0001
0100
0001
0100
0001
1100
0001
,
0110
0001
0010
0001
0010
0001
1010
0001
,
0010
0001
1100
0001
0010
0001
0110
0001
,
1100
0010
1000
0010
1000
0010
1000
0010
,
1000
0010
1000
0010
1000
0010
1100
0010
,
1001
0010
1000
0010
1000
0010
1000
0010
,
1000
0010
1100
0010
1000
0010
1100
0010
,
1001
0100
0001
0100
0001
0100
0001
0100
,
0001
0100
0001
0100
0001
0100
0011
0100
,
0011
0000
0000
MMMM
0000
0000
1100
0000
0000
MMMM
0000
0000
1010
0000
0000
MMMM
,
0000
0000
0101
0000
0000
MMMM
0000
0000
0011
0000
0110
0000
1100
0000
1010
0000
,
1001
1000
0100
1000
0100
1000
0100
1000
,
0100
1000
0100
1000
0100
1000
0101
1000
,
0110
1000
0010
1000
0010
1000
0010
1000
,
0010
1000
0011
1000
0010
1000
0110
1000
,
0101
0010
0001
0010
0001
0010
0001
0010
,
0001
0010
0001
0010
0001
0010
0101
0010
,
1001
0010
0001
0010
0001
0010
0101
0010
,
0001
0010
0101
0010
0001
0010
0101
1000
,
0011
1000
0001
1000
0001
1000
0001
1000
,
0001
1000
0001
1000
0001
1000
0101
1000
,
0011
1000
0001
1000
0001
1000
0001
1000
,
0001
1000
0110
0001
1000
0001
0110
1000
,
0101
0010
0100
0010
0100
0010
0100
0010
,
0100
0010
0100
0010
0100
0010
0101
1000
,
0011
0000
1000
0000
0001
0000
0000
0000
0000
1100
0000
0010
0000
1000
0000
0000
0000
0000
1010
0000
0001
0000
0100
0000
,
0000
0000
0000
0101
0000
0010
0000
1000
0000
0000
0000
0000
0110
0000
0000
1100
0000
0000
0011
0000
0000
0110
0000
0000
,
1001
0100
1000
0100
1000
0100
1000
0100
1010
0100
1000
0100
1001
0100
1010
0001
,
1100
0000
0001
0010
0001
0010
0001
0010
0101
0010
0001
0010
0001
0010
0001
0000
,
1001
0000
0100
1000
0100
1000
0100
1000
0101
1000
0011
1000
0101
1000
0110
1000
,
0011
0000
1100
0001
1100
0001
1100
0001
1010
0000
0000
0000
1001
0000
0000
0000
,
0101
0000
0001
1000
0001
1000
0001
1000
0011
1100
0000
0000
0011
0011
1100
1100
,
1001
0000
0100
0001
0100
0001
0100
0001
1100
0000
0000
0000
0010
1000
0010
1000
,
0010
0000
0100
0001
0100
0001
0100
0001
1100
0010
0100
0001
1100
0010
0100
0001
,
1010
0000
0001
0000
0100
0000
0000
0000
0000
1100
0000
0010
0000
0001
0000
0000
0000
0000
0110
0000
1000
0000
0001
0000
0000
0000
0000
0101
0010
1000
0000
0000
0000
0000
0000
0000
0110
0000
0000
1100
0000
0000
0011
0000
0000
0110
0000
0000
,
1000
0100
1000
0100
1000
0000
0100
0000
0010
0000
0100
0000
0010
0000
0100
0000
,
0010
0000
0100
0000
0010
0000
0100
0000
0010
0000
0100
0000
0010
0001
0010
0001
,
1000
0100
1000
0100
0010
0100
0010
0100
1000
0000
0001
0000
1000
0000
0001
0000
,
1000
0000
0001
0000
0100
0010
0100
0010
0100
0000
0001
0000
1000
0100
1000
0100
,
0010
0001
0010
0001
1000
0001
1000
0001
0100
0000
0010
0000
0100
0000
0010
0000
,
0100
0000
0010
0000
0100
0000
0010
0000
0100
0000
0010
0000
1000
0010
1000
0010
,
0100
0001
0100
0001
1000
0100
1000
0100
0010
0000
0001
0000
1000
0001
1000
0001
,
1000
0000
0001
0000
0100
0001
0100
0001
0100
0000
0010
0000
1000
0001
1000
0001
,
0100
0010
0100
0010
1000
0001
1000
0001
1000
0000
0010
0000
1000
0000
0010
0000
,
1000
0000
0010
0000
1000
0000
0010
0000
1000
0000
0010
0000
0100
0001
0100
0001
,
1000
0100
1000
0100
0010
0001
0010
0001
1000
0000
0100
0000
1000
0000
0100
0000
,
1000
0000
0100
0000
0010
0001
0010
0001
0010
0000
0001
0000
0100
0001
0100
0001
,
1000
0010
1000
0010
0100
0001
0100
0001
1000
0000
0010
0000
1000
0000
0010
0000
,
1000
0010
1000
0010
1000
0010
0101
1000
,
0011
0100
0001
1100
0010
0001
1010
0100
,
0010
0101
1000
0100
0011
0110
1100
1010
,
1001
0100
0001
0100
0001
0100
0001
0100
,
0001
0100
0001
0100
0001
0100
0011
0100
,
1010
0100
0010
0100
0010
0100
0010
0100
,
0010
0100
0011
0100
0010
0100
0011
0100
,
1010
0100
1000
0100
1000
0100
1000
0100
,
1000
0100
1000
0100
1000
0100
1010
0100
,
1001
0010
0001
0010
0001
0010
0101
0010
,
0100
0010
0101
0010
0001
0010
0101
0010
,
1001
0100
0010
0100
0010
0100
0010
0100
,
0010
0100
0010
0100
0010
0100
0011
0100
,
1010
0001
1000
0001
1000
0001
1000
0001
,
1000
0001
1100
0001
1000
0001
1100
0010
,
1001
0100
0001
0100
0001
0100
0001
0100
,
0001
0100
0001
0100
0001
0100
0011
0100
,
1001
0000
0010
0000
0001
0000
0000
0000
0000
0101
0000
0010
1000
0000
0000
0000
0000
0000
1100
0000
0001
0000
0100
0000
,
0000
0000
0000
0011
0000
1000
0000
0100
0000
0000
0000
0000
1100
0000
0000
0011
0000
0000
0101
0000
0000
0110
0000
0000
,
1001
0100
0010
0001
1000
0100
0010
0001
1000
0100
0010
0001
1000
0100
0010
0001
,
1000
0100
0010
0001
1000
0100
0010
0001
1000
0100
0010
0001
1000
0100
0010
0001
,
1000
0100
0010
0001
1000
0100
0010
0001
1000
0100
0010
0001
1000
0100
0010
0001
,
1000
0100
0010
0001
1000
0100
0010
0001
1000
0100
0010
0001
1000
0100
0010
0001
,
0010
0100
1000
0001
0010
0100
1000
0001
0010
0100
1000
0001
0010
0100
1000
0001
,
0010
0100
1000
0001
0010
0100
1000
0001
0010
0100
1000
0001
0010
0100
1000
0001
,
0010
0100
1000
0001
0010
0100
1000
0001
0010
0100
1000
0001
0010
0100
1000
0001
,
0010
0100
1000
0001
1000
0100
0010
0001
0010
0100
1000
0001
1000
0100
0010
0001
,
1000
0000
0100
0000
1000
0000
0010
0000
0100
0000
0001
0000
0010
0000
0001
0000
0100
0000
0010
0000
1000
0000
0010
0000
0100
0000
0001
0000
1000
0010
1000
0010
0100
0001
0100
0001
1000
0010
1000
0010
1000
0000
0001
0000
1000
0000
0001
0000
1000
0000
0001
0000
0010
0001
0010
0001
0010
0000
0001
0000
1000
0010
1000
0010
,
0100
0001
0100
0001
1000
0100
1000
0100
1000
0000
0010
0000
1000
0000
0010
0000
1000
0000
0010
0000
1000
0000
0010
0000
1000
0000
0010
0000
0100
0001
0100
0001
1000
0010
1000
0010
1000
0001
1000
0001
1000
0000
0100
0000
1000
0100
1000
0100
1000
0000
0100
0000
0010
0001
0010
0001
0010
0000
0001
0000
0100
0001
0100
0001
,
0100
0010
1000
0010
0100
0001
0010
0001
0100
0010
1000
0001
0010
0001
1010
0000
0110
0000
0101
1000
0010
0100
0001
0100
1010
0000
0000
0000
0101
0000
0000
0000
1001
0000
0100
1000
0010
0100
0001
0010
0001
0100
0010
1000
0001
0100
1000
0100
0010
0000
0000
1000
0000
0000
0001
0000
0000
1000
0000
0000
1000
0000
0010
0000
,
1001
0010
0001
1000
0010
0100
0010
1000
,
0100
0010
0001
1000
0010
0100
0011
1000
,
0101
0010
0001
1000
0010
0100
0010
1000
,
0001
0100
1010
0100
0001
0010
0101
0010
,
1001
0100
1000
0001
0100
0010
1000
0100
,
1000
0010
0100
0001
0100
0010
1100
0010
,
1001
0100
0010
1000
0001
0010
0101
1000
,
0100
0010
0101
0010
0001
1000
0011
1000
,
0101
0010
0001
1000
0010
0100
0010
1000
,
0100
0010
0001
1000
0010
0100
0011
1000
,
0101
0010
0001
1000
0100
0010
0100
1000
,
0001
0010
1001
0001
0100
0001
1100
0001
,
1010
0100
1000
0001
0100
0010
1000
0001
,
0010
0001
0100
0010
1000
0100
1001
0010
,
1100
0000
0000
MMMM
0000
0000
0011
0000
0000
MMMM
0000
0000
1010
0000
0000
MMMM
,
0000
0000
0101
0000
0000
MMMM
0000
0000
0011
0000
0110
0000
1100
0000
0110
0000
,
0011
1000
0010
0100
0001
0100
0010
1000
,
0100
0010
0001
0010
0100
1000
0101
0010
,
1001
0100
0010
1000
0001
1000
0010
0100
,
0001
0010
1100
0010
0001
1000
0101
0010
,
1100
0001
0100
0010
1000
0100
1000
0001
,
0010
0001
0100
0010
1000
0100
1010
0100
,
0011
0100
1000
0010
0100
0001
1100
0010
,
1000
0100
1010
0001
0100
0001
1100
0010
,
1001
0010
0100
0001
0010
0100
1000
0100
,
0001
0100
1000
0010
0100
0001
0110
0001
,
1100
0010
0100
0001
1000
0100
1000
0010
,
0100
0001
1010
0001
0100
0010
1001
0100
,
0011
0100
1000
0001
0010
0001
0100
0010
,
1000
0100
0010
0100
1000
0001
1010
0001
,
1100
0010
1000
0011
0100
0010
1100
0001
,
0010
0000
0000
0000
0000
0000
0101
0000
0000
1000
0000
0000
0010
0000
0000
0000
0100
0000
0000
0000
0001
0000
0000
0000
0010
0000
0000
0000
0100
0000
0000
0000
1000
0000
0000
0000
0010
0000
0000
0000
0100
0000
0000
0000
0001
0000
0000
0000
,
1001
0000
0000
0110
0000
0000
1001
0000
,
0000
0000
1000
0100
1000
0100
0010
0100
,
0010
0100
0010
0001
0010
0001
1000
0010
,
1000
0010
0100
0001
0100
0001
1100
0000
,
1100
0000
0000
0011
0000
0000
0101
0000
,
0000
0000
0100
0010
0100
0010
1000
0001
,
0100
0001
0100
0001
0100
0010
0100
0010
,
1000
0000
0000
0010
0000
0100
0000
1000
0000
0010
0000
0000
0100
0000
0000
0001
0000
0000
0100
0000
0000
0010
0000
0000
,
0101
0000
0000
0110
0000
0000
1010
0000
,
0000
0000
0001
1000
0001
1000
0010
0100
,
0010
0100
0001
1000
0001
1000
0010
0100
,
0010
0000
0000
1000
0000
0100
0000
0010
0000
0001
0000
0000
0000
0000
0000
0000
0000
0000
0101
0000
0000
0000
0000
0000
,
0011
0000
0000
0101
0000
0000
1010
0000
,
0000
0000
0001
0100
0010
1000
0001
1000
,
0001
0010
0100
1000
0000
0000
1000
0100
0010
0001
0000
0000
,
0001
0000
0010
0000
0100
0000
1000
0000
0100
0010
0001
1000
0010
0100
0001
1000
,
0101
0000
0010
0001
1000
0000
0010
0000
2200
0000
3000
0000
M000
0000
M000
0000
,
M000
0000
M310
0000
M001
0100
M000
0000
1M10
0000
0100
0000
M011
0000
0MM0
0000
,
1001
0000
0100
0010
1000
0000
0100
0000
0011
0000
0100
0000
0000
0000
MMMM
0000
,
0000
0000
0001
0000
0000
0100
0000
0000
1010
0000
0100
0010
1001
0000
0010
0001
,
2100
0000
0000
3M11
0000
0000
1010
0000
0101
0000
00M0
M000
0000
0000
100M
0000
,
0000
M000
0010
0000
0000
0100
0000
0000
0101
0000
0010
0100
1001
0000
0100
0000
,
0011
0000
0000
10M0
0000
0000
1100
0000
0011
0000
1000
0000
0000
0000
0110
0000
,
0100
0010
0100
0010
0100
0010
0100
0010
1000
0001
1000
0001
1000
0001
1000
0001
,
1000
0010
0100
0001
0100
0010
1000
0010
0100
0001
0100
0010
,
1000
0100
0010
0001
0010
0100
1000
0100
0010
0001
0010
0100
,
1000
0100
1000
0010
0100
0001
0100
0010
1000
0100
1000
0001
,
1000
0100
0010
0100
1000
0100
0010
0001
0010
0100
0010
0001
,
1000
0010
0100
0010
1000
0001
0100
0010
0100
0001
1000
0100
,
1000
0100
0010
0001
0010
0100
0010
0001
1000
0010
0100
0001
,
0100
0010
1000
0010
0100
0001
0010
0100
1000
0100
0010
0001
,
1000
0100
1000
0001
0010
0100
0010
0001
1000
0100
0010
0100
,
2002
0000
0000
0000
3003
0000
0000
1000
,
0100
1000
0010
0100
0001
0010
0001
0100
,
0010
1000
0100
0010
0001
1000
0010
0100
,
0001
0100
0010
1000
0100
0010
0001
1000
,
0010
0100
0010
1000
0001
0010
0001
1000
,
0100
1000
0010
0100
0001
0010
0001
1000
,
1100
1100
1100
0011
0011
0011
0101
0101
,
0101
1010
1010
1010
1100
0110
0011
0110
,
1010
0100
0001
0010
0001
0100
0010
1000
,
0100
1000
0010
0100
0001
1000
0101
0010
,
1001
0100
0010
0100
1000
0010
0100
0001
,
0010
0001
1100
0010
0100
0001
1010
0100
,
1001
0010
0001
0100
0010
1000
0100
1000
,
0010
0100
0001
0010
0001
1000
0101
0010
,
1100
0010
0001
0100
0010
1000
0101
1000
,
0100
1000
0101
1000
0010
1000
0011
1000
,
0011
0100
0010
1000
0100
0010
0001
1000
,
0010
0100
0010
1000
0001
0010
1100
0010
,
1001
0100
0010
1000
0001
0010
0001
0100
,
0010
1000
0011
1000
0100
1000
0101
1000
,
0101
0010
0001
0100
0010
1000
0001
0010
,
0001
0100
0010
1000
0001
0100
0011
1000
,
0110
0000
0001
0000
1000
0000
0000
0000
0000
1010
0000
0100
0000
0010
0000
0000
0000
0000
0011
0000
0100
0000
0010
0000
,
0000
0000
0000
0101
0000
0010
0000
1000
0000
0000
0000
0000
0011
0000
0000
0110
0000
0000
1100
0000
0000
0110
0000
0000
,
1001
0100
0010
0001
1000
0010
0100
0010
,
1000
0001
0010
0001
0100
0010
1100
0010
,
1001
0100
0010
1000
0100
1000
0010
0100
,
0001
0010
1100
0001
0100
0001
1010
0001
,
1010
0001
0100
0010
1000
0100
0010
0100
,
0001
0100
1000
0010
0100
0001
1010
0001
,
1100
0010
0100
0001
0100
0010
1001
0100
,
0010
0100
1001
0010
0100
0010
1001
0010
,
1001
0100
0010
0001
0010
0100
1000
0001
,
0010
0100
1000
0010
0100
0001
1100
0010
,
1001
0100
0010
1000
0001
0010
0001
1000
,
0100
1000
0101
0010
0001
1000
0110
0001
,
1010
0100
0010
0001
1000
0100
1000
0001
,
0010
0100
0010
0001
1000
0010
1100
0010
,
1001
0000
0100
0000
0010
0000
0000
0000
0000
0101
0000
0001
0000
1000
0000
0000
0000
0000
1100
0000
1000
0000
0001
0000
,
0000
0000
0000
0101
0000
0100
0000
0010
0000
0000
0000
0000
1100
0000
0000
1010
0000
0000
0110
0000
0000
0101
0000
0000
,
1001
0100
0010
0100
0001
0100
0010
0100
,
1000
0100
0010
0100
0001
0100
0011
0100
,
1010
0100
0001
0100
0010
0001
0010
1000
,
0010
0100
1010
0100
0010
1000
0011
0100
,
1010
0001
0100
0010
0100
1000
0100
0010
,
0100
0001
0100
0010
0100
0010
1100
0010
,
0101
0010
0100
0010
1000
0010
1100
0010
,
0001
0010
1100
0010
0001
0010
1100
0010
,
0101
0010
1000
0001
0100
0010
0100
0001
,
1100
0011
1000
0001
1100
1100
0011
0011
,
1000
0100
0010
0100
0001
0100
0010
0001
,
1010
0100
0010
0100
0001
0100
1010
0100
,
1010
0001
0010
0100
0001
0100
1000
0100
,
0010
0100
1000
0010
0100
0010
0101
0010
,
1001
0000
0000
MMMM
0000
0000
0101
0000
0000
MMMM
0000
0000
0110
0000
0000
MMMM
,
0000
0000
1010
0000
0000
MMMM
0000
0000
1100
0000
0011
0000
1010
0000
0101
0000
,
1010
0100
0010
1000
0001
0010
0001
0100
,
0010
1000
0100
1000
0010
0100
1001
0010
,
1100
0010
0001
0100
0010
1000
0001
0010
,
0001
0100
1010
0100
0001
0010
0101
1000
,
0110
0001
0010
0001
0100
0010
1000
0001
,
0100
0010
0100
1000
0100
0010
1100
0001
,
0110
1000
0100
0010
0100
1000
0011
1000
,
0010
1000
0011
1000
0100
1000
0011
1000
,
0101
0010
1000
0100
1000
0010
0100
0001
,
0010
0001
1000
0100
0010
0100
1001
0010
,
1100
0010
0001
0010
0100
1000
0001
0010
,
0100
0010
1001
0100
1000
0010
1100
0001
,
1010
0100
0010
1000
0001
0100
0010
1000
,
0001
0010
0001
0100
0010
1000
0101
0010
,
1001
0000
0010
0000
0100
0000
0000
0000
0000
0011
0000
0100
0000
1000
0000
0000
0000
0000
1010
0000
0100
0000
0001
0000
,
0000
0000
0000
0101
0000
0010
0000
1000
0000
0000
0000
0000
1001
0000
0000
0011
0000
0000
1001
0000
0000
1100
0000
0000
,
1001
0000
0100
0000
0010
0000
0000
0000
0000
0101
0000
1000
0000
0010
0000
0000
0000
0000
1010
0000
0100
0000
0010
0000
,
0000
0000
0000
0110
0000
0001
0000
1000
0000
0000
0000
0000
1001
0000
0000
1100
0000
0000
0011
0000
0000
0101
0000
0000
,
1001
0000
1100
0000
0011
0000
0000
0000
0000
0101
0000
0110
0000
1010
0000
0000
0000
0000
1100
0000
0110
0000
0011
0000
,
0000
0000
0000
0101
0000
0110
0000
1010
0000
0000
0000
0000
1100
0000
0000
0011
0000
0000
0101
0000
0000
0110
0000
0000
,
1001
0000
M00M
M00M
M00M
M00M
M00M
M00M
M00M
0000
0000
0000
0000
0000
0000
0000
0000
0000
0000
0000
0000
0000
0000
0000
0000
0000
0000
0000
0000
0000
0000
0000
;

//---------------dance-single - ----------------
#NOTES:
     dance-single:
     :
     Hard:
     14:
     1.000,1.000,1.000,0.048,1.000,2044.000,383.000,5.000,167.000,1.000:
0000
0000
0000
0000
,
1000
0001
0110
1010
,
1000
0100
1000
0100
1000
0100
0010
0001
0010
0001
1000
0010
0100
0001
0010
0100
,
1000
0100
1000
0100
1000
0100
0010
0001
0010
0001
1000
0010
0100
0001
0010
0100
,
0010
0001
0010
0001
0010
0001
1000
0100
1000
0100
0010
0001
1000
0010
0100
0001
,
0100
0010
0100
0010
0100
0010
1000
0100
1000
0010
0100
0001
0010
0001
0100
0001
,
1000
0010
1000
0010
1000
0010
0100
0001
0100
0001
0100
0010
0100
0010
1000
0100
,
0010
0001
0010
0001
0010
0001
0010
0001
0010
0001
0010
0100
1000
0100
0010
0001
,
1000
0100
1000
0100
1000
0100
0010
0100
1000
0100
1000
0100
1000
0100
1000
0010
,
0100
0001
0010
0100
1000
0010
0100
0010
1000
0100
0010
0001
1000
0010
0100
0001
,
1000
0100
0010
0001
0100
1000
0100
0001
0100
1000
0100
0001
0100
1000
0100
0001
,
0100
0010
1000
0010
0001
0010
1000
0010
0001
0010
1000
0010
0001
0010
1000
0010
,
0100
0001
1000
0100
0001
0100
1000
0100
0001
0100
1000
0100
0001
0100
1000
0100
,
0010
1000
0010
0001
0010
1000
0010
0001
0010
1000
0010
0001
0010
1000
0010
0001
,
0010
1000
0100
0001
0100
1000
0100
0001
0100
1000
0100
0001
0100
1000
0100
0001
,
0100
0010
0001
0100
0001
0010
0001
0100
0001
0010
0001
0100
0001
0010
0001
0100
,
0010
1000
0100
1000
0010
1000
0100
1000
0010
1000
0100
1000
0010
1000
0100
1000
,
0010
0100
0001
1000
0100
0010
0000
0000
0000
0000
0000
0000
0000
0000
0000
0000
,
1001
1000
0100
1000
0100
1000
0100
1000
,
0100
1000
0100
1000
0100
1000
0101
1000
,
0110
1000
0100
1000
0100
1000
0100
1000
,
0100
1000
0101
1000
0100
1000
0101
1000
,
1001
0010
0100
0001
0100
0001
0100
0001
,
0100
0001
0100
0001
0100
0001
1010
0001
,
0110
0001
0100
0001
0100
0001
0110
0001
,
0100
0001
0110
0001
0100
0001
1010
0001
,
1100
0010
0100
0010
0100
0010
0100
0010
,
0100
0010
0100
0010
0100
0010
1100
0010
,
1001
0100
0010
0100
0010
0100
0010
0100
,
0010
0100
1010
0100
0010
0100
1010
0100
,
1001
0010
1000
0010
1000
0010
1000
0010
,
1000
0010
1000
0010
1000
0010
0101
1000
,
0110
0000
0000
MMMM
0000
0000
1100
0000
0000
MMMM
0000
0000
0011
0000
0000
MMMM
,
0000
0000
1100
0000
0000
MMMM
0000
0000
1010
0000
1100
0000
0011
0000
0101
0000
,
1001
0100
0001
0100
0001
0100
0001
0100
,
0001
0100
0001
0100
0001
0100
1010
0001
,
0110
0001
1000
0001
1000
0001
1000
0001
,
1000
0001
0110
1000
0001
1000
0110
0001
,
1100
0001
0100
0001
0100
0001
0100
0001
,
0100
0001
0100
0001
0100
0001
1100
0001
,
0110
0001
0010
0001
0010
0001
1010
0001
,
0010
0001
1100
0001
0010
0001
0110
0001
,
1100
0010
1000
0010
1000
0010
1000
0010
,
1000
0010
1000
0010
1000
0010
1100
0010
,
1001
0010
1000
0010
1000
0010
1000
0010
,
1000
0010
1100
0010
1000
0010
1100
0010
,
1001
0100
0001
0100
0001
0100
0001
0100
,
0001
0100
0001
0100
0001
0100
0011
0100
,
0011
0000
0000
MMMM
0000
0000
1100
0000
0000
MMMM
0000
0000
1010
0000
0000
MMMM
,
0000
0000
0101
0000
0000
MMMM
0000
0000
0011
0000
0110
0000
1100
0000
1010
0000
,
1001
1000
0100
1000
0100
1000
0100
1000
,
0100
1000
0100
1000
0100
1000
0101
1000
,
0110
1000
0010
1000
0010
1000
0010
1000
,
0010
1000
0011
1000
0010
1000
0110
1000
,
0101
0010
0001
0010
0001
0010
0001
0010
,
0001
0010
0001
0010
0001
0010
0101
0010
,
1001
0010
0001
0010
0001
0010
0101
0010
,
0001
0010
0101
0010
0001
0010
0101
1000
,
0011
1000
0001
1000
0001
1000
0001
1000
,
0001
1000
0001
1000
0001
1000
0101
1000
,
0011
1000
0001
1000
0001
1000
0001
1000
,
0001
1000
0110
0001
1000
0001
0110
1000
,
0101
0010
0100
0010
0100
0010
0100
0010
,
0100
0010
0100
0010
0100
0010
0101
1000
,
0011
0000
1000
0000
0001
0000
0000
0000
0000
1100
0000
0010
0000
1000
0000
0000
0000
0000
1010
0000
0001
0000
0100
0000
,
0000
0000
0000
0101
0000
0010
0000
1000
0000
0000
0000
0000
0110
0000
0000
1100
0000
0000
0011
0000
0000
0110
0000
0000
,
1001
0100
1000
0100
1000
0100
1000
0100
1010
0100
1000
0100
1001
0100
1010
0001
,
1100
0000
0001
0010
0001
0010
0001
0010
0101
0010
0001
0010
0001
0010
0001
0000
,
1001
0000
0100
1000
0100
1000
0100
1000
0101
1000
0011
1000
0101
1000
0110
1000
,
0011
0000
1100
0001
1100
0001
1100
0001
1010
0000
0000
0000
1001
0000
0000
0000
,
0101
0000
0001
1000
0001
1000
0001
1000
0011
1100
0000
0000
0011
0011
1100
1100
,
1001
0000
0100
0001
0100
0001
0100
0001
1100
0000
0000
0000
0010
1000
0010
1000
,
0010
0000
0100
0001
0100
0001
0100
0001
1100
0010
0100
0001
1100
0010
0100
0001
,
1010
0000
0001
0000
0100
0000
0000
0000
0000
1100
0000
0010
0000
0001
0000
0000
0000
0000
0110
0000
1000
0000
0001
0000
0000
0000
0000
0101
0010
1000
0000
0000
0000
0000
0000
0000
0110
0000
0000
1100
0000
0000
0011
0000
0000
0110
0000
0000
,
1001
1000
0100
1000
0100
1000
0100
1000
,
0100
1000
0100
1000
0100
1000
0001
1000
,
0010
0100
0010
0100
0010
0100
0010
0100
,
0010
0100
0001
0100
0010
0100
0001
0100
,
0010
1000
0010
1000
0010
1000
0010
1000
,
0010
1000
0010
1000
0010
1000
0100
1000
,
0001
0100
0001
0100
0001
0100
0010
0100
,
0001
0100
0010
0100
0001
0100
0010
0100
,
0001
1000
0001
1000
0001
1000
0001
1000
,
0001
1000
0001
1000
0001
1000
0010
1000
,
0100
0010
0100
0010
0100
0010
0100
0010
,
0100
0010
0001
0010
0100
0010
0001
0010
,
0100
1000
0100
1000
0100
1000
0100
1000
,
0100
1000
0100
1000
0100
1000
0101
1000
,
0011
0100
0001
1100
0010
0001
1010
0100
,
0010
0101
1000
0100
0011
0110
1100
1010
,
1001
0100
0001
0100
0001
0100
0001
0100
,
0001
0100
0001
0100
0001
0100
0011
0100
,
1010
0100
0010
0100
0010
0100
0010
0100
,
0010
0100
0011
0100
0010
0100
0011
0100
,
1010
0100
1000
0100
1000
0100
1000
0100
,
1000
0100
1000
0100
1000
0100
1010
0100
,
1001
0010
0001
0010
0001
0010
0101
0010
,
0100
0010
0101
0010
0001
0010
0101
0010
,
1001
0100
0010
0100
0010
0100
0010
0100
,
0010
0100
0010
0100
0010
0100
0011
0100
,
1010
0001
1000
0001
1000
0001
1000
0001
,
1000
0001
1100
0001
1000
0001
1100
0010
,
1001
0100
0001
0100
0001
0100
0001
0100
,
0001
0100
0001
0100
0001
0100
0011
0100
,
1001
0000
0010
0000
0001
0000
0000
0000
0000
0101
0000
0010
1000
0000
0000
0000
0000
0000
1100
0000
0001
0000
0100
0000
,
0000
0000
0000
0011
0000
1000
0000
0100
0000
0000
0000
0000
1100
0000
0000
0011
0000
0000
0101
0000
0000
0110
0000
0000
,
1001
M000
00M0
0M00
,
000M
00M0
M000
000M
,
0M00
00M0
M000
0M00
,
00M0
000M
M000
00M0
,
0M00
000M
00M0
M000
,
000M
0M00
00M0
M000
,
0M00
000M
00M0
M000
,
000M
0M00
00M0
M000
0M00
000M
00M0
M000
,
000M
0M00
00M0
M000
0M00
00M0
000M
M000
,
00M0
0M00
000M
00M0
M000
000M
0M00
00M0
M000
0M00
M000
00M0
,
0M00
000M
00M0
000M
0M00
00M0
M000
000M
0M00
00M0
M000
0M00
00M0
000M
0000
0000
,
1001
0010
0001
1000
0010
0100
0010
1000
,
0100
0010
0001
1000
0010
0100
0011
1000
,
0101
0010
0001
1000
0010
0100
0010
1000
,
0001
0100
1010
0100
0001
0010
0101
0010
,
1001
0100
1000
0001
0100
0010
1000
0100
,
1000
0010
0100
0001
0100
0010
1100
0010
,
1001
0100
0010
1000
0001
0010
0101
1000
,
0100
0010
0101
0010
0001
1000
0011
1000
,
0101
0010
0001
1000
0010
0100
0010
1000
,
0100
0010
0001
1000
0010
0100
0011
1000
,
0101
0010
0001
1000
0100
0010
0100
1000
,
0001
0010
1001
0001
0100
0001
1100
0001
,
1010
0100
1000
0001
0100
0010
1000
0001
,
0010
0001
0100
0010
1000
0100
1001
0010
,
1100
0000
0000
MMMM
0000
0000
0011
0000
0000
MMMM
0000
0000
1010
0000
0000
MMMM
,
0000
0000
0101
0000
0000
MMMM
0000
0000
0011
0000
0110
0000
1100
0000
0110
0000
,
0011
1000
0010
0100
0001
0100
0010
1000
,
0100
0010
0001
0010
0100
1000
0101
0010
,
1001
0100
0010
1000
0001
1000
0010
0100
,
0001
0010
1100
0010
0001
1000
0101
0010
,
1100
0001
0100
0010
1000
0100
1000
0001
,
0010
0001
0100
0010
1000
0100
1010
0100
,
0011
0100
1000
0010
0100
0001
1100
0010
,
1000
0100
1010
0001
0100
0001
1100
0010
,
1001
0010
0100
0001
0010
0100
1000
0100
,
0001
0100
1000
0010
0100
0001
0110
0001
,
1100
0010
0100
0001
1000
0100
1000
0010
,
0100
0001
1010
0001
0100
0010
1001
0100
,
0011
0100
1000
0001
0010
0001
0100
0010
,
1000
0100
0010
0100
1000
0001
1010
0001
,
1100
0010
1000
0011
0100
0010
1100
0001
,
0010
0000
0000
0000
0000
0000
0101
0000
0000
1000
0000
0000
0010
0000
0000
0000
0100
0000
0000
0000
0001
0000
0000
0000
0010
0000
0000
0000
0100
0000
0000
0000
1000
0000
0000
0000
0010
0000
0000
0000
0100
0000
0000
0000
0001
0000
0000
0000
,
1001
0000
0000
0110
0000
0000
1001
0000
,
0000
0000
0000
0000
,
0000
0000
0000
0000
,
0000
0000
0000
1100
,
1100
0000
0000
0011
0000
0000
0101
0000
,
0000
0000
0000
0000
,
0100
0001
0100
0001
0100
0010
0100
0010
,
1000
0000
0000
0010
0000
0100
0000
1000
0000
0010
0000
0000
0100
0000
0000
0001
0000
0000
0100
0000
0000
0010
0000
0000
,
0101
0000
0000
0110
0000
0000
1010
0000
,
0000
0000
0000
0000
,
0000
0000
0000
0000
,
0000
0000
0000
1000
0000
0100
0000
0010
0000
0001
0000
0000
0000
0000
0000
0000
0000
0000
0101
0000
0000
0000
0000
0000
,
0011
0000
0000
0101
0000
0000
1010
0000
,
0000
0000
0000
0000
,
0001
0010
0100
1000
0000
0000
1000
0100
0010
0001
0000
0000
,
0001
0000
0010
0000
0100
0000
1000
0000
0100
0010
0001
1000
0010
0100
0001
1000
,
0101
0000
0010
0001
1000
0000
0010
0000
2200
0000
3000
0000
M000
0000
M000
0000
,
M000
0000
M310
0000
M001
0100
M000
0000
1M10
0000
0100
0000
M011
0000
0MM0
0000
,
1001
0000
0100
0010
1000
0000
0100
0000
0011
0000
0100
0000
0000
0000
MMMM
0000
,
0000
0000
0001
0000
0000
0100
0000
0000
1010
0000
0100
0010
1001
0000
0010
0001
,
2100
0000
0000
3M11
0000
0000
1010
0000
0101
0000
00M0
M000
0000
0000
100M
0000
,
0000
M000
0010
0000
0000
0100
0000
0000
0101
0000
0010
0100
1001
0000
0100
0000
,
0011
0000
0000
10M0
0000
0000
1100
0000
0011
0000
1000
0000
0000
0000
0110
0000
,
0100
0010
0100
0010
0100
0010
0100
0010
1000
0001
1000
0001
1000
0001
1000
0001
,
1000
0010
0100
0001
0100
0010
1000
0010
0100
0001
0100
0010
,
1000
0100
0010
0001
0010
0100
1000
0100
0010
0001
0010
0100
,
1000
0100
1000
0010
0100
0001
0100
0010
1000
0100
1000
0001
,
1000
0100
0010
0100
1000
0100
0010
0001
0010
0100
0010
0001
,
1000
0010
0100
0010
1000
0001
0100
0010
0100
0001
1000
0100
,
1000
0100
0010
0001
0010
0100
0010
0001
1000
0010
0100
0001
,
0100
0010
1000
0010
0100
0001
0010
0100
1000
0100
0010
0001
,
1000
0100
1000
0001
0010
0100
0010
0001
1000
0100
0010
0100
,
2002
0000
0000
0000
3003
0000
0000
1000
,
0100
1000
0010
0100
0001
0010
0001
0100
,
0010
1000
0100
0010
0001
1000
0010
0100
,
0001
0100
0010
1000
0100
0010
0001
1000
,
0010
0100
0010
1000
0001
0010
0001
1000
,
0100
1000
0010
0100
0001
0010
0001
1000
,
1100
1100
1100
0011
0011
0011
0101
0101
,
0101
1010
1010
1010
1100
0110
0011
0110
,
1010
0100
0001
0010
0001
0100
0010
1000
,
0100
1000
0010
0100
0001
1000
0101
0010
,
1001
0100
0010
0100
1000
0010
0100
0001
,
0010
0001
1100
0010
0100
0001
1010
0100
,
1001
0010
0001
0100
0010
1000
0100
1000
,
0010
0100
0001
0010
0001
1000
0101
0010
,
1100
0010
0001
0100
0010
1000
0101
1000
,
0100
1000
0101
1000
0010
1000
0011
1000
,
0011
0100
0010
1000
0100
0010
0001
1000
,
0010
0100
0010
1000
0001
0010
1100
0010
,
1001
0100
0010
1000
0001
0010
0001
0100
,
0010
1000
0011
1000
0100
1000
0101
1000
,
0101
0010
0001
0100
0010
1000
0001
0010
,
0001
0100
0010
1000
0001
0100
0011
1000
,
0110
0000
0001
0000
1000
0000
0000
0000
0000
1010
0000
0100
0000
0010
0000
0000
0000
0000
0011
0000
0100
0000
0010
0000
,
0000
0000
0000
0101
0000
0010
0000
1000
0000
0000
0000
0000
0011
0000
0000
0110
0000
0000
1100
0000
0000
0110
0000
0000
,
1001
0100
0010
0001
1000
0010
0100
0010
,
1000
0001
0010
0001
0100
0010
1100
0010
,
1001
0100
0010
1000
0100
1000
0010
0100
,
0001
0010
1100
0001
0100
0001
1010
0001
,
1010
0001
0100
0010
1000
0100
0010
0100
,
0001
0100
1000
0010
0100
0001
1010
0001
,
1100
0010
0100
0001
0100
0010
1001
0100
,
0010
0100
1001
0010
0100
0010
1001
0010
,
1001
0100
0010
0001
0010
0100
1000
0001
,
0010
0100
1000
0010
0100
0001
1100
0010
,
1001
0100
0010
1000
0001
0010
0001
1000
,
0100
1000
0101
0010
0001
1000
0110
0001
,
1010
0100
0010
0001
1000
0100
1000
0001
,
0010
0100
0010
0001
1000
0010
1100
0010
,
1001
0000
0100
0000
0010
0000
0000
0000
0000
0101
0000
0001
0000
1000
0000
0000
0000
0000
1100
0000
1000
0000
0001
0000
,
0000
0000
0000
0101
0000
0100
0000
0010
0000
0000
0000
0000
1100
0000
0000
1010
0000
0000
0110
0000
0000
0101
0000
0000
,
1001
0100
0010
0100
0001
0100
0010
0100
,
1000
0100
0010
0100
0001
0100
0011
0100
,
1010
0100
0001
0100
0010
0001
0010
1000
,
0010
0100
1010
0100
0010
1000
0011
0100
,
1010
0001
0100
0010
0100
1000
0100
0010
,
0100
0001
0100
0010
0100
0010
1100
0010
,
0101
0010
0100
0010
1000
0010
1100
0010
,
0001
0010
1100
0010
0001
0010
1100
0010
,
0101
0010
1000
0001
0100
0010
0100
0001
,
1100
0011
1000
0001
1100
1100
0011
0011
,
1000
0100
0010
0100
0001
0100
0010
0001
,
1010
0100
0010
0100
0001
0100
1010
0100
,
1010
0001
0010
0100
0001
0100
1000
0100
,
0010
0100
1000
0010
0100
0010
0101
0010
,
1001
0000
0000
MMMM
0000
0000
0101
0000
0000
MMMM
0000
0000
0110
0000
0000
MMMM
,
0000
0000
1010
0000
0000
MMMM
0000
0000
1100
0000
0011
0000
1010
0000
0101
0000
,
1010
0100
0010
1000
0001
0010
0001
0100
,
0010
1000
0100
1000
0010
0100
1001
0010
,
1100
0010
0001
0100
0010
1000
0001
0010
,
0001
0100
1010
0100
0001
0010
0101
1000
,
0110
0001
0010
0001
0100
0010
1000
0001
,
0100
0010
0100
1000
0100
0010
1100
0001
,
0110
1000
0100
0010
0100
1000
0011
1000
,
0010
1000
0011
1000
0100
1000
0011
1000
,
0101
0010
1000
0100
1000
0010
0100
0001
,
0010
0001
1000
0100
0010
0100
1001
0010
,
1100
0010
0001
0010
0100
1000
0001
0010
,
0100
0010
1001
0100
1000
0010
1100
0001
,
1010
0100
0010
1000
0001
0100
0010
1000
,
0001
0010
0001
0100
0010
1000
0101
0010
,
1001
0000
0010
0000
0100
0000
0000
0000
0000
0011
0000
0100
0000
1000
0000
0000
0000
0000
1010
0000
0100
0000
0001
0000
,
0000
0000
0000
0101
0000
0010
0000
1000
0000
0000
0000
0000
1001
0000
0000
0011
0000
0000
1001
0000
0000
1100
0000
0000
,
1001
0000
0100
0000
0010
0000
0000
0000
0000
0101
0000
1000
0000
0010
0000
0000
0000
0000
1010
0000
0100
0000
0010
0000
,
0000
0000
0000
0110
0000
0001
0000
1000
0000
0000
0000
0000
1001
0000
0000
1100
0000
0000
0011
0000
0000
0101
0000
0000
,
1001
0000
1100
0000
0011
0000
0000
0000
0000
0101
0000
0110
0000
1010
0000
0000
0000
0000
1100
0000
0110
0000
0011
0000
,
0000
0000
0000
0101
0000
0110
0000
1010
0000
0000
0000
0000
1100
0000
0000
0011
0000
0000
0101
0000
0000
0110
0000
0000
,
1001
0000
M00M
M00M
M00M
M00M
M00M
M00M
M00M
0000
0000
0000
0000
0000
0000
0000
0000
0000
0000
0000
0000
0000
0000
0000
0000
0000
0000
0000
0000
0000
0000
0000
;
