#TITLE:Lataia;
#SUBTITLE:;
#ARTIST:Onoken;
#TITLETRANSLIT:;
#SUBTITLETRANSLIT:;
#ARTISTTRANSLIT:;
#CREDIT:;
#BANNER:lataia-bn.png;
#BACKGROUND:lataia-bg.png;
#LYRICSPATH:;
#CDTITLE:!mwerpTitle.png;
#MUSIC:lataia4.mp3;
#OFFSET:-0.080;
#SAMPLESTART:40.866;
#SAMPLELENGTH:12.000;
#SELECTABLE:YES;
#BPMS:0.000=60.000,32.000=120.000,100.000=60.000,116.000=120.000;
#STOPS:;
#BGCHANGES:;
// cache tags:
#FIRSTBEAT:8.000;
#LASTBEAT:228.000;
#SONGFILENAME:Songs/Community Keyboard Megapack - Volume 1/(Mwerp) Lataia/lataia.sm;
#HASMUSIC:1;
#HASBANNER:1;
#MUSICLENGTH:146.042;
// end cache tags

//---------------dance-single - MANIAC----------------
#NOTES:
     dance-single:
     MANIAC:
     Hard:
     11:
     0.838,1.000,1.000,0.288,0.924,651.000,164.000,42.000,0.000,0.000:

0000
0000
0000
0000
,
0000
0000
0000
0000
,
0011
0000
1000
0000
0000
0000
0000
0000
0000
0000
0000
0000
1001
0000
0100
0001
0010
0000
0100
0000
0000
0000
0000
0000
0000
0000
0000
0000
0000
0100
1000
0010
,
0100
0000
0010
0000
1001
0000
0000
0000
0000
0000
0100
0010
1001
0000
0100
0010
0100
0000
0100
0000
1001
0000
0100
0010
0001
0010
0000
0100
1001
0000
0010
0100
,
0011
0000
1000
0000
0000
0000
0000
0000
0000
0000
0000
0000
1001
0000
0100
0001
0010
0000
0100
0000
0000
0000
1001
0000
1001
0000
0000
0000
1001
0100
1000
0010
,
0100
0000
0010
0000
1001
0000
0000
0000
0000
0000
0100
0010
1001
0000
0100
0010
0100
0000
0100
0000
1001
0000
0100
0010
0001
0010
0000
0100
1001
0000
0010
0100
,
0011
0100
1000
0010
0100
0001
0010
0001
0100
0010
1000
0100
1001
0010
0100
0001
0010
0001
0100
0010
1000
0100
1001
0010
1001
0100
1000
0010
1001
0100
0001
0010
,
0100
1000
0010
0100
1001
0010
0100
0001
1000
0010
0100
0010
1001
0010
0100
0010
0100
0001
0100
0010
1001
0010
0100
0010
0001
0010
1000
0100
1001
0100
0001
1000
,
0110
0000
0000
0000
,
1001
0000
0000
0000
0010
0000
0001
1000
0000
0000
1001
0000
0011
0001
0000
1000
,
0001
1000
0010
0001
0000
0001
0010
0000
,
0110
0000
0000
0000
0001
0000
0100
0010
0000
0000
0110
0000
0101
0100
0000
0010
,
0100
0010
0001
0100
0000
0100
0001
0000
,
1001
0000
0000
0000
0100
0000
1000
0001
0000
0000
1001
0000
1100
1000
0000
0001
,
1000
0001
0100
1000
0000
1000
0100
0000
,
0110
0000
0000
0000
1000
0000
0010
0100
0000
0000
0110
0000
1010
0010
0000
0100
,
0010
0100
1000
0010
0000
0010
1000
0000
,
2001
0000
0000
0000
0000
0000
0000
0000
0010
0000
0000
0000
3002
0003
1000
0000
0000
0000
0000
0000
2001
3000
0000
0000
0011
0000
0002
0003
0000
0000
1000
0000
,
0002
0000
0000
0000
1000
0000
0000
0000
0010
0000
0000
0003
0002
0003
0000
0000
0000
0000
0000
0000
0002
0003
0000
0000
0010
0000
0000
0000
0002
0003
0000
0000
,
0120
0000
0000
0000
0000
0000
0000
0000
0001
0000
0000
0000
0230
0300
0010
0000
0000
0000
0000
0000
0120
0030
0000
0000
0101
0000
0200
0300
0000
0000
0010
0000
,
0200
0000
0000
0000
0010
0000
0000
0000
0001
0000
0000
0300
0200
0300
0000
0000
0000
0000
0000
0000
0200
0300
0000
0000
0001
0000
0000
0000
0200
0300
0000
0000
,
1001
0100
0010
0000
0011
1000
0010
0000
1100
0001
0010
0000
0000
0011
0110
1100
,
0002
0000
0000
0000
0000
0000
0000
0000
0100
0000
0000
0000
2003
3000
0001
0000
0000
0000
0000
0000
1002
0003
0000
0000
1100
0000
2000
3000
0000
0000
0001
0000
,
0120
0000
0000
0000
0100
0000
0000
0000
1000
0000
0000
0030
0020
0030
0000
0000
0000
0000
0000
0000
0020
0030
0000
0000
1000
0000
0000
0000
0020
0030
0000
0000
,
0200
0000
0000
0000
0000
0000
0000
0000
1000
0000
0000
0000
0320
0030
0100
0000
0000
0000
0000
0000
0210
0300
0000
0000
1010
0000
0020
0030
1000
0000
0100
0000
,
1001
0000
0100
0000
0010
0000
1000
0000
0110
0000
1010
0000
0101
0000
0010
0000
0110
0000
0011
0000
1100
0000
0110
0000
1010
0000
0001
0000
1000
0000
0010
0100
,
1001
0000
0100
0000
0010
0000
1001
0000
0101
0000
0010
1100
0001
0000
1001
0000
0010
1000
0001
0010
1000
0010
0100
1000
0010
0100
0001
0010
1000
0010
0100
0010
,
1001
0000
0100
0000
0010
0000
1001
0000
0110
0000
1010
0000
0101
0000
1010
0000
0110
0000
0011
0000
1100
0001
0110
0001
1010
0100
0001
0100
1000
0100
0010
0100
,
1001
0000
0100
0000
0010
0000
1001
0000
0101
0000
0010
1100
0001
0000
1001
0000
0010
1000
0001
0010
1000
0010
0100
1000
0010
0100
0001
0010
1000
0010
0100
0010
,
1001
0100
0010
1000
0110
1010
0101
0010
,
0110
0000
0011
0000
1100
0000
0110
0000
1010
0000
0001
0000
1000
0000
0010
0100
,
1001
0000
0100
0000
0010
0000
1001
0000
0101
0000
0010
1100
0001
0000
1001
0000
,
0010
1000
0001
0010
1000
0010
0100
1000
0010
0100
0001
0010
1000
0010
0100
0010
,
1001
0100
0010
1001
0110
1010
0101
1010
,
0110
0000
0011
0000
1100
0001
0110
0001
1010
0100
0001
0100
1000
0100
0010
0100
,
1001
0000
0100
0000
0010
0000
1001
0000
0101
0000
0010
1100
0001
0000
1001
0000
,
0010
1000
0001
0010
1000
0010
0100
1000
0010
0100
0001
0010
1000
0010
0100
1000
,
0011
1000
0001
0000
0100
0000
0011
1000
0100
1000
0001
0000
0110
0001
1000
0001
,
1000
0001
0110
1000
0000
0000
0101
0000
0110
0001
0100
0000
0101
1000
0011
1000
,
0101
1000
0001
1000
0110
0000
0001
0000
0100
0001
0010
0000
0101
1000
0001
1000
,
0011
1000
0101
1000
0101
1000
0110
0001
1000
0001
1100
0001
0110
1000
0001
1000
,
0011
1000
0001
0000
0100
0000
0011
1000
0100
1000
0001
0000
0110
0001
1000
0001
,
1000
0001
0110
1000
0000
0000
0101
0000
0110
0001
0100
0000
0101
1000
0011
1000
,
0101
1000
0001
1000
0110
0000
0001
0000
0100
0001
0010
0000
0101
1000
0001
1000
,
0011
1000
0101
1000
0101
1000
0110
0001
1000
0001
1100
0001
0110
1000
0001
1000
,
0011
0000
0100
0000
0020
0000
0000
0030
1000
0000
0000
0000
0210
0000
0000
0300
0001
0000
0000
0000
1000
0000
0000
0000
0011
0000
0100
0000
2000
0000
0000
3000
,
0000
0000
1000
0000
0012
0000
0000
0003
1000
0000
0000
0000
0200
0000
0000
0300
1010
0000
0000
0000
0001
0000
0100
0000
0001
0000
1000
0000
0010
0000
0000
0000
,
0000
0000
1000
0000
0001
0000
0100
0000
0010
0000
0000
0000
0200
0000
0000
0300
0001
0000
0000
0000
0110
0000
0001
0000
0010
0000
0100
0000
2000
0000
0000
3000
,
0010
1000
0001
0100
0001
0000
1010
0000
0100
0000
0001
1000
0011
0100
0000
0000
,
0011
0000
0100
0000
0020
0000
0000
0030
1000
0000
0000
0000
0210
0000
0000
0300
0001
0000
0000
0000
1000
0000
0000
0000
0011
0000
0100
0000
2000
0000
0000
3000
,
0000
0000
1000
0000
0012
0000
0000
0003
1000
0000
0000
0000
0200
0000
0000
0300
1010
0000
0000
0000
0001
0000
0100
0000
0001
0000
1000
0000
0010
0000
0000
0000
,
0000
0000
1000
0000
0001
0000
0100
0000
0010
0000
0000
0000
0200
0000
0000
0300
0001
0000
0000
0000
0110
0000
0001
0000
0010
0000
0100
0000
2000
0000
0000
3000
,
0010
1000
0001
0100
0001
0000
1010
0000
0100
0000
0001
1000
0011
0100
0000
0000
,
0010
0100
1000
0010
0010
0100
1000
0010
,
0010
0100
0010
0010
1000
0010
0010
0100
,
0010
0100
1000
0010
0010
0100
1000
0010
,
0010
0100
0010
0010
1000
0010
0010
0100
,
0010
0000
0000
0000
,;
