#TITLE:Decode;
#SUBTITLE:[RY?!];
#ARTIST:Paramore;
#TITLETRANSLIT:;
#SUBTITLETRANSLIT:;
#ARTISTTRANSLIT:;
#CREDIT:;
#BANNER:;
#BACKGROUND:;
#LYRICSPATH:;
#CDTITLE:;
#MUSIC:01 Decode.ogg;
#OFFSET:0.126;
#SAMPLESTART:100.000;
#SAMPLELENGTH:12.000;
#SELECTABLE:YES;
#BPMS:0.000=164.010,210.500=328.020,211.500=164.010,438.000=82.005,469.000=164.010,631.750=82.005;
#STOPS:36.000=0.740
,195.000=0.300
,211.500=0.200
;
#BGCHANGES:;
// cache tags:
#FIRSTBEAT:0.000;
#LASTBEAT:648.000;
#SONGFILENAME:Songs/toune 7/[RY] Decode/(RY) Decode.sm;
#HASMUSIC:1;
#HASBANNER:0;
#MUSICLENGTH:265.456;
// end cache tags

//---------------dance-single - Blank----------------
#NOTES:
     dance-single:
     Blank:
     Challenge:
     12:
     0.771,1.000,0.185,0.833,0.774,1161.000,49.000,221.000,112.000,3.000:

MMMM
M00M
M00M
MMM0
MM00
M0M0
M00M
0000
M00M
M00M
M00M
MMMM
0MM0
0MM0
0MM0
0000
,
MMMM
000M
0MMM
0MM0
0MM0
0000
0MM0
0MM0
0MM0
0MM0
0000
0MM0
2000
0000
0000
3000
,
2000
0000
0000
3000
0002
0000
0000
0003
0002
0000
0000
0003
2000
0000
0000
3000
,
2000
0000
0000
3000
0020
0000
0000
0030
0200
0000
0000
0300
0200
0000
0000
0300
,
0002
0000
0000
0003
0002
0000
0000
0003
2000
0000
0000
3000
2000
0000
0000
3000
,
2000
0000
0000
3000
0020
0000
0000
0030
2000
0000
0000
3000
2000
0000
0000
3000
,
0200
0000
0000
0300
0200
0000
0000
0300
2000
0000
0000
3000
2000
0000
0000
3000
,
0002
0000
0000
0003
0020
0000
0000
0030
0200
0000
0000
0300
0200
0000
0000
0300
,
2000
0000
0000
3000
2000
0000
0000
3000
0002
0000
0000
0003
0002
0000
0000
0003
,
0020
0030
1001
0000
0000
0000
1000
0100
,
0010
0001
0002
0000
0203
0000
0000
0000
,
0320
0000
0000
0000
0000
0000
0000
0000
0000
0000
0000
0000
0000
0030
0200
0000
,
0302
0000
2003
0000
0200
3320
0000
0230
,
0000
2300
0000
0000
0000
0000
0000
3002
,
0203
0000
0000
0002
0300
0000
0000
0000
0023
0000
0000
0000
0230
0000
2300
0000
,
0000
3020
0000
0000
0000
0000
0000
0000
,
0000
0000
0000
0000
0000
0000
0030
0000
2000
0000
0000
0000
0000
0000
0000
0000
0000
0000
0000
0200
3000
0000
0000
0000
2300
0000
0000
0000
0000
0000
0000
0000
,
0000
0000
0000
0000
3100
0100
0010
0001
,
1000
0000
0000
0200
0000
0000
0000
0000
0320
0000
0000
0000
0000
0000
0230
0000
,
0000
0000
0000
0000
0000
0000
0000
2300
,
0000
3200
0000
0000
0000
0000
0000
0000
0320
0000
0000
0000
0000
0000
0000
0032
0000
0000
0000
0000
0000
0000
0000
0000
0013
0000
0000
0000
0020
0000
0000
0000
,
0000
0000
0000
0230
0000
0000
0000
0000
0000
0000
0000
0000
0000
0000
0000
0000
0000
0000
0000
0000
0000
0000
0000
0000
0000
0000
0000
0000
0310
0000
0000
0000
,
0001
1000
0002
0000
1003
0200
0000
0320
,
0000
0032
0000
0000
0000
0000
0000
0000
,
0203
0320
2030
0000
,
3002
0000
0000
0000
0000
0000
0000
0000
0000
0000
0000
0003
1000
0000
0000
0000
,
0100
0000
0000
0000
1000
0000
0000
0000
1000
0000
0000
0000
0100
0010
0001
0010
,
0100
0100
0100
0010
,
0010
0000
0000
0000
0001
0000
0000
0000
0001
0000
0000
0000
1000
0000
0100
0010
,
0001
0010
0100
1000
1000
0000
0000
0000
1000
0000
0000
0000
0100
0000
0000
0000
,
0100
0010
0010
0001
,
0001
0000
1001
1000
1000
1000
1000
1000
,
1000
0000
1000
0000
1100
0000
0000
0000
1010
0000
0000
0010
0100
0001
1000
0000
,
1001
0000
0000
0000
0000
0000
1000
0100
1000
0100
1000
0001
1000
0001
0010
0001
,
0100
0001
0100
0001
0010
0001
0010
0001
0010
0001
0010
0001
0010
0001
0010
0001
,
0010
0001
0010
0001
0010
0100
1000
0100
1000
0001
1000
0001
1000
0010
1000
0010
,
1000
0100
0010
0001
0010
0001
0010
0001
0010
0100
1000
0100
1000
0100
1000
0001
,
1000
0001
1000
0001
1000
0001
1000
0100
1000
0100
1000
0100
1000
0100
1000
0100
,
1000
0100
1000
0100
1000
0100
1000
0100
1000
0100
1000
0100
1000
0100
1000
0100
,
1000
0010
1000
0010
1000
0010
1000
0010
1000
0010
1000
0010
1000
0010
1000
0010
,
1000
0010
1000
0010
1000
0010
1000
0000
1010
0000
0000
0010
0100
0001
1000
0000
,
1001
0000
0000
0000
0000
0000
0001
0010
0001
1000
0001
0100
0001
0100
0001
1000
,
0001
1000
0001
0010
0001
0010
0001
0010
0001
0010
0001
0010
0001
0010
0001
0010
,
0001
0010
0001
0010
0100
1000
0100
1000
0100
0010
0100
0010
0100
0010
0100
1000
,
0100
1000
0100
1000
0001
0010
0001
1000
0001
1000
0001
0100
0001
0100
0010
1000
,
0010
1000
0010
1000
0010
1000
0001
0100
0001
0100
0001
0100
0001
0100
0001
0100
,
0001
0100
0001
0100
0001
0100
0001
0100
0001
0100
0001
0100
0001
0100
0001
0100
,
0001
0010
0001
0010
0001
0010
0001
0010
0001
0010
0001
0010
0001
0010
0001
0010
,
0001
0010
0001
0010
0001
0010
0001
0010
0001
0010
0001
0000
1001
0000
0000
0000
,
1000
1000
0100
0100
,
0010
0010
0001
0001
,
0100
0100
0010
0010
,
1000
0000
1000
0000
0001
2002
0000
3003
,
MMMM
MMMM
0MMM
MMM0
0MMM
0000
1000
0000
0100
0000
1000
0000
1000
0000
0001
0000
,
0200
0320
0000
2030
,
0000
0000
0000
0000
0000
0000
0000
0000
0000
3000
0001
0000
0200
0000
0000
0000
,
0320
0000
0130
0002
0000
2003
0000
3020
,
0000
0000
0000
2030
,
3200
0000
0000
0000
0320
0000
0002
0030
0000
0000
2003
0000
0000
0000
3002
0000
,
0000
0000
0000
0000
0000
0000
0000
0000
0000
0000
0000
0000
0000
0000
0000
0000
0000
0000
0000
0003
0100
0000
0000
0000
0020
0000
0000
0000
0000
0000
0000
0000
,
1030
0000
0001
0200
0000
0320
0000
2030
,
0000
0000
3200
0000
0000
0000
0300
2000
0000
0000
0000
0000
3100
0000
0020
0000
,
0000
0000
0031
2000
0000
0000
3002
0000
,
0000
0000
0000
0000
0000
0000
0000
0000
0000
0000
2003
0000
0000
0000
0000
3000
,
0200
0000
0000
0300
0010
0000
0002
0000
0000
0003
2000
0000
0000
3000
0200
0000
,
0000
0000
0000
0000
0000
0310
0001
1000
,
0100
0000
0000
0200
0000
0000
2300
0000
0000
0000
3002
0000
0000
0000
2003
0000
,
0000
0000
0000
0000
0000
0000
0000
0000
0000
0000
0000
0000
0000
0000
0000
3000
,
0020
0000
0000
0000
0030
0200
0000
0000
0000
0000
0000
0000
0302
0000
0000
0000
,
0000
0000
0000
0003
0010
0000
0000
0000
0010
0000
0000
0000
0100
0000
0000
0000
,
0100
0000
0000
0000
1000
0000
0000
0000
1000
0000
0001
0010
0100
1000
0000
0000
,
1000
0001
1000
0001
,
1001
0000
0100
0010
0001
0010
0100
1000
,
1100
1000
0100
0100
,
0010
0001
0100
0001
,
1001
0001
0001
0001
0001
0001
0001
0001
,
0001
0010
0100
1000
0100
1000
0100
0010
0001
0010
0100
1000
0100
1000
0100
1000
,
0002
0000
0000
0003
0001
0010
0001
0010
0001
1000
0001
1000
0100
1000
0010
1000
,
0010
1000
0100
1000
0100
1000
0100
1000
0100
1000
0100
1000
0100
1000
0100
1000
,
0100
1000
0100
0010
0001
0010
0001
1000
0001
1000
0001
0100
0001
0100
0001
0010
,
0100
1000
0100
1000
0100
1000
0100
0010
0001
0010
0001
0010
0001
1000
0001
1000
,
0001
1000
0001
1000
0001
0010
0001
0010
0001
0010
0001
0010
0001
0010
0001
0010
,
0001
0010
0001
0010
0001
0010
0001
0010
0001
0010
0001
0010
0001
0010
0001
0100
,
0001
0100
0001
0100
0001
0100
0001
0100
0001
0100
0001
0100
0001
0100
0001
0000
,
0101
0000
0000
0100
0010
1000
0100
0010
0001
0010
0100
0000
2200
0000
0000
0000
,
0000
0000
3300
0000
1000
0100
1000
0001
1000
0010
1000
0010
1000
0001
1000
0001
,
1000
0100
1000
0100
1000
0100
1000
0100
1000
0100
1000
0100
1000
0100
1000
0100
,
1000
0100
0010
0001
0010
0001
0010
0100
0010
0100
0010
0100
0010
0001
0010
0001
,
0010
0001
1000
0100
1000
0001
1000
0001
1000
0010
1000
0010
0100
0001
0100
0001
,
0100
0001
0100
0001
1000
0010
1000
0010
1000
0010
1000
0010
1000
0010
1000
0010
,
1000
0010
1000
0010
1000
0010
1000
0010
1000
0010
1000
0010
1000
0010
1000
0100
,
1000
0100
1000
0100
1000
0100
1000
0100
1000
0100
1000
0100
1000
0100
1000
0100
,
1000
0100
1000
0100
0010
0001
0010
0100
1000
0100
0010
0001
0010
0001
0010
0100
,
2000
3020
0230
0302
0000
0000
0023
0230
,
2300
3002
0000
0000
2003
0000
3020
0000
,
0230
0320
2030
3002
0000
0000
0203
0320
,
2030
3200
0000
0000
2300
0000
3200
0000
,
0320
0032
0023
0230
0000
0000
1300
2000
,
0000
3200
0000
0000
2300
0000
0000
0000
,
0000
0200
3000
0000
0000
0000
2300
0000
0000
0000
3200
0000
0000
0000
0000
0000
,
0000
0300
0010
0100
1000
0100
0010
0001
0010
0100
0000
0000
0000
0000
0000
0000
,
2000
0000
3020
0000
0230
0000
0302
0000
0000
0000
0000
0000
2000
0003
3020
0000
,
0230
0000
0302
0000
0000
0000
0000
0003
2000
0000
0000
3000
2000
0000
0000
3000
,
0200
0320
0032
2003
0000
0000
3200
0320
,
0032
2003
0000
0000
3020
0000
0230
0000
,
0320
0000
0000
2030
0000
0000
3200
0000
,
0000
0000
0000
0000
,
2300
0000
0000
3002
0000
0000
2003
0000
,
0000
0000
0000
3000
2000
0000
0000
0000
3020
0000
0000
0000
2030
0000
0000
0000
,
0000
0000
0000
0000
0000
0000
0000
3002
,
2003
0000
3002
0000
0000
0000
0000
0000
0000
0000
0000
0000
0000
0000
2003
3200
,
0320
0032
2003
0000
0000
0000
0000
3200
,
0020
0300
0002
0000
0000
0000
0000
0000
0000
0000
0000
0000
0000
0033
2000
0000
,
3200
0000
0000
0020
0300
0000
0000
0000
0000
0000
0000
0000
0000
0000
0032
0000
,
2003
0000
3200
0000
0000
0000
0000
0000
0000
0000
0000
0000
0000
0300
0020
0032
,
2003
3000
2000
3000
2000
0000
0000
0000
0000
0000
0000
0000
0000
0000
3200
0000
,
0320
0000
0000
0000
0000
0000
0000
0002
0000
0000
0000
0000
0000
0000
0000
0000
,
0000
0000
0000
0033
0011
0000
0000
0000
1001
0000
0000
0000
0110
0000
0000
0000
,
1010
0000
1001
0000
1001
0020
0000
0000
,
0000
0030
1010
0000
1100
0000
0011
0000
,
0101
0000
1010
0000
1001
0200
0000
0000
,
0000
0300
1001
0000
1100
0000
1010
0000
,
0101
0000
0011
0000
1001
0020
0000
0000
,
0000
0030
0011
0000
0101
0000
1010
0000
,
1001
0000
0000
0000
0001
0010
0001
0010
0001
0010
0001
0010
0100
1000
0100
4000
,
0000
0000
0000
0000
0000
0000
3000
0000
1000
0100
1000
0100
1000
0001
1000
0001
,
0010
0001
0100
0001
0100
0001
0010
0001
0010
0001
0010
0001
0010
0001
0010
0001
,
0010
0001
0010
0001
0010
0001
0010
0100
1000
0100
1000
0001
1000
0001
1000
0010
,
1000
0010
1000
0100
0010
0001
0010
0001
0010
0001
0010
0100
1000
0100
1000
0100
,
1000
0001
1000
0001
1000
0001
1000
0001
1000
0100
1000
0100
1000
0100
1000
0100
,
1000
0100
1000
0100
1000
0100
1000
0100
1000
0100
1000
0100
0010
0001
1000
0100
,
0010
0001
0010
0100
1000
0010
0100
0001
1000
0010
0100
0001
1000
0010
1000
0001
,
1000
0100
1000
0010
1000
0010
1000
0010
1000
0001
1000
0001
1000
0010
1000
0010
,
1000
0100
1000
0100
1000
0100
1000
0100
1000
0010
1000
0001
1000
0001
1000
0001
,
1000
0010
1000
0010
1000
0100
1000
0100
1000
0100
1000
0100
1000
0100
1000
0100
,
1000
0100
1000
0100
1000
0001
0100
0010
0100
0010
0100
0010
1000
0100
1000
0100
,
1000
0001
1000
0001
1000
0100
1000
0100
1000
0100
1000
0010
0100
0010
0100
0001
,
0100
0001
0100
0001
0100
0001
1000
0010
1000
0010
1000
0010
1000
0010
1000
0010
,
1000
0010
1000
0010
1000
0010
1000
0010
1000
0010
1000
0010
1000
0010
1000
0100
,
1000
0100
1000
0010
1000
0010
1000
0010
1000
0010
1000
0010
1000
0010
1000
0010
,
1000
0000
0000
0000
2000
0000
0000
0000
3020
0000
0000
0000
0000
0200
0030
0000
,
0000
0302
0000
0000
0000
0003
0100
0000
0100
0000
0100
0000
1100
0000
1000
0000
,
1000
1000
1001
0001
0001
0001
0011
0000
,
1100
0000
0011
0010
0010
0010
0110
0100
,
0100
0000
0100
0000
2000
0000
0000
0000
3020
0000
0000
0000
0000
0230
0000
0000
,
0300
0002
0000
0000
0003
0000
0001
0000
0001
0000
0001
0000
0011
0000
0010
0000
,
0010
0010
0110
0100
0100
0100
0110
0000
,
1001
0000
0110
0100
0100
0100
1100
1000
,
1000
1000
1002
0000
0000
0000
0000
0000
,
0000
0203
0320
0000
,
2030
0000
0000
0000
0000
3000
2000
0000
0000
0000
0000
0000
0000
0000
0000
0000
,
0000
0000
3200
0000
0000
0320
0000
0230
,
0000
0000
0000
0000
0000
0000
0000
2300
0000
0000
0000
0000
0000
0000
0000
0000
,
0000
0000
0000
3200
0000
0320
0000
0032
,
0000
0000
0000
0000
0000
0003
0020
0000
0000
0000
0000
0000
0000
0000
0000
0000
,
0000
0130
1000
1000
0020
0000
0000
2030
,
0000
3000
0002
0000
0000
0000
0000
0000
0000
0000
0000
0000
0000
0000
0000
0000
,
0000
0000
0000
0000
0020
0000
0000
0000
0000
0200
0000
0000
0000
0000
0000
2000
,
0030
00M0
00M3
000M
00MM
00M0
000M
00M0
,
000M
00MM
00M0
000M
00M0
00MM
000M
00M0
,
000M
00MM
00M0
000M
00M0
00MM
000M
00M0
,
000M
00MM
00M0
000M
00M0
00MM
000M
00M0
,
33MM
0000
0000
0000
;
