#TITLE:Doomsday;
#SUBTITLE:Lead Sails Paper Anchor (2007);
#ARTIST:Atreyu;
#TITLETRANSLIT:;
#SUBTITLETRANSLIT:;
#ARTISTTRANSLIT:;
#CREDIT:;
#BANNER:Doomsday-banner.png;
#BACKGROUND:Doomsday-bg.png;
#LYRICSPATH:;
#CDTITLE:WC cdtitle.png;
#MUSIC:01 Doomsday.mp3;
#OFFSET:0.000;
#SAMPLESTART:37.161;
#SAMPLELENGTH:12.000;
#SELECTABLE:YES;
#BPMS:0.000=160.015,1.000=159.995,2.000=160.015,3.000=159.995,4.000=160.015,5.000=159.995,6.000=160.015,7.000=159.995,8.000=160.015,9.000=159.995,10.000=160.015,11.000=159.995,12.000=256.023,13.000=110.158,14.000=160.015,15.000=162.521,16.000=157.575,17.000=165.117,18.000=162.531,19.000=170.567,20.000=160.005,21.000=159.995,22.000=160.005,23.000=165.117,24.000=160.005,25.000=165.117,26.000=167.808,27.000=162.521,28.000=160.005,29.000=159.995,30.000=165.117,31.000=165.107,32.000=160.005,33.000=167.787,34.000=160.005,35.000=163.798,36.000=161.253,37.000=165.107,38.000=160.005,39.000=165.107,40.000=165.117,41.000=162.511,42.000=111.622,43.000=155.200,44.000=165.117,45.000=159.995,46.000=165.117,47.000=165.107,48.000=160.005,49.000=165.107,50.000=165.117,51.000=159.995,52.000=162.521,53.000=162.511,54.000=162.521,55.000=159.995,56.000=167.808,57.000=159.995,58.000=167.808,59.000=159.995,60.000=165.117,61.000=162.511,62.000=165.117,63.000=159.995,64.000=165.117,65.000=159.995,66.000=166.447,67.000=161.243,68.000=165.117,69.000=159.995,70.000=165.117,71.000=165.107,72.000=165.117,73.000=159.995,74.000=160.005,75.000=150.666,76.000=179.451,77.000=159.995,78.000=165.117,79.000=159.995,80.000=165.117,81.000=162.511,82.000=165.117,83.000=159.995,84.000=170.567,85.000=159.995,86.000=160.005,87.000=159.995,88.000=167.798,89.000=159.995,90.000=165.117,91.000=162.511,92.000=165.117,93.000=162.511,94.000=165.117,95.000=159.995,96.000=162.521,97.000=165.107,98.000=160.005,99.000=159.995,100.000=170.567,101.000=159.995,102.000=162.521,103.000=159.995,104.000=165.117,105.000=159.995,106.000=165.117,107.000=167.787,108.000=160.005,109.000=173.417,110.000=160.005,111.000=159.995,112.000=160.005,113.000=159.995,114.000=170.567,115.000=159.995,116.000=165.117,117.000=159.995,118.000=170.567,119.000=159.995,120.000=160.005,121.000=159.995,122.000=165.117,123.000=159.995,124.000=167.798,125.000=159.995,126.000=165.117,127.000=159.995,128.000=160.005,129.000=159.995,130.000=173.429,131.000=159.995,132.000=160.005,133.000=167.787,134.000=160.005,135.000=159.995,136.000=170.567,137.000=159.995,138.000=160.005,139.000=167.787,140.000=165.117,141.000=159.995,142.000=160.005,143.000=159.995,144.000=160.005,145.000=159.995,146.000=176.388,147.000=159.995,148.000=167.798,149.000=165.107,150.000=162.521,151.000=159.995,152.000=160.005,153.000=165.107,154.000=160.005,155.000=165.107,156.000=165.117,157.000=159.995,158.000=160.005,159.000=167.787,160.000=165.117,161.000=162.511,162.000=162.521,163.000=162.511,164.000=162.521,165.000=165.107,166.000=162.521,167.000=162.511,168.000=165.117,169.000=159.995,170.000=165.117,171.000=159.995,172.000=165.117,173.000=162.511,174.000=162.521,175.000=162.511,176.000=165.117,177.000=165.107,178.000=160.005,179.000=162.511,180.000=160.005,181.000=167.787,182.000=160.005,183.000=159.995,184.000=165.117,185.000=165.107,186.000=160.005,187.000=167.787,188.000=160.005,189.000=165.107,190.000=162.521,191.000=159.995,192.000=165.117,193.000=165.107,194.000=160.005,195.000=165.107,196.000=160.005,197.000=167.787,198.000=165.117,199.000=159.995,200.000=160.005,201.000=167.787,202.000=160.005,203.000=162.511,204.000=160.005,205.000=170.556,206.000=160.005,207.000=159.995,208.000=165.117,209.000=165.107,210.000=160.005,211.000=165.107,212.000=165.117,213.000=159.995,214.000=165.117,215.000=162.511,216.000=160.005,217.000=165.107,218.000=165.117,219.000=159.995,220.000=165.117,221.000=159.995,222.000=167.798,223.000=159.995,224.000=165.117,225.000=159.995,226.000=165.117,227.000=159.995,228.000=165.117,229.000=165.107,230.000=160.005,231.000=165.107,232.000=160.005,233.000=165.107,234.000=160.005,235.000=159.995,236.000=170.567,237.000=162.511,238.000=165.117,239.000=159.995,240.000=162.521,241.000=165.107,242.000=165.117,243.000=159.995,244.000=160.005,245.000=170.556,246.000=160.005,247.000=159.995,248.000=167.798,249.000=159.995,250.000=160.005,251.000=165.107,252.000=160.005,253.000=167.787,254.000=162.521,255.000=159.995,256.000=167.798,257.000=170.556,258.000=155.200,259.000=159.995,260.000=165.117,261.000=159.995,262.000=165.117,263.000=159.995,264.000=167.798,265.000=159.995,266.000=167.798,267.000=159.995,268.000=165.117,269.000=159.995,270.000=165.117,271.000=159.995,272.000=167.798,273.000=159.995,274.000=165.117,275.000=159.995,276.000=165.117,277.000=162.511,278.000=165.117,279.000=159.995,280.000=160.005,281.000=159.995,282.000=173.429,283.000=162.511,284.000=160.005,285.000=170.556,286.000=160.005,287.000=159.995,288.000=165.117,289.000=165.107,290.000=167.798,291.000=159.995,292.000=160.005,293.000=165.107,294.000=152.904,295.000=170.556,296.000=165.117,297.000=159.995,298.000=165.117,299.000=162.511,300.000=160.005,301.000=167.787,302.000=162.521,303.000=159.995,304.000=160.005,305.000=167.787,306.000=160.005,307.000=167.787,308.000=162.521,309.000=162.511,310.000=162.521,311.000=165.107,312.000=160.005,313.000=159.995,314.000=160.005,315.000=165.107,316.000=160.005,317.000=170.556,318.000=160.005,319.000=159.995,320.000=167.798,321.000=165.107,322.000=160.005,323.000=165.107,324.000=165.117,325.000=162.511,326.000=160.005,327.000=159.995,328.000=167.798,329.000=162.511,330.000=160.005,331.000=167.787,332.000=160.005,333.000=167.787,334.000=160.005,335.000=159.995,336.000=160.005,337.000=170.556,338.000=160.005,339.000=165.107,340.000=160.005,341.000=167.787,342.000=162.521,343.000=159.995,344.000=160.005,345.000=170.556,346.000=160.005,347.000=159.995,348.000=167.798,349.000=159.995,350.000=165.117,351.000=165.107,352.000=160.005,353.000=165.107,354.000=160.005,355.000=165.107,356.000=160.005,357.000=165.107,358.000=160.005,359.000=167.787,360.000=160.005,361.000=165.107,362.000=165.117,363.000=159.995,364.000=165.117,365.000=159.995,366.000=165.117,367.000=159.995,368.000=165.117,369.000=165.107,370.000=160.005,371.000=165.107,372.000=160.005,373.000=165.107,374.000=165.117,375.000=159.995,376.000=165.117,377.000=159.995,378.000=160.005,379.000=167.787,380.000=165.117,381.000=159.995,382.000=165.117,383.000=165.107,384.000=160.005,385.000=162.511,386.000=165.117,387.000=165.107,388.000=160.005,389.000=159.995,390.000=167.798,391.000=159.995,392.000=165.117,393.000=165.107,394.000=160.005,395.000=162.511,396.000=165.117,397.000=162.511,398.000=160.005,399.000=165.107,400.000=160.005,401.000=167.787,402.000=160.005,403.000=165.107,404.000=160.005,405.000=165.107,406.000=165.117,407.000=159.995,408.000=160.005,409.000=165.107,410.000=165.117,411.000=159.995,412.000=160.005,413.000=170.556,414.000=150.675,415.000=159.995,416.000=165.117,417.000=159.995,418.000=170.567,419.000=173.417,420.000=155.200,421.000=159.995,422.000=160.005,423.000=159.995,424.000=160.005,425.000=159.995,426.000=160.005,427.000=196.495,428.000=160.005,429.000=165.107,430.000=160.005,431.000=159.995,432.000=170.567,433.000=159.995,434.000=167.798,435.000=159.995,436.000=160.005,437.000=165.107,438.000=160.005,439.000=159.995,440.000=165.117,441.000=165.107,442.000=162.521,443.000=165.107,444.000=160.005,445.000=165.107,446.000=160.005,447.000=159.995,448.000=167.798,449.000=167.787,450.000=160.005,451.000=167.787,452.000=165.117,453.000=159.995,454.000=160.005,455.000=159.995,456.000=165.117,457.000=165.107,458.000=160.005,459.000=167.787,460.000=160.005,461.000=165.107,462.000=160.005,463.000=159.995,464.000=165.117,465.000=165.107,466.000=162.521,467.000=165.107,468.000=160.005,469.000=165.107,470.000=160.005,471.000=159.995,472.000=160.005,473.000=173.417,474.000=160.005,475.000=165.107,476.000=167.798,477.000=159.995,478.000=162.521,479.000=162.511,480.000=165.117,481.000=159.995,482.000=167.798,483.000=159.995,484.000=160.005,485.000=165.107,486.000=160.005,487.000=159.995,488.000=167.798,489.000=162.511,490.000=162.521,491.000=165.107,492.000=160.005,493.000=176.376,494.000=160.005,495.000=173.417,496.000=160.005,497.000=159.995,498.000=160.005,499.000=159.995,500.000=160.005,501.000=159.995,502.000=167.798,503.000=159.995,504.000=160.005,505.000=159.995,506.000=160.005,507.000=173.417,508.000=159.995,509.000=165.107,510.000=159.995,511.000=165.107,512.000=159.995,513.000=167.787,514.000=159.995,515.000=165.107,517.000=159.995,518.000=165.107,519.000=159.995,520.000=162.511,521.000=165.107,522.000=159.995,523.000=167.787,524.000=159.995,525.000=165.107,526.000=159.995,527.000=165.107,529.000=159.995,530.000=162.511,531.000=167.787,532.000=160.247,533.000=165.375,534.000=107.666,535.000=165.375,536.000=161.499,537.000=79.841;
#STOPS:;
#BGCHANGES:;
// cache tags:
#FIRSTBEAT:13.000;
#LASTBEAT:537.000;
#SONGFILENAME:Songs/Astronomic Metal Collection 2/(who_cares973) Doomsday/01 Doomsday.sm;
#HASMUSIC:1;
#HASBANNER:1;
#MUSICLENGTH:199.073;
// end cache tags

//---------------dance-single - ----------------
#NOTES:
     dance-single:
     :
     Hard:
     10:
     1.000,1.000,1.000,0.517,0.357,989.000,332.000,103.000,0.000,111.000:
0000
0000
0000
0000
,
0000
0000
0000
0000
,
0000
0000
0000
0000
,
0000
0000
0000
0000
0000
0000
0000
0000
0000
0000
0000
0000
0000
0000
0000
0000
0000
0000
0000
0000
0000
0000
0000
0000
0000
0000
0000
0000
0000
0000
0000
0000
0000
0000
0000
0000
0000
0000
0000
0000
0000
0000
0000
0000
0000
0000
0000
0000
1011
0000
0000
0000
0000
0000
0100
0000
0000
0000
0000
0000
0010
0000
0000
0000
0000
0000
0000
0000
0000
0000
0000
0000
0000
0000
0000
0000
0000
0000
0000
0000
0010
0000
0000
0000
0000
0000
0000
0000
0000
0000
0000
0000
0000
0000
0000
0000
0010
0000
0000
0000
0000
0000
0000
0000
0000
0000
0000
0000
0000
0000
0000
0000
0000
0000
0000
0000
0000
0000
0000
0000
0010
0000
0000
0000
0000
0000
0000
0000
0000
0000
0000
0000
0100
0000
0000
0000
0000
0000
0000
0000
0000
0000
0000
0000
0010
0000
0000
0000
0000
0000
0000
0000
0000
0000
0000
0000
0000
0000
0000
0000
0000
0000
0000
0000
0000
0000
0000
0000
0100
0000
0000
0000
0000
0000
0000
0000
0000
0000
0000
0000
0000
0000
0000
0000
0000
0000
0000
0000
0000
0000
0000
0000
,
0002
0000
0003
0000
0010
0000
0010
0000
0010
0000
0010
0100
0010
0000
0010
0000
,
0002
0000
0003
0000
0010
0000
0010
0000
0010
0000
0010
0100
0010
0000
0010
0000
,
1101
0000
1011
0000
0111
0010
0010
0010
,
0010
0000
1012
0000
0003
0000
0010
0000
0010
0000
0010
0100
0010
0000
0010
0000
,
1011
0000
0112
0000
0003
0000
0010
0000
0010
0000
0010
0100
0010
0000
0010
0000
,
1101
0000
1012
0000
0003
0000
0010
0000
0010
0000
0010
0100
0010
0000
0010
0000
,
1110
1101
1011
0100
,
2101
0000
0010
0000
0101
0000
0010
0000
0100
0010
0100
0000
0011
0000
3202
0300
,
0000
0000
0000
0000
0020
0030
0200
0300
2013
0000
0000
0000
3002
0000
0000
0000
0010
0000
0100
0000
0013
0000
0000
0000
1001
0000
0000
0000
0010
0000
0000
0000
,
0000
0000
0000
0000
0002
0003
0000
0000
1020
0030
0000
0000
0200
0300
0000
0000
2000
3000
0010
0000
0200
0300
0000
0000
0021
0030
0000
0000
2001
3000
0000
0000
,
0200
0300
0000
0000
0002
0003
0000
0000
2010
3000
0000
0000
0200
0300
0000
0000
0010
0000
0000
0000
0001
0000
0000
0000
1010
0000
0000
0000
0100
0000
0000
0000
,
0001
0000
0010
0000
0001
0000
0010
0000
0100
0000
1000
0000
0100
0010
0001
0000
0100
0000
0001
0000
0100
0000
1000
0000
0100
0010
0001
0000
0100
0000
1000
0000
,
0100
0000
0010
0000
0001
0000
0000
0000
0100
0000
0000
0000
0010
0000
0000
0000
0001
0000
0000
1000
0000
0000
0100
0000
0010
0000
0001
0000
0000
0100
0000
0000
1000
0000
0000
0000
0010
0000
0000
0000
0100
0000
0000
0000
0010
0000
0000
0000
0001
0000
0000
0000
0010
0000
0000
0000
0100
0000
0000
0000
1000
0000
0000
0000
,
0100
0000
0000
0010
0000
0000
0001
0000
0000
1000
0000
0000
0100
0000
0000
0010
0000
0000
0001
0000
0000
1000
0000
0000
0100
0000
0000
0010
0000
0000
0001
0000
0000
1000
0000
0000
0100
0000
0000
0010
0000
0000
0001
0000
1000
0000
0100
0000
0010
0000
0001
0000
0000
0000
0000
0000
2010
0000
0000
0000
0000
0000
0000
0000
,
3000
0120
0030
0102
0003
0011
0110
1100
,
1011
0000
0100
0000
0011
0000
0010
0000
1000
0100
1000
0000
0110
0000
0002
0003
,
1000
0000
0100
0000
0011
0000
1000
0000
0001
0010
0001
0000
1010
0000
0200
0300
,
1000
0000
0010
0000
1100
0000
0001
0000
0010
1000
0100
0000
0110
0000
0002
0003
,
1000
0000
0010
0000
0101
0000
2000
3000
0010
0000
0002
0003
1200
0300
0020
0030
,
1000
0000
0100
0000
0011
0000
0010
0000
0100
0001
0010
0000
1100
0000
0020
0030
,
0100
0000
0001
0000
0101
0000
1000
0000
0010
0100
0010
0000
1001
0000
0200
0300
,
0000
0000
0001
0000
0110
0000
0010
0000
0001
0100
0001
0000
1010
0000
2000
3000
,
0000
0000
0100
0000
1010
0000
0200
0300
1000
0000
0011
1100
0011
0000
1100
0011
,
1100
0000
0001
0000
1010
0000
0100
0000
1000
0100
1000
0000
0011
0000
0200
0300
,
0001
0000
0100
0000
1001
0000
0010
0000
0100
0001
0010
0000
1010
0000
0002
0003
,
0100
0000
0010
0000
1100
0000
0001
0000
0010
1000
0100
0000
0011
0000
0020
0030
,
0100
0000
0001
0000
1010
0000
0200
0300
0000
0000
0002
0003
0120
0030
0200
0300
,
1000
0000
0010
0000
0101
0000
0001
0000
0010
0100
0010
0000
1001
0000
0200
0300
,
1000
0000
0100
0000
0011
0000
0100
0000
0010
0100
0001
0000
0110
0000
2000
3000
,
0100
0000
0010
0000
0101
0000
0100
0000
1000
0100
0010
0000
1100
0000
0020
0030
,
1000
0000
0010
0000
0101
0000
0020
0030
0100
0000
0002
0003
0201
0300
2000
3000
,
0112
0000
0000
0000
0013
0100
0010
0100
0010
0100
0010
0100
0010
0100
1001
0000
,
0000
0000
0000
0000
0000
0000
0000
0000
0000
0000
0000
0000
0000
0000
0000
0000
0000
0000
0000
0000
0000
0000
0000
0000
1010
0000
0000
0000
0000
0000
0000
0000
0000
0000
0000
0000
0000
0000
0000
0000
0000
0000
0000
0000
0000
0000
0000
0000
0000
0000
0000
0000
0000
0000
0000
0000
0000
0000
0000
0000
0000
0000
0000
0000
0000
0000
0000
0000
0000
0000
0000
0000
0101
0000
0000
0000
0000
0000
0000
0000
0000
0000
0000
0000
0000
0000
0000
0000
0000
0000
0000
0000
0000
0000
0000
0000
0000
0000
0000
0000
0000
0000
0000
0000
0000
0000
0000
0000
0000
0000
0000
0000
0000
0000
0000
0000
0000
0000
0000
0000
0011
0000
0000
0000
0000
0000
0000
0000
0000
0000
0000
0000
0000
0000
0000
0000
0000
0000
0000
0000
0000
0100
0000
0000
1010
0000
0000
0000
0000
0000
0000
0000
0000
0000
0000
0000
0000
0000
0000
0000
0000
0000
0000
0000
0000
0000
0000
0000
0010
0000
0000
0000
0000
0000
0000
0000
0000
0000
0000
0000
0000
0000
0000
0000
0000
0000
0000
0000
0100
0000
0000
0000
,
1001
0000
0101
0000
1010
0001
1110
0000
,
1100
0000
0101
1000
0011
1000
0110
0010
,
1101
0000
1010
0000
0011
1000
0111
0000
,
0110
1000
0011
0100
1010
0100
0011
0100
,
1110
0000
0101
0000
0011
0100
1011
0000
,
0110
0000
1001
0100
0011
1000
0101
0010
,
1101
0000
1001
0000
0110
1000
0111
0000
,
1100
0000
0000
0000
1001
0000
0100
0000
0011
0100
1000
0001
0100
0010
1000
0001
,
0110
0000
0100
0010
1101
0010
0001
0001
,
0000
1100
0100
0000
0011
0100
0010
1000
,
1100
0000
0100
0001
1110
0000
0201
0000
,
0000
0011
0311
0000
1100
0010
0000
0001
,
0001
0000
0100
0010
1101
0010
1100
0000
,
0000
0100
0101
0100
1011
1000
0020
0100
,
0100
0000
0030
1000
0110
0001
2010
0000
,
0000
0000
0001
0000
3011
0000
0001
0000
0011
0100
0010
0100
0001
0100
0010
0100
,
0002
0000
0000
0000
1100
0003
0002
0000
0000
0000
0000
0003
1002
0000
0000
0000
,
0000
0000
0023
0000
1100
0030
0020
0230
0302
0000
0000
0000
0110
0000
0000
0000
,
0000
0203
0000
0000
0011
0000
0000
0000
0320
0000
0000
0000
1100
0000
0032
0000
,
0000
0000
0203
2300
3021
0030
0002
0000
0203
0000
0300
0000
0111
0000
0100
0000
,
1010
0001
0100
0010
1100
0001
0010
1000
,
0001
1000
0010
0100
0011
0100
0010
0001
,
0010
1000
0100
0001
1010
0100
1000
0100
,
0010
0000
1000
0000
0001
0000
0100
0000
0011
0000
1000
0100
0001
0000
0010
0000
,
1101
0010
0001
1000
0101
1000
0010
0001
,
0010
1000
0001
0010
1100
0001
1000
0010
,
0100
0000
0001
0000
1000
0000
0100
0000
1010
0000
0100
0000
0010
0000
1201
0300
,
0000
0000
2011
3000
0000
0000
0211
0300
0000
0000
1120
0030
0002
0003
0200
0300
,
1011
0000
0000
0000
1010
0000
0100
0000
0001
0010
0001
0000
1100
0000
0020
0030
,
1000
0000
0001
0000
0110
0000
1000
0000
0100
0010
0100
0000
1001
0000
0020
0030
,
1000
0000
0100
0000
0011
0000
0010
0000
1000
0100
1000
0000
0110
0000
1201
0300
,
0000
0000
2110
3000
0000
0000
0121
0030
0000
0000
1012
0003
0110
0000
1000
0000
,
0112
0000
0000
0000
0013
0100
0010
0100
0010
0100
0010
0100
0010
0100
1001
0000
,
0000
0000
0000
0000
0000
0000
0000
0000
0000
0000
0000
0000
0000
0000
0000
0000
0000
0000
0000
0000
0000
0000
0000
0000
1010
0000
0000
0000
0000
0000
0000
0000
0000
0000
0000
0000
0000
0000
0000
0000
0000
0000
0000
0000
0000
0000
0000
0000
0000
0000
0000
0000
0000
0000
0000
0000
0000
0000
0000
0000
0000
0000
0000
0000
0000
0000
0000
0000
0000
0000
0000
0000
0101
0000
0000
0000
0000
0000
0000
0000
0000
0000
0000
0000
0000
0000
0000
0000
0000
0000
0000
0000
0000
0000
0000
0000
0000
0000
0000
0000
0000
0000
0000
0000
0000
0000
0000
0000
0000
0000
0000
0000
0000
0000
0000
0000
0000
0000
0000
0000
0011
0000
0000
0000
0000
0000
0000
0000
0000
0000
0000
0000
0000
0000
0000
0000
0000
0000
0000
0000
0000
0100
0000
0000
1010
0000
0000
0000
0000
0000
0000
0000
0000
0000
0000
0000
0000
0000
0000
0000
0000
0000
0000
0000
0000
0000
0000
0000
0010
0000
0000
0000
0000
0000
0000
0000
0000
0000
0000
0000
0000
0000
0000
0000
0000
0000
0000
0000
0100
0000
0000
0000
,
1001
0000
0101
0000
1010
0001
1110
0000
,
1100
0000
0101
1000
0011
1000
0110
0010
,
1101
0000
1010
0000
0011
1000
0111
0000
,
0110
1000
0011
0100
1010
0100
0011
0100
,
1110
0000
0101
0000
0011
0100
1011
0000
,
0110
0000
1001
0100
0011
1000
0101
0010
,
1101
0000
1001
0000
0110
1000
0111
0000
,
1100
0000
0000
0000
1001
0000
0100
0000
0011
0100
1000
0001
0100
0010
0001
1000
,
0110
0000
0100
0010
1101
0010
0001
0001
,
0000
1100
0100
0000
0011
0100
0010
1000
,
1100
0000
0100
0001
1110
0000
0201
0000
,
0000
0011
0311
0000
1100
0010
0000
0001
,
0001
0000
0100
0010
1101
0010
1100
0000
,
0000
0100
0101
0100
1011
1000
0020
0100
,
0100
0000
0030
1000
0110
0001
2010
0000
,
0000
0000
0100
0000
3011
0000
0100
0000
0011
0100
1000
0010
0100
0001
0010
1000
,
0101
0100
0100
0100
,
0100
0100
0100
0100
,
0100
0100
0100
0100
,
0100
0100
0100
0100
,
0111
0000
1000
0101
0110
1100
1010
0000
,
1000
0000
0101
0000
0010
0000
0100
0000
1001
0000
0000
0100
0011
0000
0110
0000
,
1000
0100
1000
0110
0101
0110
1010
0000
,
0100
0000
0000
0011
0000
0000
1000
0000
0000
0000
0000
0000
0011
0000
0000
0001
0010
0100
1000
0000
0000
0100
0000
0000
,
1011
0100
0010
0101
1010
0110
1100
0001
,
0100
0000
0011
0000
1000
0000
0100
0000
0011
0000
0100
0010
1000
0000
0010
0000
,
0001
1000
0001
1100
0011
1010
1100
0010
,
1000
0000
0110
0000
0001
0000
0010
0000
1001
0010
0100
0010
0001
1000
0010
0100
,
0011
0100
0010
1100
1001
0110
1100
0010
,
0100
0000
1001
0000
0010
0000
1000
0000
1100
0000
0011
1100
0011
0000
0100
0000
,
1011
0001
0100
1011
0100
0010
1101
0010
,
0001
0000
0000
1110
0000
0000
0001
0000
0000
0010
0100
1000
0011
0000
0100
0000
0010
0000
1000
0000
0001
0000
0100
0000
,
0011
0000
0000
1100
,
0000
0000
0000
0000
,
0111
0000
0000
1010
,
0000
0000
0000
0000
0000
0000
0000
0000
0000
1000
0100
0010
1001
0000
0000
0110
0000
0000
0000
1010
0000
0000
0000
0000
,
0111
0000
1000
0100
1011
0100
1020
0000
,
0000
0130
0101
0000
1011
0100
0020
0001
,
0001
0000
0000
0130
1001
0000
1200
0000
,
0000
0000
1300
0000
1010
0000
0000
0000
1101
0010
0100
1000
0010
0100
0001
0010
,
1100
0000
0001
0010
1101
0000
0110
0100
,
0000
1010
1000
0000
0101
0010
1000
0100
,
0101
0000
0010
0010
1101
0000
0021
0000
,
0100
1000
1130
0000
0011
0100
0020
1000
,
1000
0000
0100
0031
1110
0000
1100
0000
,
0000
0010
0011
0000
1011
0100
0020
0000
,
0001
0000
0000
0130
1010
0000
1110
0000
,
0000
0101
1011
0100
0111
1000
0010
0100
,
2011
0000
0100
0000
0010
0000
0001
0000
0110
0000
0001
0000
0100
0000
0010
3000
,
1102
0000
0010
0000
0100
0000
0010
0000
1100
0000
0010
0000
1000
0000
0100
0003
,
2011
0000
0100
0000
0000
0000
0001
0000
0110
0000
0001
0000
0010
0000
0100
3000
,
0001
1000
0001
1000
0001
1000
0001
1000
0011
1100
0011
1100
0011
1100
0011
1100
,
0011
0100
0010
0000
0010
0000
0010
0000
0010
0100
0010
0000
0100
0000
0002
0003
,
0000
0000
0010
0000
0010
0000
0010
0000
0010
0100
0010
0000
0010
0000
1102
0003
,
1110
0000
0010
0000
0010
0000
0010
0000
0010
0100
0010
0000
0010
0000
1101
0000
,
0000
1011
0000
0111
0000
0000
0000
0000
,
1112
0003
0010
0000
0010
0000
0010
0000
1011
0100
0010
0000
0010
0000
0111
0000
,
1012
0003
0010
0000
0010
0000
0010
0000
1011
0100
0010
0000
0010
0000
1101
0000
,
0112
0003
0010
0000
0010
0000
0010
0000
1011
0100
0010
0000
0010
0000
0002
0003
,
1010
0010
0010
0011
0111
0110
1010
1100
,
1011
0000
0000
0000
0000
0000
0010
0000
0000
0000
0000
0000
0010
0000
0000
0000
0000
0000
0010
0000
0000
0000
0000
0000
1011
0000
0000
0100
0000
0000
0010
0000
0000
0000
0000
0000
0010
0000
0000
0000
0000
0000
0002
0000
0003
0000
0000
0000
,
1010
0000
0000
0000
0000
0000
0010
0000
0000
0000
0000
0000
0010
0000
0000
0000
0000
0000
0010
0000
0000
0000
0000
0000
1011
0000
0000
0100
0000
0000
0010
0000
0000
0000
0000
0000
0010
0000
0000
0000
0000
0000
0002
0000
0003
0000
0000
0000
,
1010
0000
0000
0010
0000
0000
0010
0000
0000
0010
0000
0000
1011
0000
0010
0000
0010
0000
1110
0000
0000
0000
0000
0000
,
0111
1011
0000
0000
;
