#TITLE:Wizards In Winter;
#SUBTITLE:;
#ARTIST:Trans-Siberian Orchestra;
#TITLETRANSLIT:;
#SUBTITLETRANSLIT:;
#ARTISTTRANSLIT:;
#CREDIT:;
#BANNER:Wizards In Winter.png;
#BACKGROUND:Wizards In Winter-bg.png;
#LYRICSPATH:;
#CDTITLE:./CDTITLES/DANCING STAGE PARTY EDITION.PNG;
#MUSIC:Wizards In Winter.mp3;
#OFFSET:-0.020;
#SAMPLESTART:130.170;
#SAMPLELENGTH:12.000;
#SELECTABLE:YES;
#DISPLAYBPM:95.000;
#BPMS:0.000=148.200,76.500=149.000,124.667=146.220,138.000=148.260,143.500=148.340,173.500=149.380,176.500=149.360,192.500=148.360,260.500=149.000,308.000=148.340,316.000=148.740,352.500=149.000,428.833=149.160,650.000=150.000,650.000=100.300,650.000=94.080,650.000=94.600,650.000=94.770,650.000=95.940,650.000=95.850,650.000=95.600,650.000=95.770,650.000=95.480,650.000=96.910,650.000=98.000,650.000=101.480,650.000=99.320,650.000=99.500,650.000=150.000;
#STOPS:308.500=0.060
,368.500=0.125
,424.000=0.040
;
#BGCHANGES:;
// cache tags:
#FIRSTBEAT:0.500;
#LASTBEAT:448.667;
#SONGFILENAME:Songs/keyboard/Wizards In Winter/Wizards In Winter.sm;
#HASMUSIC:1;
#HASBANNER:1;
#MUSICLENGTH:185.991;
// end cache tags

//---------------dance-single - ----------------
#NOTES:
     dance-single:
     :
     Hard:
     10:
     0.755,1.000,1.000,0.500,0.177,699.000,191.000,93.000,0.000,11.000:
0000
1001
0010
0010
0100
0010
0001
0001
,
0010
0100
1000
1000
0010
0100
1000
1000
,
0100
0010
0001
0001
1000
0010
0100
0100
,
0010
0000
0000
0210
0000
0000
0001
0000
0000
0010
0000
0000
1000
0000
0000
0010
0000
0000
0001
0000
0000
0010
0300
0000
,
1000
0001
0010
0010
1000
0100
0010
0010
,
0001
0010
0100
0100
1000
0100
1000
1000
,
0010
0100
0010
0010
0001
0100
0010
0100
,
1000
0210
0001
0010
1000
0001
0010
1000
,
0301
2001
0000
3001
0000
1020
0000
0130
,
0000
0102
0000
0103
0000
2010
0000
3100
,
0000
2001
0000
3010
0000
0210
0000
0301
,
0000
0011
0010
0100
1000
0100
0010
0001
,
0010
2001
0000
3001
0000
0210
0000
0301
,
0000
0102
0000
1003
0000
2100
0000
3001
,
0000
0012
0000
0103
0000
0210
0000
0301
,
0000
2002
0000
3003
0010
0001
0010
0100
,
1000
0110
0000
0000
0001
0010
0100
1000
,
0100
1010
0000
0000
0101
0101
0000
0000
,
1010
1010
0000
0101
0000
0110
0000
0101
,
0000
1001
1000
0110
0100
0101
0001
1100
,
0100
0011
0010
1100
0100
0011
0010
0110
,
0100
1001
0010
0011
1000
0011
1000
1100
,
0001
1100
0001
0010
0100
1000
0100
0010
,
0001
1100
1100
0011
0011
0110
0110
1100
,
1100
0110
0110
0011
0011
1001
1001
0110
,
0110
1010
1010
0101
0101
0110
1001
0110
,
1001
0220
0000
0330
0001
1000
0010
0100
,
0001
1001
0000
0000
0010
0100
0010
1000
,
0100
0110
0000
0000
0101
0101
0000
0000
,
1010
1010
0000
0100
0000
0001
0000
0010
,
0000
0100
0000
1000
0000
0100
0000
0010
,
0000
0100
0001
1000
0001
1000
0001
1000
,
0001
1000
0001
1000
0001
0010
0100
0010
,
0100
1000
0001
1000
0001
1000
0010
1000
,
0100
0001
1000
0001
1000
0001
1000
0001
,
1000
0002
0000
1000
0010
0100
0000
0010
,
0000
2003
0000
0010
0001
0100
0000
0010
,
3000
0002
0000
0010
0100
0010
0000
0100
,
0000
0010
0000
0100
0000
1000
0000
0100
,
0003
2000
0000
0010
0001
0100
0000
0001
,
3000
0200
0000
0001
0010
0001
0000
0301
,
0000
0002
0000
1000
0100
1000
0000
0100
,
0000
1000
0000
0010
0000
0100
0000
1003
,
0000
1001
0000
0000
0010
0001
0010
0100
,
1000
0110
0000
0000
0001
0010
0100
1000
,
0100
0110
0000
0000
0101
0101
0000
0000
,
1010
1010
0000
0101
0000
0010
0000
0101
,
0000
0012
0000
1003
0000
0120
0000
0130
,
0000
0201
0000
0310
0000
2010
0000
3010
,
0000
0201
0000
0310
0000
2010
0000
3100
,
0000
0010
0001
0010
0100
1000
0100
0010
,
0001
0201
0000
0310
0000
2010
0000
3100
,
0000
0210
0000
0301
0000
0120
0000
0031
,
0000
2010
0000
3100
0000
0120
0000
0031
,
0000
0110
0000
0000
1000
0010
0001
0010
,
0100
1010
0000
0000
0001
0010
0100
1000
,
0100
0110
0000
0000
0001
0010
0100
1000
,
0100
0010
0000
0001
0000
0010
0000
0100
,
0000
1000
0000
0100
0000
0010
0000
0001
,
0000
0010
0000
0100
0000
1000
0000
0100
,
0000
1000
0000
0010
0000
0100
0000
0001
,
0000
0010
0010
0000
0100
0010
0010
0000
,
1000
0001
0001
0000
0100
0010
0010
0000
,
1000
0001
0001
0000
0100
0010
0010
0000
,
0001
1000
1000
0000
1000
0001
0001
0000
,
0010
2000
0000
0010
0000
0010
0000
0001
,
0000
0010
0000
0100
0000
0010
0000
0001
,
3000
0010
0000
0100
0000
1000
0000
0100
,
0000
0202
0000
2323
0000
3232
0000
0323
,
0000
2030
0000
0001
0000
0010
0000
3100
,
0000
0210
0000
0001
0000
0310
0000
2100
,
0000
0001
0000
3002
0000
0100
0000
1000
,
0003
0202
0000
2323
0000
3032
0000
0223
,
0000
2332
0000
3203
0000
0322
0000
2233
,
0000
3322
0000
0000
0000
0000
0000
0000
,
0000
0000
0000
0000
,
0000
0000
0000
0000
0000
0033
0000
0000
,
0000
1001
0000
0000
0001
0100
1000
0100
,
0010
0101
0000
0000
0100
0010
0100
1000
,
0100
0101
0000
0000
1010
1010
0000
0000
,
0101
0101
0000
1001
0000
0110
0000
1001
,
0000
2001
3010
0012
0103
0201
0310
2001
,
3010
0201
0310
2100
3010
0102
0013
2001
,
3001
0210
0301
2010
3100
1020
1030
0210
,
0310
2100
3001
0010
0100
1000
0100
0010
,
0001
0210
0301
1020
0031
0120
1030
0210
,
0301
0210
0301
0012
1003
0102
0013
2100
,
3010
2010
3001
0210
0301
0120
1030
0102
,
0013
0000
1000
0100
0010
0001
1000
0100
0010
0001
0010
0100
1000
0001
0010
0100
,
1000
0100
0010
0100
0010
0001
0010
0100
1000
0100
0010
0100
1000
0010
0001
0010
,
1000
0010
0001
0010
0100
0010
0001
0010
1000
0010
0001
0010
0100
0010
0100
0010
,
0001
0010
0001
0010
1000
0100
0010
0001
1000
0100
0010
0001
1000
0100
0010
0001
,
0010
0100
1000
0000
0000
0000
1001
0000
0000
0000
0110
0000
0000
0000
0101
0000
,
0000
1010
0000
0101
0000
0110
0000
1100
,
0000
0101
0000
1010
0000
0100
0000
0110
,
0000
0001
0000
0010
0000
0100
0000
1000
,
0000
0010
0000
0001
0000
0010
0000
0100
,
0000
1010
0000
0101
0000
0110
0000
1001
,
0000
2010
0000
0001
0000
0010
0000
3001
,
0000
1002
0000
0100
0000
0010
0000
0103
,
0000
1000
0100
0010
0001
1000
0100
0010
,
0001
0001
0010
0100
1000
0001
0010
0100
,
1000
1001
1001
0110
0110
1001
1001
0110
,
0110
0011
0011
1100
1100
0110
0110
0011
,
0011
1001
1001
1010
1010
0101
0101
0110
,
1001
0110
1001
0110
1001
0110
1001
0110
,
1001
0000
0100
0010
0001
0010
0100
1000
0100
0010
0100
0010
0001
0010
0100
1000
,
0100
0010
0001
0100
0010
0001
0010
0100
1000
0100
0001
0100
1000
0100
0010
0001
,
1000
0100
0010
0001
1000
0100
0010
0001
1000
0100
0010
0001
0100
0010
0100
1000
,
0001
0010
0100
1000
0001
0010
0100
1000
0001
0010
0100
1000
0100
0010
0001
0010
,
0100
1000
0000
0202
0000
0000
0000
0000
0000
0000
0000
0000
0000
0000
0000
0000
,
0000
0000
0000
0000
0000
0000
0000
0303
,
0000
0000
1010
0000
0000
0000
0000
0000
0000
0000
0000
0000
;
