#TITLE:Deutsche Demokratische Republik;
#SUBTITLE:Auferstanden aus Ruinen;
#ARTIST:Johannes R. Becher, Joseph Haydn;
#TITLETRANSLIT:;
#SUBTITLETRANSLIT:;
#ARTISTTRANSLIT:;
#CREDIT:Arch0wl;
#BANNER:deutschedemokratischerepublik-bn.png;
#BACKGROUND:deutschedemokratischerepublik-bg.png;
#LYRICSPATH:;
#CDTITLE:!arch0wltitle.png;
#MUSIC:deutschedemokratischerepublik.ogg;
#OFFSET:-0.645;
#SAMPLESTART:67.060;
#SAMPLELENGTH:29.500;
#SELECTABLE:YES;
#BPMS:0.000=97.444,1.000=92.511,2.000=92.492,3.000=94.961,4.000=87.206,5.000=96.365,6.000=89.750,7.000=98.058,8.000=105.916,9.000=94.662,10.000=100.547,11.000=94.588,12.000=85.377,13.000=91.103,14.000=92.292,15.000=88.905,16.000=98.000,17.000=93.770,18.000=98.931,19.000=97.509,20.000=97.516,21.000=93.077,22.000=97.523,23.000=74.544,24.000=91.862,25.000=89.798,26.000=95.988,27.000=86.527,28.000=93.077,29.000=85.443,30.000=91.697,31.000=92.933,32.000=91.697,33.000=100.946,34.000=87.419,35.000=90.387,36.000=91.690,37.000=91.034,38.000=95.077,39.000=95.434,40.000=89.181,41.000=95.738,42.000=97.804,43.000=87.814,44.000=95.835,45.000=94.513,46.000=92.947,47.000=97.023,48.000=93.386,49.000=91.557,50.000=95.988,51.000=97.509,52.000=100.547,53.000=94.372,54.000=97.358,55.000=94.372,56.000=95.981,57.000=93.228,58.000=90.344,59.000=97.516,60.000=95.981,61.000=102.225,62.000=103.554,63.000=98.628,64.000=98.452,65.000=94.097,66.000=97.516,67.000=100.204,68.000=97.833,69.000=97.653,70.000=100.235,71.000=94.513,72.000=88.792,73.000=91.945,74.000=95.849,75.000=91.690,76.000=100.547,77.000=91.551,78.000=94.513,79.000=92.940,80.000=97.365,81.000=92.933,82.000=98.577,83.000=94.839,84.000=95.842,85.000=95.835,86.000=92.414,87.000=94.798,88.000=94.635,89.000=92.940,90.000=91.690,91.000=93.631,92.000=93.810,93.000=85.206,94.000=93.077,95.000=100.547,96.000=94.513,97.000=94.372,98.000=90.344,99.000=91.551,100.000=94.372,101.000=102.217,102.000=91.040,103.000=88.590,104.000=90.326,105.000=85.015,106.000=93.084,107.000=100.540,108.000=94.372,109.000=94.365,110.000=92.940,111.000=100.547,112.000=97.358,113.000=94.513,114.000=98.886,115.000=94.961,116.000=93.963,117.000=102.217,118.000=98.931,119.000=94.513,120.000=97.358,121.000=94.365,122.000=92.940,123.000=93.221,124.000=95.842,126.000=97.509,127.000=97.516,128.000=95.988,129.000=92.940,130.000=97.516,131.000=99.086,132.000=97.358,133.000=89.037,134.000=102.217,135.000=93.077,136.000=99.086,137.000=90.344,138.000=95.988,139.000=100.716,140.000=94.365,141.000=95.988,142.000=101.660,143.000=95.002,144.000=100.379,145.000=95.988,146.000=97.516,147.000=105.671,148.000=91.741,149.000=106.961,150.000=93.558,151.000=100.547,152.000=84.268,153.000=94.513,154.000=93.084,155.000=92.940,156.000=89.037,157.000=91.551,158.000=88.905,159.000=93.084,160.000=92.940,161.000=95.842,162.000=91.690,163.000=97.358,164.000=93.077,165.000=94.372,166.000=87.436,167.000=89.701,168.000=84.906,169.000=89.701,170.000=92.712,171.000=99.116,172.000=88.182,173.000=102.044,174.000=90.344,175.000=90.215,176.000=91.557,177.000=85.048,178.000=83.771,179.000=79.274,180.000=85.637,181.000=91.557,182.000=89.031,183.000=88.905,184.000=91.557;
#STOPS:;
#BGCHANGES:0.000=deutschedemokratischerepublik-bg.png=1.000=0=0=1,
99999=-nosongbg-=1.000=0=0=0 // don't automatically add -songbackground-
;
// cache tags:
#FIRSTBEAT:0.000;
#LASTBEAT:185.000;
#SONGFILENAME:Songs/Archmage and Dark0wl Hammer of Thor UltraHyperMegaPack/Deutsche Demokratische Republik/deutschedemokratischerepublik.sm;
#HASMUSIC:1;
#HASBANNER:1;
#MUSICLENGTH:105.000;
// end cache tags

//---------------dance-single - Arch0wl----------------
#NOTES:
     dance-single:
     Arch0wl:
     Medium:
     6:
     0.399,0.551,0.181,0.371,0.276,235.000,19.000,39.000,0.000,9.000:
0002
0000
0023
0000
,
0230
0000
0000
0000
0310
0001
0000
0000
,
2000
0000
3020
0000
,
0130
0001
0000
0001
0000
0001
0010
0100
,
1000
0100
1000
0100
0010
0001
0000
0010
,
0001
0001
0100
0100
0010
1000
0001
0100
,
0001
0100
0001
0100
,
0010
1000
0010
1000
,
0001
0010
0001
0010
,
0200
0000
0000
1300
1000
0000
0000
0000
,
0010
0100
0010
0100
,
0001
0010
0001
0010
,
0100
1000
0100
1000
,
0002
0000
0000
1000
1003
0000
1000
0000
,
1000
0000
0000
0000
0001
0000
0000
0001
0200
0000
0000
0000
0000
0000
0310
0000
,
2000
0000
0000
3001
0020
0000
0230
0000
,
0300
0000
0000
0000
0001
0000
0000
1000
0200
0000
0000
0000
0000
0000
0310
0000
,
0002
0000
0000
0103
0020
0000
0000
0030
,
1000
1000
0100
0100
,
0010
0010
0001
0001
,
1000
1000
0001
0100
,
0001
0000
0000
0001
0001
0000
1000
0010
,
1000
0000
0001
0000
,
1000
0000
0100
0010
,
0002
0000
0203
0000
,
0320
0000
0030
0000
,
1000
0100
1000
0100
0010
0100
0010
0001
0010
0100
0010
0100
,
1000
0010
1000
0001
0100
0001
0100
0010
0100
0010
1000
0010
,
1000
0100
1000
0100
0010
0100
0010
0001
0010
0100
0010
0100
,
1000
0000
0100
0000
1000
0000
0100
0000
0000
1000
0000
0000
0002
0000
0000
0000
0000
0000
2003
0000
0100
3000
0100
0000
,
0010
0001
0001
0010
0001
0001
0100
0001
0001
0100
0001
0001
,
1000
0010
0010
1000
0010
0010
0100
0010
0010
0100
0010
0010
,
1000
0100
1000
0100
0010
0100
0010
0001
0010
0100
0010
0100
,
1000
0000
0100
0000
1000
0000
0100
0000
0000
0010
0000
0000
1100
0000
0000
0000
0000
0000
1100
0000
0000
0000
0000
0000
,
1100
0000
0000
0000
1100
0000
0000
0010
0012
0000
0000
0000
0010
0000
0103
0000
,
1002
0000
1003
0001
0120
0000
1230
0000
,
1300
0000
0000
0000
1000
0000
0000
0100
0120
0000
0000
0000
0001
0000
0031
0000
,
0201
0000
0010
0310
2010
0000
3010
0000
,
1000
0100
1000
0100
,
0010
0001
0010
0001
,
0100
0010
0100
0010
,
2000
0000
0000
3001
2000
0000
3002
0023
,
1230
0000
0321
0000
,
1032
0000
2013
3120
,
0132
0000
0213
0000
,
2302
0000
0000
0000
,
0000
3003
0000
0000
;

//---------------dance-single - Arch0wl----------------
#NOTES:
     dance-single:
     Arch0wl:
     Hard:
     9:
     0.838,1.000,1.000,1.000,0.376,316.000,173.000,127.000,0.000,43.000:
0002
0000
0023
0000
,
0230
0000
0000
0000
0000
0000
0000
0000
0000
0000
0000
0000
0300
1000
0100
0010
0002
0000
0000
0000
2003
0000
0000
0000
0000
0000
0000
0000
0000
0000
0000
0000
,
3002
0000
0000
0000
0000
0000
0000
0000
0000
0000
0000
0000
0000
0000
0000
0000
0103
0010
0100
0010
0100
0010
0100
0010
0100
0010
0100
0010
0100
0010
0100
0010
,
1000
0100
0000
0100
0000
0100
0010
0001
,
1100
1100
0110
0110
0011
1100
0000
0011
,
0101
0101
0110
0110
1010
0110
0101
0110
,
2001
3201
2301
3201
,
1320
1032
1023
1032
,
2103
3120
2130
3120
,
0232
0000
0000
1313
1001
0000
0000
0000
,
1200
0010
1320
1000
1230
0010
1320
1000
,
0132
0010
0123
0100
0132
0010
0123
0100
,
0231
0301
0210
0310
2100
3100
1020
1030
,
1002
1000
1000
0010
0113
0000
0110
0000
,
0110
0000
0000
0000
1001
0000
0000
0001
0201
0000
0000
0000
0001
0000
0310
0000
,
2010
0000
0010
3001
0120
0000
0231
0000
,
0301
0000
0000
0000
0001
0000
0000
1000
1200
0000
0000
0000
1000
0000
0310
0000
,
1002
0000
0100
1003
0202
0000
0303
0000
,
2100
3100
2100
3100
0210
0310
0210
0310
,
0021
0031
0021
0031
0120
0130
0120
0130
,
2001
3001
0210
0310
2001
3001
0210
0310
,
2001
0010
3100
0201
2310
3001
2010
3102
,
2013
0001
0010
3001
2100
0010
0100
3010
,
2001
0000
0100
0000
0001
0000
0100
3000
0220
0000
0000
0330
0022
0000
0000
0033
,
2002
0000
0000
0000
0000
0000
0000
3000
0223
0000
0000
0000
0000
0000
0000
0030
,
2320
0000
3030
0000
,
1002
0100
1003
0012
1000
0013
2100
0001
3100
2001
0010
3001
,
0120
1000
0130
1002
0100
1003
0012
0100
1003
0102
0010
1003
,
0021
0100
0130
0021
0100
0130
2001
0010
3010
2001
0010
3010
,
1002
0100
1000
0103
1000
0100
2001
0010
0001
0010
0001
3010
,
1010
0110
0101
1010
0110
0101
0011
0110
1100
0011
0110
1100
,
1001
1100
0101
1001
1100
0101
1001
0011
1010
1001
0011
1010
,
1100
0110
0110
1100
0110
0110
0011
0110
0110
0011
0110
0110
,
1001
0110
0110
1001
0110
0110
1001
0000
0000
1001
0000
0000
,
1001
0000
0000
0000
1100
0000
0000
0010
0012
0000
0000
0000
0010
0000
0103
0000
,
1002
0000
1003
0001
2020
0000
3232
0000
,
1303
0000
0000
0000
1000
0000
0000
0100
0120
0000
0000
0000
0001
0000
0131
0000
,
0201
0000
0010
1310
2010
0000
3010
0000
,
1002
0013
0201
0310
1200
0310
2001
3010
,
1002
0013
2100
3010
1200
0310
2001
3010
,
0201
1300
0201
1300
0120
0031
0120
0031
,
2010
0010
0010
3011
2200
0000
3312
0123
,
2230
0000
0000
3000
0322
0000
0000
0003
,
2230
0000
0000
0000
0000
0000
3000
0000
2320
0000
0000
0030
3220
0000
0000
0300
,
0132
0000
0200
0300
0213
0000
0020
0030
,
2302
0000
0000
0000
,
0000
3003
0000
0000
;
