#TITLE:Northern Lights;
#SUBTITLE:(Ryuwave's Splittercore Bootleg);
#ARTIST:403;
#TITLETRANSLIT:;
#SUBTITLETRANSLIT:;
#ARTISTTRANSLIT:;
#CREDIT:;
#BANNER:Northern Lights - bn.png;
#BACKGROUND:Northern Lights - bg.png;
#LYRICSPATH:;
#CDTITLE:;
#MUSIC:Northern Lights.ogg;
#OFFSET:0.009;
#SAMPLESTART:97.900;
#SAMPLELENGTH:15.200;
#SELECTABLE:YES;
#BPMS:0.000=240.000;
#STOPS:;
#BGCHANGES:;
// cache tags:
#FIRSTBEAT:8.000;
#LASTBEAT:517.000;
#SONGFILENAME:Songs/SPEEEDCOOOORE 4/Northern Lights (Ryuwave's Splittercore Bootleg) - [Aoreo]/Northern Lights.sm;
#HASMUSIC:1;
#HASBANNER:1;
#MUSICLENGTH:130.500;
// end cache tags

//---------------dance-single - J. Nero----------------
#NOTES:
     dance-single:
     J. Nero:
     Challenge:
     18:
     1.000,1.000,0.161,0.429,1.000,1192.000,21.000,56.000,0.000,0.000:
0000
0000
0000
0000
,
0000
0000
0000
0000
,
1001
0000
0000
1100
0000
0000
0100
0010
,
0001
0000
0000
0000
0000
0000
1001
0000
0000
0000
0000
0000
1000
0100
1000
0001
,
0010
0000
0000
0110
0000
0000
0100
1000
,
0001
0000
0000
0000
0000
0000
0101
0000
0000
0000
0000
0000
0100
0001
1000
0100
,
1000
0001
0010
0100
0000
0100
0000
1000
,
0001
0000
0000
0000
0000
0000
0101
0000
0000
0000
0000
0000
0100
0010
1000
0100
,
1000
0000
1001
0000
,
0001
1000
0001
0010
0000
0000
0100
1000
0001
1000
0000
0000
0001
0100
0010
1000
,
0100
0010
0001
1000
0001
0100
0010
0100
0001
1000
0100
0010
0100
1000
0001
0100
,
0001
1000
0010
0100
0010
1000
0001
1000
0100
0010
0001
1000
0001
0100
0010
1000
,
0010
0100
0001
1000
0001
0010
0100
1000
0001
1000
0100
1000
0001
0100
0010
0100
,
0001
1000
0001
0010
0001
1000
0100
1000
0001
0100
0010
0100
0001
1000
0100
0010
,
0001
1000
0001
0100
0010
0100
0001
1000
0001
0100
0010
0100
0001
1000
0100
1000
,
0001
0100
0001
1000
0000
0000
0001
1000
0001
0010
0000
0000
0001
0100
0001
1000
,
0100
0010
0001
0000
0000
0000
1000
0001
1000
0010
0000
0000
0400
0000
0000
0300
,
0001
1000
0010
1000
0001
0100
0010
0100
0001
1000
0001
0010
0100
1000
0001
0100
,
0010
0100
0001
1000
0100
0010
0100
1000
0002
0000
0000
0000
0003
0000
0000
0000
,
1000
0100
1000
0001
0100
0010
0100
0001
1000
0001
0010
0100
1000
0001
1000
0100
,
1000
0001
0100
0010
0100
0001
1000
0100
0010
0001
1000
0001
0100
0010
0100
0001
,
1000
0001
0010
0100
2000
0000
3000
0000
0000
0000
0000
0000
0000
0000
0000
0000
,
0001
0100
0001
1000
0010
0100
0010
1000
0001
1000
0100
0010
0001
1000
0100
1000
,
0001
0100
0001
1000
0010
0100
0010
1000
0001
1000
0100
0010
0001
1000
0100
1000
,
0001
0100
0010
0100
0002
0000
0003
0000
0000
0000
0000
0000
0000
0000
0000
0000
,
1000
0100
1000
0001
0010
0100
1000
0010
0100
0001
0010
0100
1000
0001
0010
0001
,
1000
0100
1000
0010
0100
0001
0010
0001
1000
0100
1000
0001
0100
0001
0000
0000
,
1000
0100
1000
0010
0100
0001
1000
0000
0000
0001
0010
0400
0000
0000
0300
0000
,
1000
0001
0100
0001
0000
1000
0100
1000
0000
0000
0001
0000
0100
0001
1000
0001
,
0100
0010
1000
0100
0010
0001
0100
0001
1000
0010
0100
0001
1000
0100
1000
0001
,
0010
0001
1000
0010
0200
0000
0300
0000
0000
0000
0000
0000
0000
0000
0000
0000
,
0001
0100
0001
1000
0100
0010
0100
1000
0001
0100
0010
0100
0001
1000
0001
0000
,
0000
1000
0100
0010
0000
0000
0001
1000
0001
0100
0010
0100
0001
1000
0100
0010
,
0001
1000
0001
0100
0002
0000
0003
0000
0000
0000
0000
0000
0000
0000
0000
0000
,
1000
0100
1000
0004
0000
1003
0100
0010
0000
0100
1000
0001
1000
0010
0100
0001
,
1000
0100
1000
0010
0100
0001
0010
0100
1000
0001
1000
0010
0100
0001
1000
0100
,
0010
0001
1000
0001
0200
0000
0300
0000
0000
0000
0000
0000
0000
0000
0000
0000
,
0001
0100
0001
1000
0100
0010
0001
1000
0004
0000
0003
0000
1000
0100
0010
0001
,
1000
0000
0040
0030
0100
0000
0004
0003
1000
0100
0010
0100
1000
0001
0100
0001
,
0010
0100
1000
0010
0100
0001
1000
0010
0000
0000
0100
0001
4000
0000
3000
0000
,
0001
0010
0100
0000
4000
3000
0010
0100
0004
0000
0000
0003
1000
0100
1000
0001
,
0100
0001
1000
0010
0100
0001
0010
0100
1000
0000
0000
0000
0001
0000
0000
0000
,
0100
0000
0000
0000
0001
0000
0000
0000
0010
0000
0100
0000
1000
0001
1000
0000
,
0010
0000
0100
0000
0001
1000
0001
0100
0010
1000
0001
0010
0100
0000
0000
0000
,
0000
0000
1100
0000
0000
0000
0000
0000
1000
0100
1000
0001
1000
0000
0000
0000
,
0000
0101
0000
0000
0100
0001
0010
0000
,
0000
0000
0100
1000
0001
0000
1000
0000
0010
0000
0100
0000
0001
0000
0000
0000
,
0000
0000
0000
1001
0000
0000
0000
0000
0000
0000
0000
0000
1000
0000
0100
0000
0010
0000
0001
0000
0000
0000
0000
0000
,
1000
0000
0000
0100
0000
0000
1000
0000
0001
0000
0010
0000
0100
0000
0010
0000
0001
0000
1000
0000
0000
0000
0000
0000
,
0000
1010
0000
0000
0010
0100
0001
0010
,
0100
0000
1000
0000
0001
0100
0001
1000
0100
0000
0010
0000
0001
0010
0100
1000
,
0001
0100
0010
1000
0001
0000
1000
0000
0010
1000
0010
0100
0001
0000
0000
0000
,
0010
0100
1000
0001
,
0100
0000
0000
0000
0010
0000
0000
0000
0100
0001
1000
0001
0010
0000
0100
0000
,
1000
0000
0000
0000
0001
0000
0100
0000
0010
1000
0001
0100
0001
0000
0000
0000
,
1000
0100
0000
0000
1000
0001
0100
0000
,
0000
0000
0101
1001
,
0000
1100
0000
1000
,
0100
0000
1000
0000
0001
0000
0100
0001
,
0010
0000
0100
0000
1000
0001
1000
0010
0400
0000
0300
0000
0001
1000
0100
1000
,
0004
0000
0003
0000
1000
0100
4000
3000
0001
0010
0400
0300
1000
0001
0100
0010
,
0100
0001
1000
0001
0010
0100
1000
0010
0100
0001
1000
0100
1000
0001
0100
0010
,
0400
0000
0300
0000
0001
1000
0001
0010
0400
0000
0300
0000
1000
0100
1000
0001
,
0100
0010
0100
0001
1000
0100
0010
0100
1000
0010
0100
0001
1000
0100
1000
0000
,
0000
0000
0001
0100
0001
1000
0100
0000
0000
0000
1000
0100
1000
0001
0100
0010
,
1000
0001
1000
0100
0010
0001
0100
0010
0100
0001
1000
0010
4000
0000
0000
0000
,
0000
0000
0000
0000
3001
0100
0001
0010
0400
0000
0300
0000
1000
0010
1000
0001
,
0100
0001
1000
0100
0010
0001
1000
0010
0100
0010
1000
0001
0010
0100
1000
0001
,
1000
0010
0100
0001
1000
0100
0010
0001
4000
0000
3000
0000
0001
0100
0010
0100
,
0001
1000
0100
0010
0001
1000
0100
1000
0004
0000
0003
0000
1000
0010
0100
0000
,
0001
0000
0000
0000
1000
0000
0000
0000
0100
0000
0000
0000
0000
0000
0000
0000
1000
0000
0000
0000
0100
0000
0000
0000
1000
0000
0000
0000
0001
0000
0000
0000
0400
0000
0000
0000
0000
0000
0000
0000
0300
0000
0000
0000
0000
0000
0000
0000
0004
0003
0000
0000
0000
0000
0000
0000
0000
0000
0000
0000
0000
0000
0000
0000
,
0040
0030
0000
0000
0000
0000
0000
0000
0000
0000
0000
0000
0000
0000
0000
0000
0400
0300
0000
0000
0000
0000
0000
0000
0000
0000
0000
0000
0000
0000
0000
0000
4000
3000
0000
0000
0000
0000
0000
0000
0000
0000
0000
0000
0000
0000
0000
0000
0001
0000
0000
0000
0100
0000
0000
0000
0001
0000
0000
0000
1000
0000
0000
0000
,
0100
0010
0100
1000
0001
1000
0010
0100
0001
1000
0100
0010
0100
1000
0010
0100
,
0001
1000
0100
0010
0001
1000
0100
1000
0004
0000
0003
0000
1000
0100
0010
0100
,
4000
0000
3000
0000
0001
0100
0001
1000
0004
0000
0003
0000
0010
0100
1000
0001
,
1000
0000
0010
0000
0100
0000
0001
0000
1000
0000
0100
0000
0010
0000
0001
0000
1000
0000
0010
0000
0100
0000
0001
0000
2000
3000
0000
0000
0000
0000
0000
0000
,
0002
0003
0000
0000
0000
0000
0000
0000
0020
0030
0000
0000
0000
0000
0000
0000
0200
0300
0000
0000
0000
0000
0000
0000
2000
3000
0000
0000
0000
0000
0000
0000
,
0020
0030
0000
0000
0000
0000
0000
0000
0200
0300
0000
0000
0000
0000
0000
0000
0002
0003
0000
0000
0000
0000
0000
0000
2000
3000
0000
0000
0000
0000
0000
0000
,
0200
0300
0000
0000
0000
0000
0000
0000
0020
0030
0000
0000
0000
0000
0000
0000
0200
0300
0000
0000
0000
0000
0000
0000
2000
3000
0000
0000
0000
0000
0000
0000
,
0002
0003
0000
0000
0000
0000
0000
0000
0200
0300
0000
0000
0000
0000
0000
0000
0020
0030
0000
0000
0000
0000
0000
0000
0200
0300
0000
0000
0000
0000
0000
0000
,
0002
0003
0000
0000
0000
0000
0000
0000
2000
3000
0000
0000
0000
0000
0000
0000
0200
0300
0000
0000
0000
0000
0000
0000
0020
0030
0000
0000
0000
0000
0000
0000
,
0002
0003
0000
0000
0000
0000
0000
0000
2000
3000
0000
0000
0000
0000
0000
0000
0200
0300
0000
0000
0000
0000
0000
0000
2000
3000
0000
0000
0000
0000
0000
0000
,
0002
0003
0000
0000
0000
0000
0000
0000
0200
0300
0000
0000
0000
0000
0000
0000
0020
0030
0000
0000
0000
0000
0000
0000
0200
0300
0000
0000
0000
0000
0000
0000
,
0002
0003
0000
0000
0000
0000
0000
0000
2000
3000
0000
0000
0000
0000
0000
0000
0002
0003
0000
0000
0000
0000
0000
0000
0020
0030
0000
0000
0000
0000
0000
0000
,
0200
0300
0000
0000
0000
0000
0000
0000
2000
3000
0000
0000
0000
0000
0000
0000
0002
0003
0000
0000
0000
0000
0000
0000
2000
3000
0000
0000
0000
0000
0000
0000
,
0200
0300
0000
0000
0000
0000
0000
0000
2000
3000
0000
0000
0000
0000
0000
0000
0020
0030
0000
0000
0000
0000
0000
0000
0200
0300
0000
0000
0000
0000
0000
0000
,
0002
0003
0000
0000
0000
0000
0000
0000
2000
3000
0000
0000
0000
0000
0000
0000
0200
0300
0000
0000
0000
0000
0000
0000
0020
0030
0000
0000
0000
0000
0000
0000
,
0200
0300
0000
0000
0000
0000
0000
0000
2000
3000
0000
0000
0000
0000
0000
0000
0002
0003
0000
0000
0000
0000
0000
0000
2000
3000
0000
0000
0000
0000
0000
0000
,
0000
0000
0000
0000
,
0000
0000
0000
1001
,
0001
0000
0100
0000
0001
0010
0100
0000
,
1000
0010
0100
0000
0000
0001
1000
0000
,
0100
1000
0010
0000
0100
0001
0010
0000
,
0100
0000
1000
0000
0001
0100
0010
0000
,
0100
0000
0001
0000
0010
0100
1000
0000
,
0001
0100
0010
0000
1000
0000
0001
0000
,
0010
0000
0000
0000
0100
0000
0000
0000
1000
0000
0000
0000
0001
0100
0001
0000
,
1000
0100
1000
0000
0040
0000
0030
0000
0400
0000
0300
0000
0001
1000
0100
0010
,
0100
1000
0001
0100
0010
0100
0001
1000
0001
0010
0100
1000
0010
0100
0010
1000
,
0001
0100
0001
1000
0100
0010
0001
1000
0400
0000
0300
0000
1000
0100
1000
0000
,
0001
0100
0001
0000
1000
0100
0010
0001
4000
0000
3000
0000
0001
0100
0010
0100
,
0001
1000
0100
0010
0001
1000
0010
1000
0001
0100
0001
1000
0010
0100
0010
0000
,
0000
0000
1000
0001
1000
0001
0100
0000
0000
0000
0001
1000
0001
0010
0100
1000
,
0001
0100
0010
0100
0001
1000
0100
1000
0004
0000
0003
0000
1000
0100
0010
0100
,
1000
0001
1000
0010
0100
0001
0010
0100
1000
0001
1000
0010
0100
0001
1000
0100
,
1000
0001
0100
0001
1000
0100
1000
0010
1000
0100
0010
0001
0100
0001
1000
0100
,
1000
0001
0100
0010
0100
0001
1000
0001
0040
0000
0030
0000
0100
1000
0001
0000
,
1000
0001
1000
0000
0010
0100
0001
1000
0004
0000
0003
0000
1001
0000
0000
0000
,
0000
0000
0000
0000
0000
0000
0000
1001
,
0000
0000
0000
0000
,
1001
0000
0000
0000
,
0000
0000
0000
1001
0000
0000
0000
0000
,
0000
0000
0000
0000
,
1000
0100
1000
0001
0100
0010
0100
0001
1000
0100
0010
0001
1000
0001
0100
0010
,
0100
0001
1000
0001
0010
0100
1000
0001
1000
0100
1000
0001
0100
0010
0100
0001
,
1000
0001
0010
0001
1000
0100
0010
0001
1000
0100
1000
0001
0100
0010
0100
0001
,
1000
0001
0010
0100
1000
0001
1000
0010
0100
0010
1000
0001
1000
0100
0010
0100
,
1000
0001
0100
0010
0100
0001
1000
0001
0010
0100
1000
0001
1000
0010
0100
0001
,
1000
0100
1000
0001
0100
0001
1000
0100
0010
0001
1000
0001
0100
0010
0100
0001
,
1000
0100
0010
0100
1000
0001
1000
0010
0100
0001
0100
0010
1000
0001
1000
0100
,
1000
0001
0010
0100
1000
0001
0100
0001
1000
0001
0100
0010
0100
0001
1000
0100
,
1000
0010
0100
0001
4000
0000
3000
0001
0100
0001
0000
1000
0100
0010
0000
0001
,
1000
0001
0100
0010
0100
0001
1000
0100
0010
0001
0100
0010
1000
0010
0100
0001
,
4000
0000
3000
0000
0001
0100
0001
1000
0400
0000
0300
0000
1000
0100
1000
0001
,
0100
0010
0100
0001
4000
3000
0000
0040
0030
0000
0000
0100
0001
1000
0001
0100
,
0010
0100
0001
1000
0100
0010
0100
1000
0001
0100
0010
0100
0001
1000
0100
0010
,
0001
1000
0100
1000
0001
0100
0010
0100
0001
0010
0100
1000
0010
0100
0001
0100
,
0010
1000
0100
1000
0010
0100
0001
0010
0100
1000
0001
0100
0010
0100
0001
1000
,
0100
0010
0100
1000
0010
0100
0001
0010
0100
1000
0010
0100
0001
1000
0100
1000
,
0002
0003
0000
0000
;

//---------------dance-single - J. Nero----------------
#NOTES:
     dance-single:
     J. Nero:
     Hard:
     17:
     1.000,1.000,0.169,0.429,1.000,973.000,22.000,56.000,0.000,0.000:
0000
0000
0000
0000
,
0000
0000
0000
0000
,
1001
0000
0000
1100
0000
0000
0100
0010
,
0001
0000
0000
0000
0000
0000
1001
0000
0000
0000
0000
0000
1000
0100
1000
0001
,
0010
0000
0000
0110
0000
0000
0100
1000
,
0001
0000
0000
0000
0000
0000
0101
0000
0000
0000
0000
0000
0100
0001
1000
0100
,
1000
0001
0010
0100
0000
0100
0000
1000
,
0001
0000
0000
0000
0000
0000
0101
0000
0000
0000
0000
0000
0100
0001
1000
0010
,
1000
0000
1001
0000
,
0001
0000
1000
0000
0000
0000
0100
0000
1000
0000
0000
0000
0004
0000
0000
0003
,
1000
0010
1000
0001
0100
0010
1000
0001
0010
0100
0010
0001
1000
0001
0100
0010
,
1000
0001
0100
0010
0100
0001
1000
0001
0010
0100
1000
0001
1000
0010
0100
0001
,
0100
0010
1000
0001
1000
0100
0010
0001
1000
0001
0010
0100
1000
0001
1000
0010
,
0100
0010
1000
0001
0100
0001
1000
0010
1000
0001
0100
0010
1000
0001
0010
0100
,
1000
0001
1000
0010
0400
0000
0000
0300
0001
0000
4000
3000
0001
0000
0100
0000
,
0001
0010
0000
0100
1000
0000
0004
0003
,
1000
0000
0100
0000
0000
0000
1000
0000
0001
0000
0000
0000
0400
0000
0000
0300
,
0001
1000
0010
1000
0001
0100
0010
0100
0001
1000
0001
0010
0100
1000
0001
0100
,
0010
0100
0001
1000
0100
0010
0100
1000
0002
0000
0000
0000
0003
0000
0000
0000
,
1000
0100
1000
0001
0100
0010
0100
0001
1000
0001
0010
0100
1000
0001
1000
0100
,
1000
0001
0100
0010
0100
0001
1000
0100
0010
0001
1000
0001
0100
0010
0100
0001
,
1000
0001
0010
0100
2000
0000
3000
0000
0000
0000
0000
0000
0000
0000
0000
0000
,
0001
0100
0001
1000
0010
0100
0010
1000
0001
1000
0100
0010
0001
1000
0100
1000
,
0001
0100
0001
1000
0010
0100
0010
1000
0001
1000
0100
0010
0001
1000
0100
1000
,
0001
0100
0010
0100
0002
0000
0003
0000
0000
0000
0000
0000
0000
0000
0000
0000
,
1000
0100
1000
0001
0040
0000
0030
0000
0400
0000
0300
0000
1000
0001
0010
0001
,
4000
3000
0040
0030
0100
0000
0004
0003
1000
0100
1000
0001
0100
0001
0000
0000
,
4000
0000
0000
3000
0001
0000
0010
0000
0000
0000
0100
0000
4000
0000
3000
0000
,
0001
0100
0001
1000
0400
0300
0040
0030
0000
0000
0000
0000
0001
1000
0001
0010
,
0100
1000
0001
1000
0040
0000
0000
0030
1000
0010
0100
0001
1000
0100
1000
0001
,
0010
0001
1000
0010
0200
0000
0300
0000
0000
0000
0000
0000
0000
0000
0000
0000
,
0001
0100
0001
1000
0400
0000
0310
0000
0004
0000
0000
0003
1000
0000
0100
0000
,
0000
0000
1000
0000
0001
0000
0100
0001
1000
0001
0100
0010
1000
0001
1000
0100
,
0010
0001
1000
0001
0200
0000
0300
0000
0000
0000
0000
0000
0000
0000
0000
0000
,
0001
0000
0100
0000
0040
0030
1000
0000
0400
0300
0010
0000
0001
0100
0010
1000
,
0001
0010
0100
1000
0004
0000
0000
0003
1000
0001
1000
0010
0100
0001
1000
0100
,
0010
0001
1000
0001
0200
0000
0300
0000
0000
0000
0000
0000
0000
0000
0000
0000
,
0001
0100
0001
1000
0100
0010
0001
1000
0004
0000
0003
0000
1000
0100
0010
0001
,
1000
0000
0040
0030
0100
0000
0004
0003
1000
0100
0010
0100
1000
0001
0100
0001
,
0040
0000
0000
0030
0100
0000
1000
0000
0000
0000
0001
0000
0400
0000
0300
0000
,
0001
0000
0010
0000
0400
0300
0010
0000
0001
0000
0001
0000
1000
0100
1000
0001
,
0100
0001
1000
0010
0400
0000
0000
0300
0001
0000
0000
0000
0010
0000
0000
0000
,
0100
0000
0000
0000
1000
0000
0000
0000
0001
0000
0100
0000
0001
1000
0001
0000
,
0100
0000
0010
0000
1000
0001
1000
0010
0100
0001
1000
0100
0010
0000
0000
0000
,
0000
0000
0011
0000
0000
0000
0000
0000
0001
0010
0001
1000
0001
0000
0000
0000
,
0000
1010
0000
0000
0010
1000
0100
0000
,
0000
0000
1000
0001
1000
0000
0001
0000
0100
0000
0010
0000
1000
0000
0000
0000
,
0000
0000
0000
1001
0000
0000
0000
0000
0000
0000
0000
0000
0001
0000
0010
0000
0100
0000
1000
0000
0000
0000
0000
0000
,
0001
0000
0000
0010
0000
0000
0001
0000
1000
0000
0100
0000
0010
0000
0100
0000
1000
0000
0001
0000
0000
0000
0000
0000
,
0000
0101
0000
0000
0100
0010
1000
0100
,
0010
0000
0001
0000
4000
0000
3000
0000
0001
0000
0001
0000
1000
0100
0010
0001
,
1000
0010
0100
0001
1000
0000
0001
0000
0100
0001
0100
0010
1000
0000
0000
0000
,
0100
0010
0001
1000
,
0010
0000
0000
0000
0100
0000
0000
0000
0010
1000
0001
1000
0100
0000
0010
0000
,
0001
0000
0000
0000
1000
0000
0010
0000
0100
0001
1000
0010
1000
0000
0000
0000
,
0001
0010
0000
0000
0001
1000
0010
0000
,
0000
0000
1010
1001
,
0000
0011
0000
0001
,
0010
0000
0001
0000
1000
0000
0010
1000
,
0100
0000
0010
0000
0001
1000
0001
0100
0040
0000
0030
0000
1000
0001
0010
0001
,
4000
0000
3000
0000
0001
0000
0400
0300
0001
0000
0040
0030
0100
1000
0010
0100
,
0010
1000
0001
1000
0400
0000
0300
0000
0040
0000
0030
0000
0001
1000
0010
0100
,
0040
0000
0030
0000
1000
0001
1000
0100
0040
0000
0030
0000
0001
0010
0001
1000
,
0010
0100
0010
1000
0004
0000
0003
0000
4000
0000
3000
0000
0001
0000
0100
0000
,
0000
0000
0001
0000
0010
0000
0100
0000
0000
0000
1000
0000
0001
1000
0010
0100
,
0001
1000
0001
0010
0400
0300
4000
3000
0010
1000
0001
0100
0004
0000
0000
0000
,
0000
0000
0000
0000
1003
0010
1000
0100
0040
0000
0030
0000
0001
0100
0001
1000
,
0010
1000
0001
0010
0400
0300
4000
3000
0001
0100
0001
1000
0100
0010
0001
1000
,
0001
0100
0010
1000
0001
0010
0100
1000
0004
0000
0003
0000
1000
0010
0100
0010
,
1000
0001
0010
0100
1000
0001
0010
0001
4000
0000
3000
0000
0004
0000
0003
0000
,
4000
0000
0000
0000
0000
0000
0000
0000
3000
0000
0000
0000
0000
0000
0000
0000
0001
0000
0000
0000
0010
0000
0000
0000
0001
0000
0000
0000
1000
0000
0000
0000
0040
0000
0000
0000
0000
0000
0000
0000
0030
0000
0000
0000
0000
0000
0000
0000
4000
3000
0000
0000
0000
0000
0000
0000
0000
0000
0000
0000
0000
0000
0000
0000
,
0400
0300
0000
0000
0000
0000
0000
0000
0000
0000
0000
0000
0000
0000
0000
0000
0040
0030
0000
0000
0000
0000
0000
0000
0000
0000
0000
0000
0000
0000
0000
0000
0004
0003
0000
0000
0000
0000
0000
0000
0000
0000
0000
0000
0000
0000
0000
0000
1000
0000
0000
0000
0010
0000
0000
0000
1000
0000
0000
0000
0001
0000
0000
0000
,
0010
0100
0010
0001
1000
0001
0100
0010
4000
0000
0000
3000
0100
1000
0010
0100
,
0001
1000
0100
0010
0001
1000
0100
1000
0004
0000
0003
0000
1000
0100
0010
0100
,
4000
0000
3000
0000
0001
0100
0001
1000
0004
0000
0003
0000
0010
0100
1000
0001
,
1000
0000
0010
0000
0100
0000
0010
0000
1000
0000
0001
0000
0100
0000
0001
0000
1000
0000
0100
0000
0010
0000
0001
0000
2000
3000
0000
0000
0000
0000
0000
0000
,
0002
0003
0000
0000
0000
0000
0000
0000
0020
0030
0000
0000
0000
0000
0000
0000
0200
0300
0000
0000
0000
0000
0000
0000
2000
3000
0000
0000
0000
0000
0000
0000
,
0020
0030
0000
0000
0000
0000
0000
0000
0200
0300
0000
0000
0000
0000
0000
0000
0002
0003
0000
0000
0000
0000
0000
0000
2000
3000
0000
0000
0000
0000
0000
0000
,
0200
0300
0000
0000
0000
0000
0000
0000
0020
0030
0000
0000
0000
0000
0000
0000
0200
0300
0000
0000
0000
0000
0000
0000
2000
3000
0000
0000
0000
0000
0000
0000
,
0002
0003
0000
0000
0000
0000
0000
0000
0200
0300
0000
0000
0000
0000
0000
0000
0020
0030
0000
0000
0000
0000
0000
0000
0200
0300
0000
0000
0000
0000
0000
0000
,
0002
0003
0000
0000
0000
0000
0000
0000
2000
3000
0000
0000
0000
0000
0000
0000
0200
0300
0000
0000
0000
0000
0000
0000
0020
0030
0000
0000
0000
0000
0000
0000
,
0002
0003
0000
0000
0000
0000
0000
0000
2000
3000
0000
0000
0000
0000
0000
0000
0200
0300
0000
0000
0000
0000
0000
0000
2000
3000
0000
0000
0000
0000
0000
0000
,
0002
0003
0000
0000
0000
0000
0000
0000
0200
0300
0000
0000
0000
0000
0000
0000
0020
0030
0000
0000
0000
0000
0000
0000
0200
0300
0000
0000
0000
0000
0000
0000
,
0002
0003
0000
0000
0000
0000
0000
0000
2000
3000
0000
0000
0000
0000
0000
0000
0002
0003
0000
0000
0000
0000
0000
0000
0020
0030
0000
0000
0000
0000
0000
0000
,
0200
0300
0000
0000
0000
0000
0000
0000
2000
3000
0000
0000
0000
0000
0000
0000
0002
0003
0000
0000
0000
0000
0000
0000
2000
3000
0000
0000
0000
0000
0000
0000
,
0200
0300
0000
0000
0000
0000
0000
0000
2000
3000
0000
0000
0000
0000
0000
0000
0020
0030
0000
0000
0000
0000
0000
0000
0200
0300
0000
0000
0000
0000
0000
0000
,
0002
0003
0000
0000
0000
0000
0000
0000
2000
3000
0000
0000
0000
0000
0000
0000
0200
0300
0000
0000
0000
0000
0000
0000
0020
0030
0000
0000
0000
0000
0000
0000
,
0200
0300
0000
0000
0000
0000
0000
0000
2000
3000
0000
0000
0000
0000
0000
0000
0002
0003
0000
0000
0000
0000
0000
0000
2000
3000
0000
0000
0000
0000
0000
0000
,
0000
0000
0000
0000
,
0000
0000
0000
1001
,
0001
0000
0100
0000
0001
0010
0100
0000
,
1000
0010
0100
0000
0000
0001
1000
0000
,
0100
1000
0010
0000
0100
0001
0010
0000
,
0100
0000
1000
0000
0001
0100
0010
0000
,
0100
0000
0001
0000
0010
0100
1000
0000
,
0001
0100
0010
0000
1000
0000
0001
0000
,
0010
0000
0000
0000
0100
0000
0000
0000
1000
0000
0000
0000
0001
0100
0001
0000
,
1000
0100
1000
0000
0040
0000
0030
0000
0400
0000
0300
0000
0001
1000
0100
0010
,
0100
1000
0001
0100
0010
0100
0001
1000
0004
0000
0000
0003
0100
0010
0100
0001
,
1000
0010
1000
0001
0010
0100
1000
0001
4000
0000
3000
0000
0004
0000
0003
0000
,
0400
0000
0300
0000
0001
0010
0100
1000
0004
0000
0003
0000
1000
0010
0100
0010
,
1000
0001
0010
0100
1000
0001
0100
0001
4000
0000
3000
0000
0001
0000
0100
0000
,
0000
0000
0001
0000
1000
0000
0010
0000
0000
0000
1000
0001
1000
0100
0010
0001
,
1000
0010
0100
0010
1000
0001
0010
0001
4000
0000
3000
0000
0001
0010
0100
0010
,
0001
1000
0001
0100
0040
0030
0400
0300
0001
1000
0001
0100
0010
1000
0001
0010
,
0001
1000
0010
1000
0001
0010
0001
1000
0400
0000
0300
0000
0010
0001
1000
0100
,
1000
0001
0100
0010
0100
0001
1000
0001
0040
0000
0030
0000
0400
0000
0300
0000
,
4000
0000
3000
0000
0010
0100
0001
1000
0004
0000
0003
0000
1001
0000
0000
0000
,
0000
0000
0000
0000
0000
0000
0000
1001
,
0000
0000
0000
0000
,
1001
0000
0000
0000
,
0000
0000
0000
1001
0000
0000
0000
0000
,
0000
0000
0000
0000
,
1000
0100
1000
0001
0100
0010
0100
0001
1000
0100
0010
0001
1000
0001
0100
0010
,
0100
0001
1000
0001
0010
0100
1000
0001
1000
0100
1000
0001
0100
0010
0100
0001
,
1000
0001
0010
0001
1000
0100
0010
0001
1000
0100
1000
0001
0100
0010
0100
0001
,
1000
0001
0010
0100
1000
0001
1000
0010
0100
0010
1000
0001
1000
0100
0010
0100
,
1000
0001
0100
0010
0100
0001
1000
0001
0010
0100
1000
0001
1000
0010
0100
0001
,
1000
0100
1000
0001
0100
0001
1000
0100
0010
0001
1000
0001
0100
0010
0100
0001
,
1000
0100
0010
0100
1000
0001
1000
0010
0100
0001
0100
0010
1000
0001
1000
0100
,
1000
0001
0010
0100
1000
0001
0100
0001
1000
0001
0100
0010
0100
0001
1000
0100
,
1000
0010
0100
0001
4000
0000
3000
0001
0000
0400
0300
0010
0000
4000
3000
0001
,
1000
0001
0100
0010
0100
0001
4000
0000
3000
0000
0004
0000
0003
0000
1000
0001
,
1000
0400
0300
0000
1000
0001
1000
0010
0400
0000
0300
0000
0001
0000
1000
0000
,
0100
0000
0010
0000
0004
0003
0000
0400
0300
0000
0000
0010
1000
0001
1000
0010
,
0100
0010
1000
0001
0010
0100
0010
0001
1000
0010
0100
0010
1000
0001
0400
0000
,
0300
0004
0000
0003
1000
0100
1000
0001
0400
0000
0300
0001
1000
0100
4000
3000
,
0004
0003
0400
0000
0000
0000
0000
0000
0000
0000
0000
0000
0000
0000
0000
0000
,
0000
0000
0000
0000
,
0302
0003
0000
0000
;
