#TITLE:Payon;
#SUBTITLE:(Keyboard Only);
#ARTIST:Gravity/Ragnarok Online;
#TITLETRANSLIT:;
#SUBTITLETRANSLIT:;
#ARTISTTRANSLIT:;
#CREDIT:;
#BANNER:payon.png;
#BACKGROUND:payon-bg.png;
#LYRICSPATH:;
#CDTITLE:;
#MUSIC:payon.mp3;
#OFFSET:0.000;
#SAMPLESTART:40.600;
#SAMPLELENGTH:17.000;
#SELECTABLE:YES;
#BPMS:0.000=90.000;
#STOPS:;
#BGCHANGES:;
// cache tags:
#FIRSTBEAT:3.750;
#LASTBEAT:208.875;
#SONGFILENAME:Songs/IzzySM Keyboard Mega Pack/Payon(Keyboard Only)/payon.sm;
#HASMUSIC:1;
#HASBANNER:1;
#MUSICLENGTH:142.118;
// end cache tags

//---------------dance-single - ----------------
#NOTES:
     dance-single:
     :
     Hard:
     11:
     0.982,1.000,1.000,0.626,1.000,662.000,226.000,89.000,0.000,0.000:  // measure 1
0000
0000
0000
0000
0000
0000
0000
0000
0000
0000
0000
0000
0000
0000
0000
0100
,  // measure 2
0000
1000
0000
0001
0000
0100
0000
0000
0000
0000
0000
1000
0000
0100
0000
0000
,  // measure 3
0000
0000
0010
0000
0000
0000
0000
0000
0000
0000
0100
0000
0000
0000
0000
1010
0101
1010
0101
1010
0000
0000
0000
0000
0000
0000
0110
0000
0000
0000
0000
0000
,  // measure 4
0000
0000
0000
0000
0000
0100
0000
1000
0000
0001
0000
0000
0000
0000
0000
0010
,  // measure 5
0000
0000
1000
0000
0000
0000
0100
0000
0000
0000
0010
0000
0000
0000
0000
0000
0000
0000
0000
0000
0000
0000
0100
0000
0000
0000
0000
0110
1001
0110
1001
0110
,  // measure 6
1001
0110
0000
0000
0000
0000
0100
0000
0000
0000
0010
0000
0000
0000
0001
0000
0000
0000
0100
0000
0000
0000
0000
0000
0000
0000
0000
0000
0000
0000
0000
0000
,  // measure 7
0000
0000
0000
0100
1000
0100
0000
0010
0001
0010
0000
0000
0000
0000
0000
0101
,  // measure 8
0000
1000
0000
0001
0000
0100
0000
0000
0000
0000
0000
0011
0000
1100
0000
0011
,  // measure 9
0000
1100
0000
0011
0000
1100
0000
0011
0000
0101
0000
0000
0000
0101
0000
0000
,  // measure 10
0000
0000
0000
0110
0000
0110
0000
0000
0000
1100
0000
0000
0000
0000
0000
0000
,  // measure 11
0000
1010
0011
0000
0000
0000
0000
0000
0000
0000
0101
0000
0000
0000
0000
0000
0000
0000
0110
0000
0000
0000
0000
0000
0011
0000
1001
0000
0000
0000
0001
0000
,  // measure 12
0000
0101
0000
1010
0000
0101
0000
0101
0000
0101
0000
1010
0000
0101
0000
0001
,  // measure 13
0000
0100
0000
1000
0000
1000
0000
0000
0000
1000
0000
0000
0000
0000
0000
0100
,  // measure 14
0000
1000
0000
0100
0000
0010
0000
0100
0000
0001
0000
0000
0100
0010
0000
0000
,  // measure 15
0000
0000
0000
0000
0000
0000
0000
0000
1000
0010
1000
0010
0100
0010
0001
0010
,  // measure 16
0001
0000
0000
0000
0000
0000
0000
0000
0000
0000
0000
1000
0100
0010
0001
0010
0100
0001
0110
0001
0110
1000
0100
1000
0100
0010
0001
0001
0001
0010
0100
1000
,  // measure 17
0100
0010
0001
0010
0100
1000
0100
0010
0100
0010
0100
1000
0010
1000
0100
0010
0001
1000
0101
1000
1100
0010
0101
1010
0101
0100
0100
0100
0100
0100
0100
0100
,  // measure 18
0110
1000
0011
1000
0110
1000
0011
1000
0110
0100
0010
1000
0100
0010
0001
1000
0100
0010
0001
1000
0100
0010
0001
1000
0110
0001
0100
1000
0100
0010
0100
0010
,  // measure 19
0100
0010
0100
0001
0100
0001
0100
0001
0100
0001
0100
0010
0100
0010
0100
0010
0100
1000
0100
1000
0100
1000
0010
1000
0100
1000
0010
1000
0100
1000
0010
1000
,  // measure 20
0100
1000
0010
1000
0100
1000
0001
1000
0100
1000
0010
1000
0100
1000
0001
1000
0100
1000
0001
1000
0100
1000
0010
1000
0100
1000
0001
1000
0100
1000
0010
1000
,  // measure 21
0100
1000
0001
1000
0100
1000
0010
1000
0100
1000
0010
1000
0100
1001
0110
0110
1100
1001
1001
0110
0100
0001
0001
0001
0001
0001
0001
0001
0110
0110
0110
0000
,  // measure 22
0000
0000
0000
0000
0000
0000
0000
0000
0000
0000
0000
0000
0000
1000
0210
1300
0201
1300
0210
1300
0201
1300
0210
1300
0201
1300
0210
1300
0201
1300
0210
1300
,  // measure 23
0201
1300
0210
1300
0201
1300
0210
1300
0201
1300
0210
1300
0201
1300
0210
1300
0201
1300
0210
1300
0201
1300
0210
1300
0201
1300
0210
1300
0201
1300
0210
1300
,  // measure 24
0201
1300
0210
1300
0201
1300
0210
1300
0201
1300
0210
1300
0201
1300
0210
1300
0201
1300
0210
1300
0201
1300
0210
1300
0201
1300
0210
1300
0201
1300
0210
1300
,  // measure 25
0201
1300
0210
1300
0201
1300
0210
1300
0201
1300
0210
1300
0201
1300
0210
1300
0201
1300
0210
1300
0201
1300
0210
1300
0201
1300
0210
1300
0201
1300
0210
1300
,  // measure 26
0201
1300
0210
1300
0201
1300
0210
1300
0201
1300
0210
1300
0201
1300
0210
1300
0201
1300
0210
1300
0201
1300
0210
1300
0201
1300
0210
1300
0201
1300
0210
1300
,  // measure 27
0201
1300
0210
1300
0201
1300
0210
1300
0201
1300
0210
1300
0201
1300
0210
1300
0201
1300
0210
1300
0201
1300
0210
1300
0201
1300
0210
0300
0000
0000
0000
0000
,  // measure 28
0000
0000
0000
0000
0000
0000
0000
0000
0000
1000
0110
1000
0101
1000
0101
1000
0011
1000
0110
1000
0011
1000
0110
1000
0101
1000
0110
1000
0110
1000
0011
1000
,  // measure 29
0101
1000
0110
1000
0011
1000
0101
1000
0011
1000
0110
1000
0110
1000
0011
1000
0101
1000
0011
1000
0110
1000
0101
1000
0110
1000
0101
1000
0011
1000
0101
1000
,  // measure 30
0011
1000
0110
1000
0110
1000
0110
1000
0101
1000
0110
1000
0011
1000
0011
1000
0011
1000
0110
1000
0011
1000
0110
1000
0011
1000
0110
1000
0011
1000
0110
1000
,  // measure 31
0110
1000
0110
1000
0011
1000
0000
0000
0000
0000
0110
0000
0000
0000
0000
0000
0000
0000
1100
0000
0000
0000
0000
0000
0000
0000
0000
0000
0000
0000
1100
0000
,  // measure 32
0000
1100
0000
0000
0000
0101
0000
0000
0000
0000
0000
0000
0000
1100
0000
0000
,  // measure 33
0000
0101
0000
0000
0000
0000
0000
0110
0000
1100
0000
0110
0000
0101
0000
0000
,  // measure 34
0000
0000
0000
0000
0000
0110
0000
0000
0000
1001
0000
0000
0000
0000
0000
0100
,  // measure 35
0000
0100
0000
0010
0000
0010
0000
0001
0000
0001
0000
0000
0000
1000
0000
1000
,  // measure 36
0000
0100
0000
0100
0000
0010
0000
0010
0000
0001
0010
0100
1000
0100
0010
0001
,  // measure 37
0010
0100
1000
0100
0010
1001
0000
0000
0000
0100
0000
0000
0000
0000
0000
0110
,  // measure 38
0000
0011
0000
0000
0000
0110
0000
0000
0000
0000
0000
0000
0000
1100
0000
0000
,  // measure 39
0000
0101
0000
0000
0000
0000
0000
1100
0000
0101
0000
1100
0000
0101
0000
0000
,  // measure 40
0000
0000
0000
0000
0000
0100
0000
0000
0000
0010
0000
0000
0000
0000
0000
0011
,  // measure 41
0000
1001
0000
1100
0000
0110
0000
1001
0000
0011
0000
0000
0110
0110
0000
1000
,  // measure 42
0000
0200
0000
0010
0300
0002
0000
0010
0003
0100
0000
0000
0000
0000
0000
0000
,  // measure 43
0000
0000
0000
0000
0000
1000
0000
0100
0000
0010
0000
0100
0000
0000
0000
1000
,  // measure 44
0000
0100
0000
0010
0000
0001
0000
1000
0000
0001
0000
1000
0000
0010
0000
0000
,  // measure 45
0000
0010
0000
0000
0000
0010
0000
0000
0000
0010
0000
0000
0000
0000
0000
1000
,  // measure 46
0000
0100
0000
0000
0000
1000
0000
0100
0000
0001
0000
0100
0000
1000
0000
0100
,  // measure 47
0000
0001
0000
0100
0000
1000
0000
0100
0000
0001
0000
0010
0000
0010
0000
0000
,  // measure 48
0000
0010
0000
0000
0000
1000
0000
0100
0000
0010
0000
0001
0000
1000
0000
1000
,  // measure 49
0000
0000
0000
0000
0000
0100
0000
1000
0000
0100
0000
0000
0000
0000
1000
0100
,  // measure 50
0010
0001
0000
1000
0000
0100
0000
0000
0000
0000
0000
0000
0000
0100
0000
1000
,  // measure 51
0000
0001
0000
0100
0000
0100
0000
1000
0000
0001
0000
0100
0000
0001
0000
1000
,  // measure 52
0000
0100
0000
0000
0000
0100
0000
0000
0000
0000
0000
0000
0000
0000
0000
0000
,  // measure 53
0000
0000
0000
0000
0000
0000
1000
0001
0000
0000
0000
0000
0000
0000
0000
0000
0000
0000
0000
0000
0000
0000
0000
0000
0000
0000
0000
0000
0000
0000
0000
0000
;
