#TITLE:Wanderlust;
#SUBTITLE:(40oz. To Life Remix);
#ARTIST:The Quick Brown Fox;
#TITLETRANSLIT:;
#SUBTITLETRANSLIT:;
#ARTISTTRANSLIT:;
#CREDIT:;
#BANNER:wanderlust bn.png;
#BACKGROUND:wanderlust bg.png;
#LYRICSPATH:;
#CDTITLE:;
#MUSIC:Wanderlust (40oz. To Life Remix).ogg;
#OFFSET:0.007;
#SAMPLESTART:53.747;
#SAMPLELENGTH:19.200;
#SELECTABLE:YES;
#BPMS:0.000=250.000;
#STOPS:;
#BGCHANGES:;
// cache tags:
#FIRSTBEAT:26.000;
#LASTBEAT:513.000;
#SONGFILENAME:Songs/SPEEEDCOOOORE 3/Wanderlust (40oz. To Life Remix) - [Aoreo]/Wanderlust (40oz. To Life Remix).sm;
#HASMUSIC:1;
#HASBANNER:1;
#MUSICLENGTH:125.040;
// end cache tags

//---------------dance-single - J. Nero----------------
#NOTES:
     dance-single:
     J. Nero:
     Hard:
     16:
     1.000,1.000,0.488,1.000,0.684,810.000,61.000,190.000,125.000,1.000:
0000
0000
0000
0000
,
0000
0000
0000
0000
,
0000
0000
0000
0000
,
0000
0000
0000
0000
,
0000
0000
0000
0000
,
0000
0000
0000
0000
,
0000
0000
0000
0000
0000
0000
0000
0000
0M00
0000
00M0
0000
0M00
00M0
0M00
00M0
,
0M00
0000
0000
0000
0000
0000
0000
0000
0000
0000
0000
0000
00M0
0000
0000
0000
0000
0000
0000
0000
0000
0000
0000
0000
0M00
0000
0000
0000
0000
0000
0000
0000
0000
0000
0000
0000
00M0
0000
0000
0000
0000
0000
0000
0000
0000
0000
0000
0000
0M00
0000
0000
0000
0000
0000
0000
0000
00M0
0000
0000
0000
0000
0000
0000
0000
0M00
0000
0000
0000
0000
0000
0000
0000
00M0
0000
0000
0000
0000
0000
0000
0000
0M00
0000
0000
0000
0000
0000
0000
0000
00M0
0000
0000
0000
0000
0000
0000
0000
0M00
0000
0000
0000
0000
0000
0000
0000
00M0
0000
0000
0000
0000
0000
0000
0000
0M00
0000
0000
0000
0000
0000
0000
0000
00M0
0000
0000
0000
0000
0000
0M00
0000
0000
0000
0000
0000
00M0
0000
0000
0000
0000
0000
0M00
0000
0000
0000
0000
0000
00M0
0000
0000
0000
0000
0000
0M00
0000
0000
0000
0000
0000
00M0
0000
0000
0000
0000
0000
0M00
0000
0000
0000
0000
0000
00M0
0000
0000
0000
0000
0000
0M00
0000
0000
0000
0000
0000
00M0
0000
0000
0000
0000
0000
0M00
0000
0000
0000
0000
0000
,
1001
0000
0000
0000
0001
1000
0001
0000
0000
0000
1000
0100
0010
0000
0000
0000
,
0011
0000
0000
0000
0001
0010
0100
0000
0000
0000
1000
0001
1000
0000
0000
0000
,
1010
0000
0000
0000
0010
0100
0010
0000
0000
0000
0100
0001
1000
0000
0000
0000
,
1001
0000
0000
0000
0001
0010
0100
0000
0000
0000
1000
0100
1000
0000
0000
0000
,
1100
0000
0000
0000
0100
1000
0001
0000
0000
0000
0100
0001
0100
0000
0000
0000
,
0101
0000
0000
0000
0001
0010
0100
0000
0000
0000
1000
0001
0100
0000
0000
0000
,
0110
0000
0000
0000
0010
1000
0001
0000
0000
0000
1000
0010
0100
0000
0000
0000
,
2002
0000
0000
3003
0000
0000
0000
0000
,
1000
0100
1000
0001
0100
0000
0001
0100
0001
1000
0100
0000
1000
0010
1000
0000
,
0001
0100
0010
1000
0010
0000
1000
0001
1000
0010
0100
0000
0001
1000
0100
0000
,
00M0
00M0
0000
0000
0000
00M0
0000
0000
,
0000
0000
0000
0000
000M
000M
000M
0000
,
1000
0010
1000
0001
0100
0000
0001
1000
0001
0100
0010
0000
1000
0100
1000
0000
,
0001
0100
0010
0100
0001
0000
1000
0100
0010
0100
1000
0000
0001
0100
0001
0000
,
00M0
00M0
0000
0000
00M0
0000
0000
00M0
,
0000
0000
00M0
0000
0M00
0M00
00M0
00M0
,
1000
0001
0100
0010
0100
0000
0001
1000
0100
0010
0001
0000
1000
0001
1000
0000
,
0001
0100
0001
1000
0010
0000
1000
0100
1000
0001
0010
0000
0100
1000
0001
0000
,
0M00
0M00
0000
0000
0000
0M00
0000
0000
,
0000
0000
0000
0000
00M0
00M0
00M0
0000
,
1000
0100
1000
0001
0100
0000
0010
0100
0010
1000
0001
0000
1000
0100
1000
0000
,
0001
0010
0100
1000
0001
0000
0100
0001
1000
0100
1000
0000
0010
0100
0001
0000
,
00M0
00M0
0000
0000
00M0
0000
0000
00M0
,
0000
0000
00M0
0000
0M00
0M00
00M0
00M0
,
1000
0001
0100
0001
1000
0010
0100
0010
1000
0001
0010
0001
1000
0100
0010
0001
,
1000
0100
1000
0001
0100
0010
0100
0001
1000
0000
0001
0000
0010
0000
0100
0000
,
1000
0001
0100
0010
0100
0001
1000
0100
1000
0001
0010
0100
1000
0001
0100
0001
,
1000
0010
0100
0001
1000
0000
0010
0000
1000
0001
1000
0000
0004
0000
0003
0000
,
1000
0100
1000
0001
0010
0001
1000
0100
0010
0001
1000
0010
1000
0001
0100
0010
,
0100
0001
1000
0010
1000
0001
0100
0001
1000
0000
0100
0000
0010
0000
0001
0000
,
1000
0001
0100
0001
1000
0010
0100
0001
1000
0100
1000
0001
0010
0100
1000
0001
,
4000
3000
0000
0000
0040
0030
0000
0000
0400
0300
0000
0000
0004
0003
0000
0000
1000
0000
0100
0000
1000
0000
0001
0000
0100
0000
0000
0000
0010
0000
0000
0000
,
0100
0001
1000
0001
0100
0010
0100
0001
1000
0100
1000
0001
0010
0100
1000
0001
,
1000
0010
0100
0010
1000
0001
0100
0001
1000
0000
0010
0000
0100
0000
0001
0000
,
1000
0100
1000
0001
0010
0100
1000
0001
0010
0001
1000
0010
0100
0010
1000
0001
,
0100
0001
1000
0010
1000
0000
0001
0000
1000
0100
1000
0000
0004
0000
0003
0000
,
0100
0001
0100
0010
1000
0001
0100
0001
1000
0100
1000
0001
0010
0100
1000
0001
,
1000
0010
0100
0001
0100
0010
1000
0001
1000
0000
0001
0000
0010
0000
0100
0000
,
1000
0001
0100
0001
1000
0100
0010
0001
1000
0000
0010
0000
0100
0000
0001
0000
,
1000
0100
1000
0001
0010
0100
1000
0001
0100
0001
1000
0010
0100
0001
1000
0010
,
1000
0000
0020
0230
0302
0023
0230
2300
,
3000
2000
3000
0020
0230
0300
0200
0300
,
0101
0000
0002
0203
0320
2030
3200
0320
,
0030
0020
0030
0001
0200
0300
0200
0300
,
1010
0000
0020
2030
3200
0320
0230
2300
,
3000
2000
3000
0002
0203
0300
0200
0300
,
0110
0000
0020
2030
3200
0320
0032
0203
,
0300
0200
0300
0002
2003
3000
2000
3000
,
1001
0000
0002
0203
0320
2030
3200
0320
,
0030
0020
0030
0200
2300
3000
2000
3000
,
1001
0000
0002
0203
0320
0230
0302
0023
,
0030
0020
0030
0200
2300
3000
2000
3000
,
1010
0000
0020
0230
0302
0023
0230
2300
,
3000
2000
3000
0020
0230
0300
0200
0300
,
0101
0000
0000
0000
0000
0000
0000
0000
0000
0000
0000
0000
0000
0000
0000
0000
0002
0000
0000
0000
0000
0000
0000
0000
0023
0000
0000
0000
0000
0000
0000
0000
0230
0000
0000
0000
0000
0000
0000
0000
2300
0000
0000
0000
0000
0000
0000
0000
3020
0000
0000
0000
0000
0000
0000
0000
0230
0000
0000
0000
0000
0000
0000
0300
,
2002
3003
0000
0000
,
2002
3003
0001
1000
0100
1000
0001
0010
,
0100
1000
0001
0100
0010
0100
0001
1000
,
0100
0010
0001
0100
0010
0100
0001
1000
,
0100
1000
0001
0010
0100
1000
0010
0100
,
0010
1000
0001
1000
0010
0100
0001
1000
,
0001
0010
0100
1000
0001
0100
0001
1000
,
0100
1000
0010
0100
0001
0010
0001
0100
,
0010
1000
0100
1000
0001
0100
0001
1000
,
0001
0010
0100
1000
0010
0100
0001
0010
,
0100
1000
0010
0100
0001
0010
0100
1000
,
0010
0100
0001
1000
0100
0010
0001
0100
,
0010
1000
0100
0010
0001
0100
0010
1000
,
0001
0010
0001
1000
0100
0010
0100
1000
,
0001
0100
0010
0100
0001
1000
0100
0010
,
0001
1000
0100
1000
0010
0100
0001
1000
,
0001
0100
0001
0000
0000
0000
0400
0300
0000
0000
0100
0000
0020
0030
0000
0000
,
1001
0000
0000
1100
0000
0000
0110
0000
,
0110
0000
0000
0011
0000
0000
1001
0000
,
1001
0000
0000
1100
0000
0000
1010
0000
,
1010
0000
0000
0110
0000
0000
0100
0001
,
1000
0000
0000
1001
0000
0000
0101
0000
,
0101
0000
0000
0110
0000
0000
1010
0000
,
1010
0000
0000
1001
0000
0000
1100
0000
,
1100
0000
0000
0110
0000
0000
0010
0001
,
1000
0000
0000
1001
0000
0001
0100
0000
,
0110
0000
0000
0000
0000
0000
1010
0000
0000
0000
2000
3000
0200
0300
0020
0030
,
0200
0300
0000
0000
0000
0000
1100
0000
0000
0000
1000
0000
0001
0000
0000
0000
,
0101
0000
0000
0000
0000
0000
0110
0000
0000
0000
0020
0030
2000
3000
0200
0300
,
0020
0030
0000
0000
0000
0000
0011
0000
0000
0000
0000
0000
1001
0000
0000
0000
,
1001
0000
0000
1010
0000
0000
0110
0000
,
0100
0001
1000
0000
1100
0000
0110
0000
,
0011
0000
0001
0100
0000
0001
0010
0100
,
1000
0000
0200
0320
0032
0203
0320
2030
,
3000
2000
3000
0200
0320
0030
0020
0030
,
0011
0000
0002
0023
0230
2300
3020
0230
,
0300
0200
0300
0002
2003
3000
2000
3000
,
1001
0000
0002
2003
3020
0230
0320
2030
,
3000
2000
3000
0200
0320
0030
0020
0030
,
0110
0000
0200
2300
3020
0230
0302
2003
,
3000
2000
3000
0002
0203
0300
0200
0300
,
0101
0000
0002
0023
0230
2300
3020
0230
,
0300
0200
0300
0020
2030
3000
2000
3000
,
1001
0000
0002
0023
0230
0320
0032
0203
,
0300
0200
0300
0020
2030
3000
2000
3000
,
1100
0000
0200
0320
0032
0203
0320
2030
,
3000
2000
3000
0002
0203
0300
0200
0300
,
0101
0000
0002
0203
0320
2030
3200
0320
,
2032
3003
0000
0000
,
0001
0000
1000
0100
0020
0031
1000
0000
,
0020
0030
0100
0001
0200
0310
1000
0000
,
0002
0003
0010
0200
0300
1000
0002
0003
,
1000
0000
0100
0010
0000
0100
0010
0000
,
0001
0000
1000
0100
0020
0130
1000
0000
,
0002
0003
0100
0010
2000
3001
1000
0000
,
0020
0030
0100
0002
0003
0010
0200
0300
,
1000
0020
0130
0001
0000
0010
0100
0000
,
100M
000M
010M
001M
020M
130M
001M
000M
,
20M0
30M0
00M1
01M0
00M2
10M3
01M0
00M0
,
2M00
3M00
0M10
1M00
0M00
0M01
1M00
0M00
,
M020
M030
M100
M001
M000
M010
M100
M000
,
200M
300M
001M
100M
000M
010M
002M
003M
,
010M
000M
100M
001M
000M
010M
001M
000M
,
100M
000M
010M
001M
000M
010M
100M
000M
,
001M
000M
010M
001M
000M
100M
010M
100M
,
2002
3003
0000
0000
;

//---------------dance-single - J. Nero----------------
#NOTES:
     dance-single:
     J. Nero:
     Challenge:
     17:
     1.000,1.000,0.488,1.000,1.000,919.000,61.000,190.000,125.000,1.000:
0000
0000
0000
0000
,
0000
0000
0000
0000
,
0000
0000
0000
0000
,
0000
0000
0000
0000
,
0000
0000
0000
0000
,
0000
0000
0000
0000
,
0000
0000
0000
0000
0000
0000
0000
0000
0M00
0000
00M0
0000
0M00
00M0
0M00
00M0
,
0M00
0000
0000
0000
0000
0000
0000
0000
0000
0000
0000
0000
00M0
0000
0000
0000
0000
0000
0000
0000
0000
0000
0000
0000
0M00
0000
0000
0000
0000
0000
0000
0000
0000
0000
0000
0000
00M0
0000
0000
0000
0000
0000
0000
0000
0000
0000
0000
0000
0M00
0000
0000
0000
0000
0000
0000
0000
00M0
0000
0000
0000
0000
0000
0000
0000
0M00
0000
0000
0000
0000
0000
0000
0000
00M0
0000
0000
0000
0000
0000
0000
0000
0M00
0000
0000
0000
0000
0000
0000
0000
00M0
0000
0000
0000
0000
0000
0000
0000
0M00
0000
0000
0000
0000
0000
0000
0000
00M0
0000
0000
0000
0000
0000
0000
0000
0M00
0000
0000
0000
0000
0000
0000
0000
00M0
0000
0000
0000
0000
0000
0M00
0000
0000
0000
0000
0000
00M0
0000
0000
0000
0000
0000
0M00
0000
0000
0000
0000
0000
00M0
0000
0000
0000
0000
0000
0M00
0000
0000
0000
0000
0000
00M0
0000
0000
0000
0000
0000
0M00
0000
0000
0000
0000
0000
00M0
0000
0000
0000
0000
0000
0M00
0000
0000
0000
0000
0000
00M0
0000
0000
0000
0000
0000
0M00
0000
0000
0000
0000
0000
,
1001
0000
0000
0000
0001
1000
0001
0000
0000
0000
1000
0100
0010
0000
0000
0000
,
0011
0000
0000
0000
0001
0010
0100
0000
0000
0000
1000
0001
1000
0000
0000
0000
,
1010
0000
0000
0000
0010
0100
0010
0000
0000
0000
0100
0001
1000
0000
0000
0000
,
1001
0000
0000
0000
0001
0010
0100
0000
0000
0000
1000
0100
1000
0000
0000
0000
,
1100
0000
0000
0000
0100
1000
0001
0000
0000
0000
0100
0001
0100
0000
0000
0000
,
0101
0000
0000
0000
0001
0010
0100
0000
0000
0000
1000
0001
0100
0000
0000
0000
,
0110
0000
0000
0000
0010
1000
0001
0000
0000
0000
1000
0010
0100
0000
0000
0000
,
2002
0000
0000
3003
0000
0000
0000
0000
,
1000
0100
1000
0001
0100
0000
0001
0100
0001
1000
0100
0000
1000
0010
1000
0000
,
0001
0100
0010
1000
0010
0000
1000
0001
1000
0010
0100
0000
0001
1000
0100
0000
,
00M0
00M0
0000
0000
0000
00M0
0000
0000
,
0000
0000
0000
0000
000M
000M
000M
0000
,
1000
0010
1000
0001
0100
0000
0001
1000
0001
0100
0010
0000
1000
0100
1000
0000
,
0001
0100
0010
0100
0001
0000
1000
0100
0010
0100
1000
0000
0001
0100
0001
0000
,
00M0
00M0
0000
0000
00M0
0000
0000
00M0
,
0000
0000
00M0
0000
0M00
0M00
00M0
00M0
,
1000
0001
0100
0010
0100
0000
0001
1000
0100
0010
0001
0000
1000
0001
1000
0000
,
0001
0100
0001
1000
0010
0000
1000
0100
1000
0001
0010
0000
0100
1000
0001
0000
,
0M00
0M00
0000
0000
0000
0M00
0000
0000
,
0000
0000
0000
0000
00M0
00M0
00M0
0000
,
1000
0100
1000
0001
0100
0000
0010
0100
0010
1000
0001
0000
1000
0100
1000
0000
,
0001
0010
0100
1000
0001
0000
0100
0001
1000
0100
1000
0000
0010
0100
0001
0000
,
00M0
00M0
0000
0000
00M0
0000
0000
00M0
,
0000
0000
00M0
0000
0M00
0M00
00M0
00M0
,
1000
0001
0100
0001
1000
0010
0100
0010
1000
0001
0010
0001
1000
0100
0010
0001
,
1000
0100
1000
0001
0100
0010
0100
0001
1000
0000
0001
0000
0010
0000
0100
0000
,
1000
0001
0100
0010
0100
0001
1000
0100
1000
0001
0010
0100
1000
0001
0100
0001
,
1000
0010
0100
0001
1000
0000
0010
0000
1000
0001
1000
0000
0004
0000
0003
0000
,
1000
0100
1000
0001
0010
0001
1000
0100
0010
0001
1000
0010
1000
0001
0100
0010
,
0100
0001
1000
0010
1000
0001
0100
0001
1000
0000
0100
0000
0010
0000
0001
0000
,
1000
0001
0100
0001
1000
0010
0100
0001
1000
0100
1000
0001
0010
0100
1000
0001
,
4000
3000
0000
0000
0040
0030
0000
0000
0400
0300
0000
0000
0004
0003
0000
0000
1000
0000
0100
0000
1000
0000
0001
0000
0100
0000
0000
0000
0010
0000
0000
0000
,
0100
0001
1000
0001
0100
0010
0100
0001
1000
0100
1000
0001
0010
0100
1000
0001
,
1000
0010
0100
0010
1000
0001
0100
0001
1000
0000
0010
0000
0100
0000
0001
0000
,
1000
0100
1000
0001
0010
0100
1000
0001
0010
0001
1000
0010
0100
0010
1000
0001
,
0100
0001
1000
0010
1000
0000
0001
0000
1000
0100
1000
0000
0004
0000
0003
0000
,
0100
0001
0100
0010
1000
0001
0100
0001
1000
0100
1000
0001
0010
0100
1000
0001
,
1000
0010
0100
0001
0100
0010
1000
0001
1000
0000
0001
0000
0010
0000
0100
0000
,
1000
0001
0100
0001
1000
0100
0010
0001
1000
0000
0010
0000
0100
0000
0001
0000
,
1000
0100
1000
0001
0010
0100
1000
0001
0100
0001
1000
0010
0100
0001
1000
0010
,
1000
0000
0020
0230
0302
0023
0230
2300
,
3000
2000
3000
0020
0230
0300
0200
0300
,
0101
0000
0002
0203
0320
2030
3200
0320
,
0030
0020
0030
0001
0200
0300
0200
0300
,
1010
0000
0020
2030
3200
0320
0230
2300
,
3000
2000
3000
0002
0203
0300
0200
0300
,
0110
0000
0020
2030
3200
0320
0032
0203
,
0300
0200
0300
0002
2003
3000
2000
3000
,
1001
0000
0002
0203
0320
2030
3200
0320
,
0030
0020
0030
0200
2300
3000
2000
3000
,
1001
0000
0002
0203
0320
0230
0302
0023
,
0030
0020
0030
0200
2300
3000
2000
3000
,
1010
0000
0020
0230
0302
0023
0230
2300
,
3000
2000
3000
0020
0230
0300
0200
0300
,
0101
0000
0000
0000
0000
0000
0000
0000
0000
0000
0000
0000
0000
0000
0000
0000
0002
0000
0000
0000
0000
0000
0000
0000
0023
0000
0000
0000
0000
0000
0000
0000
0230
0000
0000
0000
0000
0000
0000
0000
2300
0000
0000
0000
0000
0000
0000
0000
3020
0000
0000
0000
0000
0000
0000
0000
0230
0000
0000
0000
0000
0000
0000
0300
,
2002
3003
0000
0000
,
2002
0000
3003
0000
0001
0100
0001
1000
0010
0100
0010
1000
0100
1000
0001
0010
,
0100
1000
0001
0100
0010
0100
0001
1000
0100
1000
0001
0100
0001
1000
0100
0010
,
0001
1000
0100
1000
0001
0100
0010
0100
0001
1000
0100
1000
0001
0100
0010
0100
,
0001
1000
0100
0010
0001
1000
0001
0100
0001
1000
0010
0100
0001
0000
0000
0000
,
1000
0100
1000
0001
0100
0001
1000
0010
1000
0001
0100
0010
0100
0001
1000
0001
,
0100
0010
0100
0001
1000
0100
1000
0001
0100
0001
1000
0100
0010
0001
1000
0001
,
0100
0010
1000
0001
0100
0010
0100
0001
1000
0100
0010
0001
1000
0100
1000
0001
,
0100
0010
0100
0001
1000
0010
0100
0010
1000
0001
0100
0001
1000
0000
0000
0000
,
0001
0100
0001
1000
0010
0100
0010
1000
0001
0010
0100
1000
0001
1000
0100
1000
,
0001
0100
0010
0100
0001
1000
0001
0100
0010
0100
0001
1000
0001
0100
0010
1000
,
0001
0100
0001
1000
0100
1000
0001
0010
0100
1000
0001
0100
0001
1000
0100
1000
,
0001
0100
0010
0100
0001
1000
0001
0010
0100
1000
0001
1000
0010
0000
0000
0000
,
1000
0100
1000
0001
0100
0010
0100
0001
1000
0100
1000
0001
0010
0100
1000
0001
,
0010
0001
1000
0100
0010
0100
1000
0001
1000
0010
0100
0010
1000
0001
0100
0010
,
0100
0001
1000
0010
0100
0001
0100
0010
1000
0001
0100
0001
1000
0100
0010
0001
,
1000
0100
1000
0000
0000
0000
0004
0003
0000
0000
0100
0000
0020
0030
0000
0000
,
1001
0000
0000
1100
0000
0000
0110
0000
,
0110
0000
0000
0011
0000
0000
1001
0000
,
1001
0000
0000
1100
0000
0000
1010
0000
,
1010
0000
0000
0110
0000
0000
0100
0001
,
1000
0000
0000
1001
0000
0000
0101
0000
,
0101
0000
0000
0110
0000
0000
1010
0000
,
1010
0000
0000
1001
0000
0000
1100
0000
,
1100
0000
0000
0110
0000
0000
0010
0001
,
1000
0000
0000
1001
0000
0001
0100
0000
,
0110
0000
0000
0000
0000
0000
1010
0000
0000
0000
2000
3000
0200
0300
0020
0030
,
0200
0300
0000
0000
0000
0000
1100
0000
0000
0000
1000
0000
0001
0000
0000
0000
,
0101
0000
0000
0000
0000
0000
0110
0000
0000
0000
0020
0030
2000
3000
0200
0300
,
0020
0030
0000
0000
0000
0000
0011
0000
0000
0000
0000
0000
1001
0000
0000
0000
,
1001
0000
0000
1010
0000
0000
0110
0000
,
0100
0001
1000
0000
1100
0000
0110
0000
,
0011
0000
0001
0100
0000
0001
0010
0100
,
1000
0000
0200
0320
0032
0203
0320
2030
,
3000
2000
3000
0200
0320
0030
0020
0030
,
0011
0000
0002
0023
0230
2300
3020
0230
,
0300
0200
0300
0002
2003
3000
2000
3000
,
1001
0000
0002
2003
3020
0230
0320
2030
,
3000
2000
3000
0200
0320
0030
0020
0030
,
0110
0000
0200
2300
3020
0230
0302
2003
,
3000
2000
3000
0002
0203
0300
0200
0300
,
0101
0000
0002
0023
0230
2300
3020
0230
,
0300
0200
0300
0020
2030
3000
2000
3000
,
1001
0000
0002
0023
0230
0320
0032
0203
,
0300
0200
0300
0020
2030
3000
2000
3000
,
1100
0000
0200
0320
0032
0203
0320
2030
,
3000
2000
3000
0200
0320
0030
0020
0030
,
0011
0000
0002
0203
0320
2030
3200
0320
,
2032
3003
0000
0000
,
0001
0000
1000
0100
0020
0031
1000
0000
,
0020
0030
0100
0001
0200
0310
1000
0000
,
0002
0003
0010
0200
0300
1000
0002
0003
,
1000
0000
0100
0010
0000
0100
0010
0000
,
0001
0000
1000
0100
0020
0130
1000
0000
,
0002
0003
0100
0010
2000
3001
1000
0000
,
0020
0030
0100
0002
0003
0010
0200
0300
,
1000
0020
0130
0001
0000
0010
0100
0000
,
100M
000M
010M
001M
020M
130M
001M
000M
,
20M0
30M0
00M1
01M0
00M2
10M3
01M0
00M0
,
2M00
3M00
0M10
1M00
0M00
0M01
1M00
0M00
,
M020
M030
M100
M001
M000
M010
M100
M000
,
200M
300M
001M
100M
000M
010M
002M
003M
,
010M
000M
100M
001M
000M
010M
001M
000M
,
100M
000M
010M
001M
000M
010M
100M
000M
,
001M
000M
010M
001M
000M
100M
010M
100M
,
2002
3003
0000
0000
;
