#TITLE:Battles and Castles;
#SUBTITLE:;
#ARTIST:Figure ft. Qwel;
#TITLETRANSLIT:;
#SUBTITLETRANSLIT:;
#ARTISTTRANSLIT:;
#CREDIT:;
#BANNER:../Wubstream - ban.png;
#BACKGROUND:../Wubstream - bg.png;
#LYRICSPATH:;
#CDTITLE:;
#MUSIC:Figure ft. Qwel - Battles and Castles.ogg;
#OFFSET:0.024;
#SAMPLESTART:15.936;
#SAMPLELENGTH:20.000;
#SELECTABLE:YES;
#DISPLAYBPM:174.000;
#BPMS:0.000=146.000,487.000=151.000,491.000=155.000,495.000=158.000,499.000=161.000,503.000=163.000,507.000=169.000,511.000=170.000,515.000=174.000;
#STOPS:;
#BGCHANGES:;
// cache tags:
#FIRSTBEAT:36.500;
#LASTBEAT:687.000;
#SONGFILENAME:Songs/Wubstream/Battles and Castles - [Rynker]/battles and castles.sm;
#HASMUSIC:1;
#HASBANNER:1;
#MUSICLENGTH:272.556;
// end cache tags

//---------------dance-single - Rynker----------------
#NOTES:
     dance-single:
     Rynker:
     Challenge:
     15:
     0.857,1.000,0.004,0.092,1.000,1606.000,1.000,25.000,0.000,0.000:

0000
0000
0000
0000
,
0000
0000
0000
0000
,
0000
0000
0000
0000
,
0000
0000
0000
0000
,
0000
0000
0000
0000
,
0000
0000
0000
0000
,
0000
0000
0000
0000
,
0000
0000
0000
0000
,
0000
0000
0000
0000
,
0000
0000
0001
1000
0001
0000
0000
0000
0000
0000
0000
0000
1000
0000
0000
0000
,
0000
0000
0100
1000
0100
0000
0000
0000
0000
0000
0000
0000
1000
0000
0000
0000
,
0000
0000
0010
0000
0000
0100
0001
0000
,
0000
0000
0000
0000
0000
0000
1000
0001
1000
0000
0000
0000
0000
0000
0000
0000
0000
0000
0000
0000
0000
0000
0000
0000
0001
0000
0000
0000
0000
0000
0000
0000
,
0000
0000
0000
1000
0010
0000
0000
0000
0000
0000
0000
0000
1000
0000
0000
0000
,
0000
0000
0001
0010
0001
0000
0000
0000
0000
0000
0000
0000
1000
0000
0000
0000
,
0000
0000
0001
0000
0000
0010
0100
0000
,
0000
0000
0000
0000
0000
0000
1000
0100
1000
0000
0000
0000
0000
0000
0000
0000
0000
0000
0000
0000
0000
0000
0000
0000
0001
0000
0000
0000
0000
0000
0000
0000
,
0000
0000
0000
0100
0010
0000
0000
0000
0000
0000
0000
0000
1000
0000
0100
0000
,
0010
0001
0001
0000
1000
0000
0001
0100
,
0010
1000
1000
0000
0001
0000
1000
0100
,
0010
0001
0001
0000
1000
0000
0001
0100
,
0010
1000
1000
0000
0001
0000
1000
0100
,
0010
0001
0001
0000
1000
0000
0001
0100
,
0010
1000
1000
0000
0001
0000
1000
0100
,
0010
0001
0001
0001
0001
0010
0100
1000
,
0001
0000
0100
0000
0010
0000
0000
0000
1000
0000
0000
0000
0001
0100
0010
1000
,
0010
0100
0001
1000
0100
0010
0001
1000
0001
0100
0010
0100
0001
0010
0100
1000
,
0100
0010
0001
1000
0010
0100
0010
0100
0010
0100
0010
1000
0001
0010
0100
0010
,
0001
1000
0100
0010
0001
1000
0001
0100
0010
1000
0100
0010
0100
1000
0010
0100
,
0001
1000
0010
1000
0100
0010
0100
0010
0100
0010
0100
1000
0001
0100
0010
0100
,
0001
0010
0100
1000
0001
0100
0010
0100
0001
1000
0100
0010
0001
0100
0010
0100
,
0001
0010
0100
1000
0001
1000
0001
1000
0001
1000
0001
0100
0010
0100
0001
0010
,
0100
1000
0001
0100
0010
0100
0001
0010
0100
1000
0100
0010
0100
1000
0010
1000
,
0100
1000
0010
0100
0001
0100
0001
0100
0001
1000
0001
0100
0010
1000
0010
0100
,
0001
0010
0001
0100
0010
1000
0010
0100
0001
0010
0001
0100
0010
1000
0010
0100
,
0001
0010
0001
0100
0010
1000
0010
0100
0001
0010
0001
0100
0010
1000
0010
0100
,
0001
0010
0001
0100
0010
1000
0010
0100
0001
0010
0001
0100
0010
1000
0010
0100
,
0001
0010
0001
0100
0010
1000
0010
0100
0001
0010
0001
1000
0100
0010
0001
1000
,
0100
1000
0010
0100
0001
0100
0010
1000
0100
1000
0010
0100
0001
0100
0010
1000
,
0100
1000
0010
0100
0001
0100
0010
1000
0100
1000
0010
0100
0001
1000
0100
0010
,
0001
0000
0000
1000
0000
0000
0001
0000
0000
0100
0000
0000
0010
0000
1000
0000
0001
0000
0100
0000
0010
0000
0100
0000
0001
0000
0010
0000
0100
0000
1000
0000
0000
0000
0000
0000
0000
0000
0000
0000
0000
0000
0000
0000
0000
0000
0000
0000
,
0000
0000
0000
0000
0000
0000
0001
0000
0000
1000
0000
0000
0001
0000
0000
0000
0000
0000
0000
0000
0000
0000
0000
0000
1001
0000
0000
0000
0000
0000
0000
0000
0000
0000
0000
0000
0001
0000
1000
0000
0001
0000
0100
0000
0010
0000
0100
0000
,
0001
0000
0000
0000
0000
0000
1000
0000
0000
0100
0000
0000
1000
0000
0000
0000
0000
0000
0000
0000
0000
0000
0000
0000
0100
0000
0010
0000
0001
0000
1000
0000
0001
0000
0100
0000
0010
0000
0100
0000
0001
0000
1000
0000
0001
0000
1000
0000
,
0001
0000
0000
0000
0000
0000
1000
0100
1000
0100
1000
0100
0010
0001
1000
0001
0100
0010
0100
0001
0010
0100
0010
0001
,
1000
0100
1000
0100
1000
0100
1000
0001
0100
0010
1000
0010
0100
0001
1000
0100
0010
0001
0010
0100
1000
0010
0100
0001
,
0010
0001
1000
0100
0010
0100
1000
0001
1000
0001
1000
0001
0100
0001
0100
0010
1000
0010
0100
0001
1000
0100
1000
0100
,
1000
0000
0000
0000
0000
0000
0001
0000
0000
0010
0000
0000
0001
0000
0000
0000
0000
0000
0000
0000
0000
0000
0000
0000
1000
0000
0010
0000
0100
0000
0001
0000
0100
0000
0001
0000
1000
0000
0010
0000
0100
0000
0001
0000
1000
0000
0001
0000
,
1000
0000
0000
0000
0000
0000
0001
0010
0001
1000
0100
1000
0001
0100
0010
0100
0001
1000
0100
0010
0001
1000
0001
0100
,
0010
0000
0100
0000
0001
0000
1000
0000
0010
0000
1000
0000
0002
0000
0000
0000
0000
0000
0000
0000
0000
0003
0000
0000
1000
0000
0010
0000
0100
0000
0001
0000
0010
0000
0100
0000
1000
0000
0100
0000
0010
0000
0001
0000
0100
0000
0001
0000
,
0010
0100
1000
0010
1000
0100
0010
0001
1000
0001
0010
0100
1000
0001
0100
0010
1000
0001
0100
0010
1000
0001
1000
0001
,
1000
0000
0000
0000
0000
0000
0001
0000
0000
0100
0000
0000
0001
0000
0000
0000
0000
0000
0000
0000
0000
0000
0000
0000
1000
0000
0010
0000
0100
0000
0001
0000
1000
0000
0010
0000
0100
0000
0001
0000
1000
0000
0100
0000
1000
0000
0100
0000
,
1000
0000
0000
0000
0000
0000
0001
0100
0010
0100
0001
1000
0100
0010
0001
1000
0100
0010
0100
1000
0001
0100
0010
0100
,
0001
1000
0001
0100
0010
0100
0001
1000
0100
0010
0001
0010
0100
1000
0001
1000
0001
0100
0010
0100
0001
0010
0100
1000
,
0010
1000
0100
0010
0001
1000
0001
0100
0010
0100
0001
0010
0100
1000
0100
0010
0001
1000
0010
1000
0001
0100
0001
1000
,
0100
0000
0000
0000
0000
0000
1000
0000
0000
0010
0000
0000
1000
0000
0000
0000
0000
0000
0000
0000
0000
0000
0000
0000
0001
0000
0100
0000
0010
0000
1000
0000
0010
0000
0100
0000
0001
0000
1000
0000
0100
0000
0010
0000
0001
0000
1000
0000
,
0001
0000
0000
0000
0000
0000
1000
0100
0010
0001
1000
0100
0010
0001
1000
0001
0100
0010
0100
0001
1000
0100
0010
0001
,
0100
0010
1000
0010
0100
0001
0010
0100
1000
0100
0010
0001
1000
0001
0100
0010
0100
0001
0010
0100
1000
0010
0100
0001
,
0010
0100
1000
0001
1000
0010
0100
0001
0100
0001
0100
0001
1000
0000
0000
0100
0000
0000
0010
0000
0000
0000
0000
0000
,
0000
0000
0001
1000
0001
0000
0000
0000
0000
0000
0000
0000
1000
0000
0000
0000
,
0000
0000
0010
0000
0100
0001
1000
0000
,
0000
0100
0000
0010
,
0000
0000
0000
0001
1000
0000
0000
0000
0000
0000
0000
0000
0100
0000
0000
0000
,
0000
0000
1000
0001
0100
0000
0000
0000
0000
0000
0000
0000
0001
0000
0000
0000
,
0000
0000
0100
0000
0010
0100
0010
0000
,
0000
1000
0000
0100
,
0000
0000
0000
0010
0001
0000
0000
0000
0000
0000
0000
0000
0000
0000
0000
0000
,
0000
0000
0000
0001
0000
0000
1000
0000
0100
1000
0000
0000
,
0001
0000
0100
0010
0000
0000
1000
0000
0001
0010
0000
0000
,
0100
0000
1000
0001
0000
0100
0010
0000
0100
0010
0000
0000
,
1000
0000
0000
0000
0000
0000
0000
0000
0001
0000
0000
0000
0010
0000
0000
0000
0000
0000
0000
0000
0100
0000
0000
0000
1000
0000
0000
0000
0000
0000
0000
0000
0000
0000
0000
0000
0001
0000
0000
0100
0000
0000
0010
0000
0000
0100
0000
0000
,
0001
1000
0100
0010
0001
1000
0001
0100
0010
0100
0001
0010
0100
1000
0010
1000
,
0100
0010
0001
1000
0001
0100
0001
1000
0010
1000
0010
0100
0001
1000
0100
0010
,
0001
0100
0010
0100
0001
0010
0100
1000
0100
0010
0001
1000
0000
0000
0000
0000
,
0000
0000
0000
0000
0000
0000
0000
0000
0000
0001
0000
0000
0100
0000
0000
0000
0000
0000
0000
0000
0000
0000
0000
0000
0000
0000
0000
0000
0000
0000
0000
0000
0000
0000
0000
0000
0001
0000
1000
0000
0010
0000
0100
0000
0001
0000
0010
0000
,
0001
1000
0100
0010
0001
1000
0010
0000
0000
0000
0000
0000
0100
0001
0100
0010
0100
0001
1000
0100
0010
0001
1000
0100
,
1000
0001
0100
0010
1000
0001
0100
0010
1000
0001
0100
0001
1000
0100
0010
0001
1000
0001
0010
0100
1000
0010
0100
0001
,
0100
0001
1000
0100
0010
0001
0010
0100
1000
0001
0100
0010
0100
0001
1000
0010
0100
0001
0010
0001
0100
0010
1000
0100
,
0010
0100
1000
0010
0100
0001
1000
0001
1000
0010
0100
0001
1000
0000
0000
0001
0000
0000
1000
0100
0010
0001
1000
0001
,
0100
0000
0000
0000
0000
0000
0010
0000
0000
1000
0000
0000
0010
0000
0000
0000
0000
0000
0000
0000
0000
0000
0000
0000
1000
0000
0100
0000
0010
0000
0001
0000
0010
0000
0100
0000
1000
0000
0001
0000
0100
0000
0010
0000
0100
0000
0001
0000
,
1000
0100
0010
0001
1000
0001
0100
0001
1000
0010
1000
0001
0100
0000
0000
0000
0000
0000
0001
0010
0100
1000
0010
0100
,
0001
1000
0100
0010
0001
0010
0100
1000
0001
0100
0001
0100
0010
1000
0001
1000
0001
0010
0100
1000
0010
0100
0001
0010
,
0100
1000
0100
0010
0001
0010
0100
1000
0001
1000
0010
0100
0001
0000
0000
1000
0000
0000
0001
0010
0100
1000
0010
0100
,
0001
0000
0000
0000
0000
0000
1000
0000
0000
0100
0000
0000
1000
0000
0000
0000
0000
0000
0000
0000
0000
0000
0000
0000
0001
0000
1000
0000
0001
0000
0100
0000
0010
0000
0100
0000
0001
0000
1000
0000
0100
0000
1000
0000
0001
0000
1000
0000
,
0100
0000
0000
0000
0000
0000
1000
0100
0010
0100
1000
0100
0010
0001
1000
0001
0010
0001
1000
0010
1000
0001
1000
0010
,
0100
0001
1000
0001
0100
0001
1000
0100
1000
0001
1000
0100
0010
0001
0010
0100
1000
0100
0010
0001
0100
0010
1000
0100
,
0010
0001
0100
0010
1000
0100
0010
0001
1000
0001
1000
0010
0100
0001
0100
0010
1000
0001
0100
0001
1000
0010
0100
0001
,
1000
0000
0000
0000
0000
0000
0100
0000
0000
1000
0000
0000
0100
0000
0000
0000
0000
0000
0000
0000
0000
0000
0000
0000
1000
0000
0001
0000
0010
0000
0100
0000
1000
0000
0010
0000
0100
0000
0001
0000
1000
0000
0001
0000
0100
0000
0001
0000
,
1000
0000
0000
0000
0000
0000
0100
1000
0001
1000
0100
1000
0001
0100
0010
1000
0010
0100
0001
1000
0001
0010
0100
0010
,
0100
1000
0001
0010
0100
1000
0001
1000
0001
0100
0010
0100
0001
1000
0100
0010
0001
0010
0100
1000
0001
0100
0010
1000
,
0001
0010
0100
1000
0001
0100
0010
1000
0001
0100
0001
1000
0100
1000
0100
0010
0001
0010
0100
1000
0001
0100
0010
0100
,
0001
0000
1000
0100
1000
0000
0000
0000
0000
0000
0000
0000
0100
0000
0000
0000
,
0000
0000
0000
0000
0010
0000
0000
0000
0001
0000
1000
0000
0001
0000
0000
0010
,
0000
0000
0000
0000
0000
0000
0000
0010
0000
0000
0000
0000
0000
0000
0000
0000
0000
0000
0000
0100
0000
0000
0000
0000
0000
0000
0000
0000
0000
0100
0000
0000
0000
0000
0000
0000
0000
0000
0000
0000
0000
1000
0000
0000
0000
0000
0000
0000
,
0000
0000
0000
0000
0000
0001
0000
0000
0000
0000
0000
0000
0000
0000
0000
0000
1000
0000
0000
0000
0000
0000
0000
0000
0000
0000
0000
0000
0001
0000
0000
0000
0000
0000
0000
0000
0000
0000
0000
0000
0000
0000
0000
0000
0000
0000
0000
0000
,
0000
0000
1000
0001
1000
0000
0000
0000
0000
0000
0000
0000
0001
0000
0000
0000
,
0000
0000
1000
0000
1000
0010
0100
0000
,
0000
0000
0000
0000
0000
0000
0001
0100
0001
0000
0000
0000
0000
0000
0000
0000
0000
0000
0000
0000
0000
0000
0000
0000
1000
0000
0000
0000
0000
0000
0000
0000
,
0000
0000
0000
0001
1000
0000
0000
0000
0000
0000
0000
0000
0100
0000
0000
0000
,
0000
0000
1000
0010
0100
0000
0000
0000
0000
0000
0000
0000
0001
0000
0000
0000
,
0000
0000
0010
0000
0000
0010
0100
0000
,
0000
0000
0000
0000
0000
0000
0100
1000
0100
0000
0000
0000
0000
0000
0000
0000
0000
0000
0000
0000
0000
0000
0000
0000
1000
0000
0000
0000
0000
0000
0000
0000
,
0000
0000
0000
0001
0100
0000
0000
0000
0000
0000
0000
0000
0010
0000
0000
0000
,
0000
0000
1000
0100
1000
0000
0000
0000
0000
0000
0000
0000
0100
0000
0000
0000
,
0000
0000
0010
0000
0000
0001
1000
0000
,
0000
0000
0000
0000
0000
0000
0001
0100
0001
0000
0000
0000
0000
0000
0000
0000
0000
0000
0000
0000
0000
0000
0000
0000
1000
0000
0000
0000
0000
0000
0000
0000
,
0000
0000
0000
0100
0010
0000
0000
0000
0000
0000
0000
0000
0000
0000
0000
0000
,
0000
0002
0000
0000
,
0000
0000
0000
0000
,
0000
0000
0003
0000
0000
0000
2000
0000
0000
0000
0000
0000
0000
0000
0000
0010
0000
0000
0000
0000
0000
0000
0000
0000
,
0000
0010
0000
0100
0000
3000
0200
0000
,
0000
0010
0000
0000
0000
1000
0000
1000
,
0000
0000
0000
0010
0000
2300
0002
3000
,
0000
0000
0203
0000
0000
0310
1000
0000
,
0001
0000
0100
0000
0010
0000
1000
0100
,
0010
0001
0001
0000
1000
0000
0001
0100
,
0010
1000
1000
0000
0001
0000
1000
0100
,
0010
0001
0001
0000
1000
0000
0001
0100
,
0010
1000
1000
0000
0001
0000
1000
0100
,
0010
0001
0001
0000
1000
0000
0001
0100
,
0010
1000
1000
0000
0001
0000
1000
0100
,
0010
0001
0001
0001
0001
0100
0010
1000
,
1000
0100
0010
0000
0001
0000
1000
0100
,
0010
0001
0001
0000
1000
0000
0001
0100
,
0010
1000
1000
0000
0001
0000
1000
0100
,
0010
0001
0001
0000
1000
0000
0001
0100
,
0010
1000
1000
0000
0001
0000
1000
0100
,
0010
0001
0001
0000
1000
0000
0001
0100
,
0010
1000
1000
0000
0001
0000
1000
0100
,
0010
0000
0001
0000
0001
0000
0001
0000
0001
0000
1000
0000
0001
0100
0010
0100
,
0001
1000
0100
1000
0010
0000
0000
0000
0000
0000
0000
0000
0100
0001
0100
0001
,
0100
0010
1000
0010
0100
0001
1000
0100
0010
0001
0010
0100
1000
0001
0100
0010
,
0100
0001
0010
0100
1000
0010
0100
0001
1000
0010
0100
0001
0010
0001
0010
0001
,
0010
0100
1000
0001
0100
0010
0100
0001
1000
0100
0010
0001
0100
0010
0100
0010
,
0100
0010
0100
0001
1000
0001
1000
0100
0010
0001
1000
0100
0010
0001
0010
0001
,
1000
0001
1000
0100
0010
0001
1000
0010
0100
0001
0010
0001
0100
0001
0100
0001
,
1000
0010
0100
0001
0100
0010
0100
0001
1000
0001
1000
0100
0010
0100
0010
0100
,
1000
0001
0100
0001
0100
0010
1000
0010
0100
0001
1000
0100
0010
0100
1000
0010
,
0100
0001
0010
0100
1000
0010
0100
0001
1000
0001
1000
0001
0010
0100
0010
0100
,
1000
0001
0100
0010
0100
0001
0010
0100
0010
0001
1000
0001
0100
0010
0100
0010
,
1000
0001
0010
0100
0010
0001
1000
0001
0100
0010
1000
0001
0100
0010
0100
0010
,
1000
0001
0010
0100
0010
0001
1000
0001
0100
0010
1000
0001
0010
0100
0010
0100
,
0010
0100
0010
0100
1000
0001
0100
0010
0100
0001
1000
0001
0100
0010
0100
0010
,
1000
0001
0100
0001
1000
0010
1000
0100
1000
0001
0010
0001
0100
0010
0100
0010
,
1000
0001
0100
0010
0100
0001
0010
0100
1000
0001
1000
0001
0010
0100
0010
0100
,
1000
0001
0010
0100
1000
0100
0010
0001
0010
0001
1000
0001
0100
0010
0100
0010
,
0100
0010
0100
0010
1000
0001
1000
0001
0010
0100
1000
0100
0010
0000
0000
0000
,
0001
0000
1000
0010
0100
0000
0000
0000
0001
0000
0000
0000
4000
0000
0000
3000
,
0100
0000
0000
0000
0020
0000
0000
0030
0001
0000
1000
0000
0040
0000
0000
0030
,
0100
0000
0000
0000
0000
0000
0001
1000
0001
0000
0000
0000
0000
0000
0000
0000
1000
0000
0000
0000
0000
0000
0000
0000
0200
0000
0000
0000
0000
0000
0000
0000
,
0010
0000
0300
0010
0200
0000
0000
0000
1000
0000
0300
0000
0002
0000
0000
0000
,
0103
0000
0000
0010
2000
0000
0000
0000
3004
0000
0000
0003
0020
0000
0000
0000
,
0130
0000
0000
0000
0000
0000
0000
0000
0000
0000
0000
0000
0000
0000
0000
0000
0000
0000
0000
0000
0000
0000
0000
0000
0000
0000
0000
0000
0000
0000
0000
0000
0000
0000
0000
0000
1000
0000
0000
0000
0000
0000
0100
0000
0000
0000
0000
0000
2000
0000
0000
0000
0000
0000
0000
0000
0000
0000
0000
0000
0000
0000
0000
0000
0000
0000
0000
0000
0000
0000
0000
0000
0000
0000
0000
0000
0000
0000
0000
0000
0000
0000
0000
0000
0000
0000
0000
0000
3000
0000
0000
0000
0000
0000
0000
0000
0002
0000
0000
0000
0000
0000
0000
0000
0000
0000
0000
0000
0000
0000
0000
0000
0000
0000
0000
0000
0000
0000
0000
0000
0000
0000
0000
0000
0000
0000
0000
0000
0000
0000
0000
0000
0003
0000
0000
0000
0000
0000
0000
0000
0000
0000
0000
0000
0200
0000
0000
0000
0000
0000
0000
0000
0000
0000
0000
0000
0000
0000
0000
0000
0000
0000
0000
0000
0000
0000
0000
0000
0000
0000
0000
0000
0000
0000
0000
0000
0000
0000
0000
0000
0000
0000
0000
0000
0000
0000
0000
0000
0000
0000
0000
0000
,
0000
0000
0300
0000
0000
0000
0001
0100
0001
0000
0000
0000
0000
0000
0000
0000
2000
0000
0000
0000
0000
0000
3000
0000
0100
0000
0000
0000
0010
0000
0000
0000
,
0001
0010
0100
1000
0001
0100
0020
0000
,
1030
0000
0001
0100
0010
0000
0000
0000
2000
0000
0000
3000
0004
0000
0000
0003
,
0020
0000
0000
0030
0200
0000
0000
0000
1300
0000
0001
0000
0200
0000
0000
0300
,
0010
0000
0000
0000
0000
0000
1000
0001
1000
0000
0000
0000
0000
0000
0000
0000
0000
0000
0000
0000
0000
0000
0000
0000
0002
0000
0000
0000
0000
0000
0000
0000
,
0000
0000
0000
0000
0000
0000
0000
0000
0003
1000
0000
0000
0002
0000
0000
0000
0000
0000
0000
0000
0000
0000
0000
0000
0000
0000
0000
0000
0000
0000
0000
0000
0000
0000
0003
0000
1000
0000
0000
0000
0000
0000
0100
0000
0000
0000
0000
0000
,
1000
0100
0010
0001
0010
0001
1000
0010
,
1000
0010
0100
0001
0100
0001
1000
0000
,
1000
1000
0100
0010
,
0010
0000
0002
0003
0000
0000
0000
0000
;

//---------------dance-single - Rynker----------------
#NOTES:
     dance-single:
     Rynker:
     Hard:
     13:
     0.754,1.000,0.007,0.088,1.000,1408.000,2.000,24.000,1.000,0.000:








0000
0000
0000
0000
,
0000
0000
0000
0000
,
0000
0000
0000
0000
,
0000
0000
0000
0000
,
0000
0000
0000
0000
,
0000
0000
0000
0000
,
0000
0000
0000
0000
,
0000
0000
0000
0000
,
0000
0000
0000
0000
,
0000
0000
0001
1000
0001
0000
0000
0000
0000
0000
0000
0000
1000
0000
0000
0000
,
0000
0000
0100
1000
0100
0000
0000
0000
0000
0000
0000
0000
1000
0000
0000
0000
,
0000
0000
0010
0000
0000
0100
0001
0000
,
0000
0000
0000
0000
0000
0000
1000
0001
1000
0000
0000
0000
0000
0000
0000
0000
0000
0000
0000
0000
0000
0000
0000
0000
0001
0000
0000
0000
0000
0000
0000
0000
,
0000
0000
0000
1000
0010
0000
0000
0000
0000
0000
0000
0000
1000
0000
0000
0000
,
0000
0000
0001
0010
0001
0000
0000
0000
0000
0000
0000
0000
1000
0000
0000
0000
,
0000
0000
0001
0000
0000
0010
0100
0000
,
0000
0000
0000
0000
0000
0000
1000
0100
1000
0000
0000
0000
0000
0000
0000
0000
0000
0000
0000
0000
0000
0000
0000
0000
0001
0000
0000
0000
0000
0000
0000
0000
,
0000
0000
0000
0100
0010
0000
0000
0000
0000
0000
0000
0000
1000
0000
0100
0000
,
0010
0001
0001
0000
1000
0000
0001
0100
,
0010
1000
1000
0000
0001
0000
1000
0100
,
0010
0001
0001
0000
1000
0000
0001
0100
,
0010
1000
1000
0000
0001
0000
1000
0100
,
0010
0001
0001
0000
1000
0000
0001
0100
,
0010
1000
1000
0000
0001
0000
1000
0100
,
0010
0001
0001
0001
0001
0010
0100
1000
,
0001
0000
0100
0000
0010
0000
0000
0000
1000
0000
0000
0000
0001
0100
0010
1000
,
0010
0100
0001
1000
0100
0010
0001
1000
0001
0100
0010
0100
0001
0010
0100
1000
,
0100
0010
0001
1000
0010
0100
0010
0100
0010
0100
0010
1000
0001
0010
0100
0010
,
0001
1000
0100
0010
0001
1000
0001
0100
0010
1000
0100
0010
0100
1000
0010
0100
,
0001
1000
0010
1000
0100
0010
0100
0010
0100
0010
0100
1000
0001
0100
0010
0100
,
0001
0010
0100
1000
0001
0100
0010
0100
0001
1000
0100
0010
0001
0100
0010
0100
,
0001
0010
0100
1000
0001
1000
0001
1000
0001
1000
0001
0100
0010
0100
0001
0010
,
0100
1000
0001
0100
0010
0100
0001
0010
0100
1000
0100
0010
0100
1000
0010
1000
,
0100
1000
0010
0100
0001
0100
0001
0100
0001
1000
0001
0100
0010
1000
0010
0100
,
0001
0010
0001
0100
0010
1000
0010
0100
0001
0010
0001
0100
0010
1000
0010
0100
,
0001
0010
0001
0100
0010
1000
0010
0100
0001
0010
0001
0100
0010
1000
0010
0100
,
0001
0010
0001
0100
0010
1000
0010
0100
0001
0010
0001
0100
0010
1000
0010
0100
,
0001
0010
0001
0100
0010
1000
0010
0100
0001
0010
0001
1000
0100
0010
0001
1000
,
0100
1000
0010
0100
0001
0100
0010
1000
0100
1000
0010
0100
0001
0100
0010
1000
,
0100
1000
0010
0100
0001
0100
0010
1000
0100
1000
0010
0100
0001
1000
0100
0010
,
0001
0000
0000
1000
0000
0000
0001
0000
0000
0100
0000
0000
0010
0000
1000
0000
0001
0000
0100
0000
0010
0000
0100
0000
0001
0000
1000
0000
0100
0000
1000
0000
0000
0000
0000
0000
0000
0000
0000
0000
0000
0000
0000
0000
0000
0000
0000
0000
,
0000
0000
0001
1000
0001
0000
0000
0000
1001
0000
0000
0000
0001
0100
0010
0100
,
0001
0000
1000
0100
1000
0000
0000
0000
0100
0010
0001
0100
0010
1000
0010
0100
,
0001
0000
0000
0000
1000
0100
0010
0001
0010
0100
1000
0001
0100
0010
0100
0001
,
1000
0100
0010
0001
0100
0010
0100
0001
1000
0100
0010
0001
0010
0100
1000
0010
,
0100
0001
0010
0100
1000
0010
0100
0001
0100
0010
1000
0001
0010
0100
1000
0100
,
0010
0000
0001
0010
0001
0000
0000
0000
1000
0001
0100
0010
0100
0001
1000
0100
,
0010
0000
0000
0000
0001
0100
0010
0100
0001
1000
0100
0010
0100
1000
0010
0100
,
0001
0010
0100
1000
0001
0000
0000
0000
1000
0100
0010
0001
0100
0010
1000
0100
,
0010
0001
0010
0100
1000
0001
0100
0010
0100
0001
1000
0100
0010
0001
1000
0001
,
0100
0010
1000
0001
0100
0000
0000
0000
0001
1000
0100
0010
0001
0100
0010
0100
,
0001
0000
0000
0000
1000
0100
0010
0001
1000
0001
0100
0010
0100
0001
1000
0100
,
0010
0001
0100
0010
0100
0001
0010
0100
1000
0010
1000
0100
0010
0001
0100
0010
,
1000
0100
0010
0001
0100
0010
1000
0001
0010
0100
1000
0001
0100
0001
1000
0010
,
0100
0001
1000
0010
1000
0000
0000
0000
0001
1000
0100
0010
0001
1000
0001
0100
,
0010
0000
0000
0000
1000
0100
0010
0001
1000
0100
0010
0100
1000
0001
0100
0010
,
1000
0100
0010
0001
0100
0010
0100
0001
0010
0100
1000
0100
0010
0001
0100
0010
,
1000
0100
0010
0100
0010
0001
1000
0001
1000
0001
1000
0001
0100
0000
0000
0000
,
0000
0000
0001
1000
0001
0000
0000
0000
0000
0000
0000
0000
1000
0000
0000
0000
,
0000
0000
0010
0000
0100
0001
1000
0000
,
0000
0100
0000
0010
,
0000
0000
0000
0001
1000
0000
0000
0000
0000
0000
0000
0000
0100
0000
0000
0000
,
0000
0000
1000
0001
0100
0000
0000
0000
0000
0000
0000
0000
0001
0000
0000
0000
,
0000
0000
0100
0000
0010
0100
0010
0000
,
0000
1000
0000
0100
,
0000
0000
0000
0010
0001
0000
0000
0000
0000
0000
0000
0000
0000
0000
0000
0000
,
0000
0000
0000
0001
0000
0000
1000
0000
0100
1000
0000
0000
,
0001
0000
0100
0010
0000
0000
1000
0000
0001
0010
0000
0000
,
0100
0000
1000
0001
0000
0100
0010
0000
0100
0010
0000
0000
,
1000
0000
0000
0000
0000
0000
0000
0000
0001
0000
0000
0000
0010
0000
0000
0000
0000
0000
0000
0000
0100
0000
0000
0000
1000
0000
0000
0000
0000
0000
0000
0000
0000
0000
0000
0000
0001
0000
0000
0100
0000
0000
0010
0000
0000
0100
0000
0000
,
0001
1000
0100
0010
0001
1000
0001
0100
0010
0100
0001
0010
0100
1000
0010
1000
,
0100
0010
0001
1000
0001
0100
0001
1000
0010
1000
0010
0100
0001
1000
0100
0010
,
0001
0100
0010
0100
0001
0010
0100
1000
0100
0010
0001
1000
0000
0000
0000
0000
,
0000
0000
0000
0001
0100
0000
0000
0000
0000
0000
0000
0000
0001
0100
0010
1000
,
0001
0010
0100
1000
0010
0000
0000
0000
0100
0001
0100
0001
1000
0100
1000
0100
,
0010
0001
0010
0001
1000
0100
1000
0100
1000
0100
1000
0100
0010
0001
0100
0010
,
1000
0010
0100
0001
1000
0100
0010
0001
0010
0100
1000
0010
0100
0001
0100
0001
,
1000
0100
1000
0100
0010
0001
1000
0010
0100
0000
0001
0000
1000
0100
0010
0001
,
1000
0000
0010
1000
0010
0000
0000
0000
0100
0001
1000
0100
0010
0001
0010
0100
,
1000
0010
0100
0001
0100
0010
1000
0001
0100
0000
0001
0000
1000
0100
0010
0001
,
0010
0100
1000
0010
0100
0001
0100
0010
1000
0100
0010
0001
1000
0001
0100
0010
,
0100
0001
1000
0100
0010
0001
0010
0100
1000
0000
0001
0000
0010
0100
1000
0010
,
0100
0000
0001
0100
0001
0000
0000
0000
1000
0100
0010
0001
0100
0010
0100
0010
,
1000
0000
0000
0000
0001
0100
0010
0100
0001
1000
0100
0010
0001
0010
0100
1000
,
0001
0100
0001
1000
0100
1000
0001
0010
0001
1000
0010
0100
0001
0010
0100
1000
,
0010
0100
0001
0010
0100
1000
0100
0010
0001
1000
0001
0100
0010
0100
0001
1000
,
0001
0000
1000
0100
1000
0000
0000
0000
0001
0100
0010
0100
0001
1000
0100
0010
,
0001
0000
0000
0000
1000
0100
0010
0001
0010
0100
1000
0001
0100
0001
1000
0010
,
1000
0001
0010
0100
1000
0100
0010
0001
0100
0010
0100
0001
0010
0100
1000
0010
,
0100
0001
0010
0100
1000
0100
0010
0001
1000
0001
0100
0010
0100
0001
1000
0100
,
0010
0000
0001
0100
0001
0000
0000
0000
0000
0000
0000
0000
0001
0000
0000
0000
,
0000
0000
0000
0000
1000
0000
0000
0000
0010
0000
1000
0000
0100
0000
0000
0010
,
0000
0000
0000
0000
0000
0000
0000
0010
0000
0000
0000
0000
0000
0000
0000
0000
0000
0000
0000
0100
0000
0000
0000
0000
0000
0000
0000
0000
0000
0100
0000
0000
0000
0000
0000
0000
0000
0000
0000
0000
0000
1000
0000
0000
0000
0000
0000
0000
,
0000
0000
0000
0000
0000
0000
0000
0000
0000
0000
0000
0000
0000
0000
0000
0000
0000
0000
0000
0000
0001
0000
0000
0000
0000
0000
0000
0000
0000
0000
0000
0000
0000
0000
0000
0000
0000
0000
0000
0000
0000
0000
0000
0000
0000
0000
0000
0000
0000
0000
0000
0000
0000
0000
0000
0000
0000
0000
0000
0000
0000
0000
0000
0000
1000
0000
0000
0000
0000
0000
0000
0000
0000
0000
0000
0000
0000
0000
0000
0000
0000
0000
0000
0000
0000
0000
0000
0000
0000
0000
0000
0000
0000
0000
0000
0000
0000
0000
0000
0000
0000
0000
0000
0000
0000
0000
0000
0000
0000
0000
0000
0000
0001
0000
0000
0000
0000
0000
0000
0000
0000
0000
0000
0000
0000
0000
0000
0000
0000
0000
0000
0000
0000
0000
0000
0000
0000
0000
0000
0000
0000
0000
0000
0000
0000
0000
0000
0000
0000
0000
0000
0000
0000
0000
0000
0000
0000
0000
0000
0000
0000
0000
0000
0000
0000
0000
0000
0000
0000
0000
0000
0000
0000
0000
0000
0000
0000
0000
0000
0000
0000
0000
0000
0000
0000
1000
0000
0000
0000
0000
0000
0000
,
0000
0000
0000
0000
0100
0000
0000
0000
0000
1000
0000
0000
0000
0000
0000
0100
0000
0000
0000
0000
0000
0000
0000
1000
0000
0000
0000
0001
0000
0000
0000
0000
0000
0000
0000
0000
0000
1001
0000
0000
0000
0000
0000
0000
0000
0000
0000
0000
,
0000
0000
0001
0000
1000
0010
0100
0000
,
0000
0000
0000
0000
0000
0000
0001
0100
0001
0000
0000
0000
0000
0000
0000
0000
0000
0000
0000
0000
0000
0000
0000
0000
1000
0000
0000
0000
0000
0000
0000
0000
,
0000
0000
0000
0001
1000
0000
0000
0000
0000
0000
0000
0000
0100
0000
0000
0000
,
0000
0000
1000
0010
0100
0000
0000
0000
0000
0000
0000
0000
0001
0000
0000
0000
,
0000
0000
0010
0000
0000
0010
0100
0000
,
0000
0000
0000
0000
0000
0000
0100
1000
0100
0000
0000
0000
0000
0000
0000
0000
0000
0000
0000
0000
0000
0000
0000
0000
1000
0000
0000
0000
0000
0000
0000
0000
,
0000
0000
0000
0001
0100
0000
0000
0000
0000
0000
0000
0000
0010
0000
0000
0000
,
0000
0000
1000
0100
1000
0000
0000
0000
0000
0000
0000
0000
0100
0000
0000
0000
,
0000
0000
0010
0000
0000
0001
1000
0000
,
0000
0000
0000
0000
0000
0000
0001
0100
0001
0000
0000
0000
0000
0000
0000
0000
0000
0000
0000
0000
0000
0000
0000
0000
1000
0000
0000
0000
0000
0000
0000
0000
,
0000
0000
0000
0100
0010
0000
0000
0000
0000
0000
0000
0000
0000
0000
0000
0000
,
0000
0002
0000
0000
,
0000
0000
0000
0000
,
0000
0000
0003
0000
0000
0000
2000
0000
0000
0000
0000
0000
0000
0000
0000
0010
0000
0000
0000
0000
0000
0000
0000
0000
,
0000
0010
0000
0100
0000
3000
0200
0000
,
0000
0010
0000
0000
0000
1000
0000
1000
,
0000
0000
0000
0010
0000
2300
0002
3000
,
0000
0000
0203
0000
0000
0310
1000
0000
,
0001
0000
0100
0000
0010
0000
1000
0100
,
0010
0001
0001
0000
1000
0000
0001
0100
,
0010
1000
1000
0000
0001
0000
1000
0100
,
0010
0001
0001
0000
1000
0000
0001
0100
,
0010
1000
1000
0000
0001
0000
1000
0100
,
0010
0001
0001
0000
1000
0000
0001
0100
,
0010
1000
1000
0000
0001
0000
1000
0100
,
0010
0001
0001
0001
0001
0100
0010
1000
,
1000
0100
0010
0000
0001
0000
1000
0100
,
0010
0001
0001
0000
1000
0000
0001
0100
,
0010
1000
1000
0000
0001
0000
1000
0100
,
0010
0001
0001
0000
1000
0000
0001
0100
,
0010
1000
1000
0000
0001
0000
1000
0100
,
0010
0001
0001
0000
1000
0000
0001
0100
,
0010
1000
1000
0000
0001
0000
1000
0100
,
0010
0000
0001
0000
0001
0000
0001
0000
0001
0000
1000
0000
0001
0100
0010
0100
,
0001
1000
0100
1000
0010
0000
0000
0000
0000
0000
0000
0000
0100
0001
0100
0001
,
0100
0010
1000
0010
0100
0001
1000
0100
0010
0001
0010
0100
1000
0001
0100
0010
,
0100
0001
0010
0100
1000
0010
0100
0001
1000
0010
0100
0001
0010
0001
0010
0001
,
0010
0100
1000
0001
0100
0010
0100
0001
1000
0100
0010
0001
0100
0010
0100
0010
,
0100
0010
0100
0001
1000
0001
1000
0100
0010
0001
1000
0100
0010
0001
0010
0001
,
1000
0001
1000
0100
0010
0001
1000
0010
0100
0001
0010
0001
0100
0001
0100
0001
,
1000
0010
0100
0001
0100
0010
0100
0001
1000
0001
1000
0100
0010
0100
0010
0100
,
1000
0001
0100
0001
0100
0010
1000
0010
0100
0001
1000
0100
0010
0100
1000
0010
,
0100
0001
0010
0100
1000
0010
0100
0001
1000
0001
1000
0001
0010
0100
0010
0100
,
1000
0001
0100
0010
0100
0001
0010
0100
0010
0001
1000
0001
0100
0010
0100
0010
,
1000
0001
0010
0100
0010
0001
1000
0001
0100
0010
1000
0001
0100
0010
0100
0010
,
1000
0001
0010
0100
0010
0001
1000
0001
0100
0010
1000
0001
0010
0100
0010
0100
,
0010
0100
0010
0100
1000
0001
0100
0010
0100
0001
1000
0001
0100
0010
0100
0010
,
1000
0001
0100
0001
1000
0010
1000
0100
1000
0001
0010
0001
0100
0010
0100
0010
,
1000
0001
0100
0010
0100
0001
0010
0100
1000
0001
1000
0001
0010
0100
0010
0100
,
1000
0001
0010
0100
1000
0100
0010
0001
0010
0001
1000
0001
0100
0010
0100
0010
,
0100
0010
0100
0010
1000
0001
1000
0001
0010
0100
1000
0100
0010
0000
0000
0000
,
0001
0000
1000
0010
0100
0000
0000
0000
0001
0000
0000
0000
4000
0000
0000
3000
,
0100
0000
0000
0000
0020
0000
0000
0030
0001
0000
1000
0000
0040
0000
0000
0030
,
0100
0000
0000
0000
0000
0000
0001
1000
0001
0000
0000
0000
0000
0000
0000
0000
1000
0000
0000
0000
0000
0000
0000
0000
0200
0000
0000
0000
0000
0000
0000
0000
,
0010
0000
0300
0010
0200
0000
0000
0000
1000
0000
0300
0000
0002
0000
0000
0000
,
0103
0000
0000
0010
2000
0000
0000
0000
3004
0000
0000
0003
0020
0000
0000
0000
,
0130
0000
0000
0000
0000
0000
0000
0000
0000
0000
0000
0000
0000
0000
0000
0000
0000
0000
0000
0000
0000
0000
0000
0000
0000
0000
0000
0000
0000
0000
0000
0000
0000
0000
0000
0000
1000
0000
0000
0000
0000
0000
0100
0000
0000
0000
0000
0000
2000
0000
0000
0000
0000
0000
0000
0000
0000
0000
0000
0000
0000
0000
0000
0000
0000
0000
0000
0000
0000
0000
0000
0000
0000
0000
0000
0000
0000
0000
0000
0000
0000
0000
0000
0000
0000
0000
0000
0000
3000
0000
0000
0000
0000
0000
0000
0000
0002
0000
0000
0000
0000
0000
0000
0000
0000
0000
0000
0000
0000
0000
0000
0000
0000
0000
0000
0000
0000
0000
0000
0000
0000
0000
0000
0000
0000
0000
0000
0000
0000
0000
0000
0000
0003
0000
0000
0000
0000
0000
0000
0000
0000
0000
0000
0000
0200
0000
0000
0000
0000
0000
0000
0000
0000
0000
0000
0000
0000
0000
0000
0000
0000
0000
0000
0000
0000
0000
0000
0000
0000
0000
0000
0000
0000
0000
0000
0000
0000
0000
0000
0000
0000
0000
0000
0000
0000
0000
0000
0000
0000
0000
0000
0000
,
0000
0000
0300
0000
0000
0000
0001
0100
0001
0000
0000
0000
0000
0000
0000
0000
2000
0000
0000
0000
0000
0000
3000
0000
0100
0000
0000
0000
0010
0000
0000
0000
,
0001
0010
0100
1000
0001
0100
0020
0000
,
1030
0000
0001
0100
0010
0000
0000
0000
2000
0000
0000
3000
0004
0000
0000
0003
,
0020
0000
0000
0030
0200
0000
0000
0000
1300
0000
0001
0000
0200
0000
0000
0300
,
0010
0000
0000
0000
0000
0000
1000
0001
1000
0000
0000
0000
0000
0000
0000
0000
0000
0000
0000
0000
0000
0000
0000
0000
0002
0000
0000
0000
0000
0000
0000
0000
,
0000
0000
0000
0000
0000
0000
0000
0000
0003
1000
0000
0000
0002
0000
0000
0000
0000
0000
0000
0000
0000
0000
0000
0000
0000
0000
0000
0000
0000
0000
0000
0000
0000
0000
0003
0000
1000
0000
0000
0000
0000
0000
0100
0000
0000
0000
0000
0000
,
1000
0100
0010
0001
0010
0001
1000
0010
,
1000
0010
0100
0001
0100
0001
1000
0000
,
1000
1000
0100
0010
,
0010
0000
0002
0003
0000
0000
0000
0000
,
0000
0000
0000
0000
,
0000
0000
0000
0000
,
0000
0000
0000
0000
,
0000
0000
0000
0000
,
0000
0000
0000
0000
,
0000
0000
0000
0000
,
0000
0000
0000
0000
,
0000
0000
0000
0000
,
0000
0000
0000
0000
,
0000
0000
0000
M000
;

//---------------dance-single - Rynker----------------
#NOTES:
     dance-single:
     Rynker:
     Medium:
     9:
     0.481,0.599,0.007,0.528,0.152,767.000,2.000,144.000,1.000,0.000:


0000
0000
0000
0000
,
0000
0000
0000
0000
,
0000
0000
0000
0000
,
0000
0000
0000
0000
,
0000
0000
0000
0000
,
0000
0000
0000
0000
,
0000
0000
0000
0000
,
0000
0000
0000
0000
,
0000
0000
0000
0000
,
0000
0000
0001
1000
0001
0000
0000
0000
0000
0000
0000
0000
1000
0000
0000
0000
,
0000
0000
0100
1000
0100
0000
0000
0000
0000
0000
0000
0000
1000
0000
0000
0000
,
0000
0000
0010
0000
0000
0100
0001
0000
,
0000
0000
0000
0000
0000
0000
1000
0001
1000
0000
0000
0000
0000
0000
0000
0000
0000
0000
0000
0000
0000
0000
0000
0000
0001
0000
0000
0000
0000
0000
0000
0000
,
0000
0000
0000
1000
0010
0000
0000
0000
0000
0000
0000
0000
1000
0000
0000
0000
,
0000
0000
0001
0010
0001
0000
0000
0000
0000
0000
0000
0000
1000
0000
0000
0000
,
0000
0000
0001
0000
0000
0010
0100
0000
,
0000
0000
0000
0000
0000
0000
1000
0100
1000
0000
0000
0000
0000
0000
0000
0000
0000
0000
0000
0000
0000
0000
0000
0000
0001
0000
0000
0000
0000
0000
0000
0000
,
0000
0000
0000
0100
0010
0000
0000
0000
0000
0000
0000
0000
1000
0000
0100
0000
,
0010
0001
0001
0000
1000
0000
0001
0100
,
0010
1000
1000
0000
0001
0000
1000
0100
,
0010
0001
0001
0000
1000
0000
0001
0100
,
0010
1000
1000
0000
0001
0000
1000
0100
,
0010
0001
0001
0000
1000
0000
0001
0100
,
0010
1000
1000
0000
0001
0000
1000
0100
,
0010
0001
0001
0001
0001
0010
0100
1000
,
0001
0100
0010
0000
1000
0000
0001
0000
,
0100
0010
1000
0100
,
0010
0000
0001
1000
0001
1000
0001
0000
,
0100
0010
1000
0100
,
0010
0000
0001
1000
0001
1000
0001
0000
,
0100
0010
0100
0001
,
0010
0000
0100
1000
0100
1000
0100
0000
,
1000
0000
0010
0000
0100
0000
0001
0010
,
0100
0000
1000
0010
0100
0010
1000
0001
,
0010
0001
1000
0100
0010
0001
1000
0001
,
0100
0010
0100
0001
1000
0100
0010
0100
,
1000
0001
0100
0010
1000
0001
0010
0100
,
1000
0010
0100
0001
1000
0001
0100
0010
,
1000
0100
0010
0100
1000
0010
0100
0001
,
1000
0001
0100
0010
1000
0001
0010
0100
,
1000
0100
0010
0100
1000
0001
0000
0000
,
0000
0000
1000
0001
1000
0000
0000
0000
1001
0000
0000
0000
0002
0000
0000
0000
,
0103
0000
0010
0100
0002
0000
0000
0000
1003
0000
0100
0000
2000
0000
0000
0000
,
3002
0023
0230
2300
,
3002
0000
0000
0000
0200
0003
0000
0000
0310
0000
0100
0000
0002
0000
0000
0000
,
0000
0000
2003
0000
3100
1000
0002
0000
,
0013
0000
0100
1000
0002
0000
0000
0003
0100
0000
0010
0000
2000
0000
0000
0000
,
3001
0200
0302
2003
,
3200
0000
0320
0000
0130
1000
0020
0000
,
0000
0000
2030
0000
3001
1000
0200
0000
,
0310
0000
0100
1000
0001
0000
0000
0000
1000
0000
0001
0000
0200
0000
0000
0000
,
0320
0230
0302
2003
,
3200
0000
0320
0000
0130
1000
0002
0000
,
0000
0000
0103
0000
0001
0100
0020
0000
,
1030
0000
0001
1000
0100
0000
0000
0000
1000
0000
0001
0000
0020
0000
0000
0000
,
0230
2300
3002
0203
,
0320
0000
0230
0000
0301
1000
0200
0000
,
0000
0000
0000
0000
1000
0000
0000
0000
0000
0000
0000
0300
1000
0000
0000
0000
,
0000
0000
0001
0100
0001
0000
0000
0000
0000
0000
0000
0000
1000
0000
0000
0000
,
0000
0000
0010
0000
0100
0001
1000
0000
,
0000
0100
0000
0010
,
0000
0000
0000
0001
1000
0000
0000
0000
0000
0000
0000
0000
0100
0000
0000
0000
,
0000
0000
1000
0001
0100
0000
0000
0000
0000
0000
0000
0000
0001
0000
0000
0000
,
0000
0000
0100
0000
0010
0100
0010
0000
,
0000
1000
0000
0100
,
0000
0000
0000
0010
0001
0000
0000
0000
0000
0000
0000
0000
0000
0000
0000
0000
,
0000
0000
0000
0001
0000
0000
1000
0000
0100
1000
0000
0000
,
0001
0000
0100
0010
0000
0000
1000
0000
0001
0010
0000
0000
,
0100
0000
1000
0001
0000
0100
0010
0000
0100
0010
0000
0000
,
1000
0000
0001
0010
0000
0100
1000
0000
0000
0001
0000
0000
,
0100
0010
1000
0100
,
0010
0000
0001
0000
1000
0000
0001
0100
,
0010
0000
1000
0000
0001
0010
0100
1000
0001
1000
0001
1000
0001
0000
0000
0000
,
0000
0000
0000
1000
0010
0000
0000
0000
0000
0000
0000
0000
2000
0000
0000
0000
,
3100
0000
0010
0001
1000
0000
0000
0000
0002
0000
0000
0000
0203
0000
0000
0000
,
0320
0000
0230
0000
0301
1000
0002
0000
,
0023
0230
2300
3002
,
0203
0000
0320
0000
1030
1000
0002
0000
,
0013
0000
0100
1000
0001
0000
0000
0000
0200
0000
0000
0000
0320
0000
0000
0000
,
2030
0000
3002
0000
0000
1003
0200
0000
,
0320
0230
2300
3020
,
0230
0000
0302
0000
1003
1000
0020
0000
,
0130
0000
0001
1000
0100
0000
0000
0000
1000
0000
0100
0000
0020
0000
0000
0000
,
0032
0000
2003
0000
3010
0100
0002
0000
,
2003
0000
3200
0000
0310
0001
2000
0000
,
0000
0000
3020
0000
0130
0001
2000
0000
,
3100
0000
0010
0001
1000
0000
0000
0000
0001
0000
0100
0000
0020
0000
0000
0000
,
2030
3200
0320
0032
,
2003
0000
3020
0000
0130
0001
2000
0000
,
0000
0000
3200
0000
0310
0001
2000
0000
,
3000
0000
0001
0100
0001
0000
0000
0000
0000
0000
0000
0000
0001
0000
0000
0000
,
0000
0000
0000
0000
1000
0000
0000
0000
0001
0000
1000
0000
0100
0000
0000
0010
,
0000
0000
0000
0000
0000
0000
0000
0010
0000
0000
0000
0000
0000
0000
0000
0000
0000
0000
0000
0100
0000
0000
0000
0000
0000
0000
0000
0000
0000
0100
0000
0000
0000
0000
0000
0000
0000
0000
0000
0000
0000
1000
0000
0000
0000
0000
0000
0000
,
0000
0000
0000
0000
0000
0000
0000
0000
0000
0000
0000
0000
0000
0000
0000
0000
0000
0000
0000
0000
0001
0000
0000
0000
0000
0000
0000
0000
0000
0000
0000
0000
0000
0000
0000
0000
0000
0000
0000
0000
0000
0000
0000
0000
0000
0000
0000
0000
0000
0000
0000
0000
0000
0000
0000
0000
0000
0000
0000
0000
0000
0000
0000
0000
1000
0000
0000
0000
0000
0000
0000
0000
0000
0000
0000
0000
0000
0000
0000
0000
0000
0000
0000
0000
0000
0000
0000
0000
0000
0000
0000
0000
0000
0000
0000
0000
0000
0000
0000
0000
0000
0000
0000
0000
0000
0000
0000
0000
0000
0000
0000
0000
0001
0000
0000
0000
0000
0000
0000
0000
0000
0000
0000
0000
0000
0000
0000
0000
0000
0000
0000
0000
0000
0000
0000
0000
0000
0000
0000
0000
0000
0000
0000
0000
0000
0000
0000
0000
0000
0000
0000
0000
0000
0000
0000
0000
0000
0000
0000
0000
0000
0000
0000
0000
0000
0000
0000
0000
0000
0000
0000
0000
0000
0000
0000
0000
0000
0000
0000
0000
0000
0000
0000
0000
0000
1000
0000
0000
0000
0000
0000
0000
,
0000
0000
0000
0000
0100
0000
0000
0000
0000
1000
0000
0000
0000
0000
0000
0100
0000
0000
0000
0000
0000
0000
0000
1000
0000
0000
0000
0001
0000
0000
0000
0000
0000
0000
0000
0000
0000
1001
0000
0000
0000
0000
0000
0000
0000
0000
0000
0000
,
0000
0000
1000
0000
0001
0100
0010
0000
,
0000
0000
0000
0000
0000
0000
1000
0001
1000
0000
0000
0000
0000
0000
0000
0000
0000
0000
0000
0000
0000
0000
0000
0000
0001
0000
0000
0000
0000
0000
0000
0000
,
0000
0000
0000
1000
0001
0000
0000
0000
0000
0000
0000
0000
0010
0000
0000
0000
,
0000
0000
0001
0100
0010
0000
0000
0000
0000
0000
0000
0000
1000
0000
0000
0000
,
0000
0000
0100
0000
0000
1000
0001
0000
,
0000
0000
0000
0000
0000
0000
0100
0001
0100
0000
0000
0000
0000
0000
0000
0000
0000
0000
0000
0000
0000
0000
0000
0000
0001
0000
0000
0000
0000
0000
0000
0000
,
0000
0000
0000
1000
0010
0000
0000
0000
0000
0000
0000
0000
0100
0000
0000
0000
,
0000
0000
0001
0010
0001
0000
0000
0000
0000
0000
0000
0000
0010
0000
0000
0000
,
0000
0000
0100
0000
0000
1000
0001
0000
,
0000
0000
0000
0000
0000
0000
1000
0010
1000
0000
0000
0000
0000
0000
0000
0000
0000
0000
0000
0000
0000
0000
0000
0000
0001
0000
0000
0000
0000
0000
0000
0000
,
0000
0000
0000
0010
0100
0000
0000
0000
0000
0000
0000
0000
0000
0000
0000
0000
,
0000
2000
0000
0000
,
0000
0000
0000
0000
,
0000
0000
3000
0000
0000
0000
0002
0000
0000
0000
0000
0000
0000
0000
0000
0100
0000
0000
0000
0000
0000
0000
0000
0000
,
0000
0100
0000
0010
0000
0003
0020
0000
,
0000
0100
0000
0000
0000
0001
0000
0001
,
0000
0000
0000
0100
0000
0032
2000
0003
,
0000
0000
3020
0000
0000
0130
0001
0000
,
1000
0000
0010
0000
0100
0000
0001
0010
,
0100
1000
1000
0000
0001
0000
1000
0010
,
0100
0001
0001
0000
1000
0000
0001
0010
,
0100
1000
1000
0000
0001
0000
1000
0010
,
0100
0001
0001
0000
1000
0000
0001
0010
,
0100
1000
1000
0000
0001
0000
1000
0010
,
0100
0001
0001
0000
1000
0000
0001
0010
,
0100
1000
1000
1000
1000
0010
0100
0001
,
0001
0010
0100
0000
1000
0000
0001
0010
,
0100
1000
1000
0000
0001
0000
1000
0010
,
0100
0001
0001
0000
1000
0000
0001
0010
,
0100
1000
1000
0000
0001
0000
1000
0010
,
0100
0001
0001
0000
1000
0000
0001
0010
,
0100
1000
1000
0000
0001
0000
1000
0010
,
0100
0001
0001
0000
1000
0000
0001
0010
,
0100
0000
1000
0000
1000
0000
1000
0000
1000
0000
0001
0000
1000
0010
0100
0010
,
1000
0001
0010
0001
0100
0000
0000
0000
0000
0000
0000
0000
0002
0000
0000
0000
,
2003
0000
0000
0001
3001
0100
0020
0000
,
1030
0100
2000
0001
3001
0000
0200
0000
,
0320
1000
0000
1000
1030
0001
0200
0000
,
0001
0001
0300
0001
2000
3100
0020
0000
,
0032
0000
0000
1000
1003
0010
0200
0000
,
0301
1000
0200
1000
1300
0010
0200
0000
,
0302
0000
2003
0000
3100
0010
0002
0000
,
1000
1000
2003
0000
3010
0100
0002
0000
,
2003
0000
0000
0001
3001
0100
0020
0000
,
2030
0100
3020
0100
2030
0001
3200
0000
,
0302
0000
0023
0000
0130
1000
0020
0000
,
1000
1030
0002
0000
0013
0100
2000
0000
,
3002
0000
0000
1000
1003
0010
0200
0000
,
0302
0010
0103
1000
0002
0000
0203
0000
,
0320
0000
2030
0000
3001
0100
0020
0000
,
1000
1000
0000
1030
0000
0000
0001
0000
,
1000
0000
0001
0100
0010
0000
0000
0000
1000
0000
0000
0000
0004
0000
0000
0003
,
0010
0000
0000
0000
0200
0000
0000
0300
1000
0000
0001
0000
0400
0000
0000
0300
,
0010
0000
0000
0000
0000
0000
1000
0001
1000
0000
0000
0000
0000
0000
0000
0000
0001
0000
0000
0000
0000
0000
0000
0000
0020
0000
0000
0000
0000
0000
0000
0000
,
0100
0000
0030
0100
0020
0000
0000
0000
0001
0000
0030
0000
2000
0000
0000
0000
,
3010
0000
0000
0100
0002
0000
0000
0000
4003
0000
0000
3000
0200
0000
0000
0000
,
0310
0000
0000
0000
0000
0000
0000
0000
0000
0000
0000
0000
0000
0000
0000
0000
0000
0000
0000
0000
0000
0000
0000
0000
0000
0000
0000
0000
0000
0000
0000
0000
0000
0000
0000
0000
0001
0000
0000
0000
0000
0000
0010
0000
0000
0000
0000
0000
0002
0000
0000
0000
0000
0000
0000
0000
0000
0000
0000
0000
0000
0000
0000
0000
0000
0000
0000
0000
0000
0000
0000
0000
0000
0000
0000
0000
0000
0000
0000
0000
0000
0000
0000
0000
0000
0000
0000
0000
0003
0000
0000
0000
0000
0000
0000
0000
2000
0000
0000
0000
0000
0000
0000
0000
0000
0000
0000
0000
0000
0000
0000
0000
0000
0000
0000
0000
0000
0000
0000
0000
0000
0000
0000
0000
0000
0000
0000
0000
0000
0000
0000
0000
3000
0000
0000
0000
0000
0000
0000
0000
0000
0000
0000
0000
0020
0000
0000
0000
0000
0000
0000
0000
0000
0000
0000
0000
0000
0000
0000
0000
0000
0000
0000
0000
0000
0000
0000
0000
0000
0000
0000
0000
0000
0000
0000
0000
0000
0000
0000
0000
0000
0000
0000
0000
0000
0000
0000
0000
0000
0000
0000
0000
,
0000
0000
0030
0000
0000
0000
1000
0010
1000
0000
0000
0000
0000
0000
0000
0000
0002
0000
0000
0000
0000
0000
0003
0000
0010
0000
0000
0000
0100
0000
0000
0000
,
1000
0100
0010
0001
1000
0010
0200
0000
,
0301
0000
1000
0010
0100
0000
0000
0000
0002
0000
0000
0003
4000
0000
0000
3000
,
0200
0000
0000
0300
0020
0000
0000
0000
0031
0000
1000
0000
0020
0000
0000
0030
,
0100
0000
0000
0000
0000
0000
0001
1000
0001
0000
0000
0000
0000
0000
0000
0000
0000
0000
0000
0000
0000
0000
0000
0000
2000
0000
0000
0000
0000
0000
0000
0000
,
0000
0000
0000
0000
0000
0000
0000
0000
3000
0001
0000
0000
2000
0000
0000
0000
0000
0000
0000
0000
0000
0000
0000
0000
0000
0000
0000
0000
0000
0000
0000
0000
0000
0000
3000
0000
0001
0000
0000
0000
0000
0000
0010
0000
0000
0000
0000
0000
,
0001
0010
0100
1000
0100
1000
0001
0100
,
0001
0100
0010
1000
0010
1000
0001
0000
,
0001
0001
0010
0100
,
0100
2000
3000
0000
,
0000
0000
0000
0000
,
0000
0000
0000
0000
,
0000
0000
0000
0000
,
0000
0000
0000
0000
,
0000
0000
0000
0000
,
0000
0000
0000
0000
,
0000
0000
0000
0000
,
0000
0000
0000
0000
,
0000
0000
0000
0000
,
0000
0000
0000
M000
;
