#TITLE:Angel Eyes;
#SUBTITLE:;
#ARTIST:Brisk & Ham;
#TITLETRANSLIT:;
#SUBTITLETRANSLIT:;
#ARTISTTRANSLIT:;
#CREDIT:;
#BANNER:angeleyes-bn.png;
#BACKGROUND:angeleyes-bg.png;
#LYRICSPATH:;
#CDTITLE:!hayden-cdtitle.png;
#MUSIC:Angel Eyes.mp3;
#OFFSET:-9.580;
#SAMPLESTART:108.200;
#SAMPLELENGTH:25.000;
#SELECTABLE:YES;
#BPMS:0.000=176.360,132.000=88.180,164.000=44.090,168.000=88.180,172.000=176.360;
#STOPS:;
#BGCHANGES:;
// cache tags:
#FIRSTBEAT:3.500;
#LASTBEAT:308.000;
#SONGFILENAME:Songs/new encore/Angel Eyes/Angel Eyes.sm;
#HASMUSIC:1;
#HASBANNER:1;
#MUSICLENGTH:134.797;
// end cache tags

//---------------dance-single - ----------------
#NOTES:
     dance-single:
     :
     Challenge:
     11:
     1.000,0.971,1.000,0.067,0.271,623.000,346.000,9.000,0.000,8.000:
0000
0000
0000
0000
0000
0000
0000
0101
,
1001
0101
1001
0101
1000
0011
0110
1100
,
0001
1100
0110
0011
1000
0101
0110
1010
,
0001
1010
0110
0101
1000
0011
0110
1100
,
0001
1100
0110
0011
1000
0101
0110
1010
,
0110
1010
0110
1010
0001
1010
1001
0101
,
1000
0101
1001
1010
0001
1100
1001
0011
,
1000
0011
1001
1100
0001
1010
1001
0101
,
1000
0101
1001
1010
0001
1100
1001
0011
,
0110
0011
0110
0011
1000
0011
0110
1100
,
0001
1100
0110
0011
1000
0101
0110
1010
,
0001
1010
0110
0101
1000
0011
0110
1100
,
0001
1100
0110
0011
1000
0101
0110
1010
,
0110
1010
0110
1010
0001
1010
1001
0101
,
1000
0101
1001
1010
0001
1100
1001
0011
,
1000
0011
1001
1100
0001
1010
1001
0101
,
1000
0010
0100
0001
1000
0010
0100
0001
1000
0010
0100
0001
1000
0010
0100
0001
,
1010
1010
0001
1010
1010
0001
0110
0001
,
1100
1100
0001
1100
1100
0010
1100
0001
,
0110
0110
0001
0110
0110
1000
0011
0100
,
1010
1010
0001
1010
1010
0001
0110
0001
,
1100
1100
0001
1100
1100
0010
1100
0001
,
0110
0110
0001
0110
0110
1000
0011
0100
,
1010
1010
0001
1010
1010
0001
0110
0001
,
1100
1100
0001
1100
1100
0001
1100
0010
,
0101
0101
1000
0101
0101
1000
0110
1000
,
0011
0011
1000
0011
0011
0100
0011
1000
,
0110
0110
1000
0110
0110
0001
1100
0010
,
0101
0101
1000
0101
0101
1000
0110
1000
,
0011
0011
1000
0011
0011
0100
0011
1000
,
0110
0110
1000
0110
0110
0001
1100
0010
,
0101
0101
1000
0101
0101
1000
0110
1000
,
0011
0011
1000
0011
0011
1000
0011
0100
,
1001
1000
1000
0100
0010
0010
0010
0001
,
0000
0001
0001
0001
0010
0100
1000
1000
,
0000
1000
1000
0100
0010
0010
0001
0001
,
0000
0000
0001
0000
0001
0000
0100
0000
0010
0000
0000
0100
1000
0100
1000
0100
,
1001
0010
0100
1000
0010
0100
0001
1000
0001
0001
0100
0001
0001
1000
0100
1000
,
0010
0010
1000
0010
0010
1000
0001
1000
0100
0100
0010
0100
0100
0001
0010
0001
,
1000
1000
0010
1000
1000
0100
0010
0100
0001
0001
0100
0001
0001
1000
0100
1000
,
0101
0000
0000
1010
0000
0000
1100
0000
0000
0000
0001
0000
0100
0000
0010
0000
1000
0000
1000
0000
0010
0000
1000
0000
0000
0000
0001
0000
0010
0000
0001
0000
,
0200
0000
0000
0000
,
0000
0000
0000
0000
,
1300
0001
1000
0001
1000
0001
1000
0001
,
1000
0000
0001
0000
1000
0000
0001
0000
1000
0001
1000
0001
1000
0000
0000
0000
,
1100
0000
0000
0110
0000
0000
0011
0000
1100
0000
0010
0100
0010
0000
1000
0000
,
0011
0000
0000
0110
0000
0000
1100
0000
0011
0000
0002
0000
1013
0000
0100
0000
,
1010
0000
0000
0110
0000
0000
0101
0000
1010
0000
0002
0000
1103
0000
0010
0000
,
0101
0000
0000
0110
0000
0000
1010
0000
0101
0000
1000
0000
0110
0000
0001
0000
,
1100
0000
0000
0110
0000
0000
0011
0000
1100
0000
0010
0100
0010
0000
1000
0000
,
0011
0000
0000
0110
0000
0000
1100
0000
0011
0000
0002
0000
1013
0000
0100
0000
,
1010
0000
0000
0110
0000
0000
0101
0000
1010
0000
0002
0000
1103
0000
0010
0000
,
0101
0000
0000
0110
0000
0000
1010
0000
0101
0000
1000
0000
0110
0000
0001
0000
,
1100
0000
0000
0110
0000
0000
0011
0000
1100
0000
0010
0100
0010
0000
1000
0000
,
0011
0000
0000
0110
0000
0000
1100
0000
0011
0000
0002
0000
1013
0000
0100
0000
,
1010
0000
0000
0110
0000
0000
0101
0000
1010
0000
0002
0000
1103
0000
0010
0000
,
0101
0000
0000
0110
0000
0000
1010
0000
0101
0000
1000
0000
0110
0000
0001
0000
,
1100
0000
0000
0110
0000
0000
0011
0000
1100
0000
0010
0100
0010
0000
1000
0000
,
0011
0000
0000
0110
0000
0000
1100
0000
0011
0000
0002
0000
1013
0000
0100
0000
,
1010
0000
0000
0110
0000
0000
0101
0000
1010
0000
0002
0000
1103
0000
0010
0000
,
0101
0000
0000
0110
0000
0000
1010
0000
0101
0000
1010
0000
0101
0000
1010
0000
,
0101
1000
0110
0001
1100
0110
0011
0100
,
1010
1010
0001
1100
0011
1100
0011
1100
,
0011
1000
0101
0010
1100
0110
0011
1000
,
0101
0101
1000
0110
1001
0110
1001
0110
,
1001
0010
0101
0010
1100
0110
0011
1000
,
0110
0110
1000
0110
0110
0001
1100
0001
,
1010
0000
0000
0110
0000
0000
0101
0000
1000
0000
0011
0000
1100
0000
0011
0000
,
1100
0011
1100
0101
1010
0101
1010
0101
,
1010
0001
0110
1000
0011
0110
1100
0010
,
0101
0101
1000
0011
1100
0011
1100
0011
,
1100
0001
1010
0100
0011
0110
1100
0001
,
1010
1010
0001
0110
1001
0110
1001
0110
,
1001
0100
1010
0100
0011
0110
1100
0001
,
0110
0110
0001
0110
0110
1000
0011
0100
,
1010
0000
0000
0110
0000
0000
0101
0000
1000
0000
0011
0000
1100
0000
0011
0000
,
1000
0010
0100
0001
1000
0010
0100
0001
1000
0010
0100
0001
1000
0000
0000
0000
,
0001
0000
0000
0000
;
