#TITLE:We Are Not Anonymous;
#SUBTITLE:The March (2008);
#ARTIST:Unearth;
#TITLETRANSLIT:;
#SUBTITLETRANSLIT:;
#ARTISTTRANSLIT:;
#CREDIT:foilman8805;
#BANNER:wearenotanonymous-banner.png;
#BACKGROUND:wearenotanonymous-bg.png;
#LYRICSPATH:;
#CDTITLE:cdtitle.png;
#MUSIC:We Are Not Anonymous.mp3;
#OFFSET:-0.316;
#SAMPLESTART:10.000;
#SAMPLELENGTH:9.880;
#SELECTABLE:YES;
#BPMS:0.000=164.124,1.000=165.210,2.000=165.199,6.000=165.193,6.833=173.349,8.000=173.338,10.000=169.605,12.000=169.594,13.000=169.605,14.000=169.594,15.000=168.021,22.000=168.011,23.000=168.021,30.000=168.011,31.000=168.021,38.000=168.011,39.000=168.021,46.000=168.011,47.000=168.021,54.000=168.011,55.000=168.021,62.000=168.011,63.000=168.021,70.000=168.011,71.000=168.021,77.500=168.085,79.000=168.075,80.000=168.085,81.000=168.075,82.000=168.085,83.000=168.075,84.000=168.085,85.000=168.075,86.000=168.085,87.000=168.075,88.000=168.085,89.000=168.075,90.000=168.085,91.000=168.075,92.000=168.085,93.000=168.075,94.000=168.085,95.000=168.075,96.000=168.085,97.000=168.075,98.000=168.085,99.000=168.075,100.000=168.085,101.000=168.075,102.000=168.085,103.000=168.075,104.000=168.085,105.000=168.075,106.000=168.085,107.000=168.075,108.000=168.085,109.000=168.075,110.000=168.085,111.000=168.075,112.000=168.021,119.000=168.011,120.000=168.021,127.000=168.011,128.000=168.021,134.000=168.011,135.000=168.021,142.000=168.011,143.000=168.021,150.000=168.011,151.000=168.021,156.000=166.499,157.000=166.509,158.000=166.499,166.000=166.509,167.000=168.021,173.000=168.011,174.000=168.021,181.000=168.011,182.000=168.021,188.000=166.499,189.000=166.509,190.000=166.499,191.500=201.247,192.000=168.438,195.000=168.449,196.000=168.438,203.000=168.449,204.000=168.438,208.000=166.961,209.000=174.723,210.000=166.961,212.000=163.657,213.000=166.961,215.500=182.886,216.000=168.021,220.000=169.019,222.000=169.030,223.000=169.019,227.000=153.347,228.000=169.019,233.000=163.667,234.000=169.019,236.000=168.021,242.000=168.011,243.000=168.021,248.000=183.724,249.000=168.043,251.000=168.032,252.000=168.043,253.000=152.542,254.000=168.043,255.000=168.032,256.000=168.043,259.000=168.032,260.000=168.043,263.000=168.032,264.000=168.021,269.000=168.011,270.000=168.021,276.000=168.085,277.000=168.075,278.000=168.085,279.000=168.075,280.000=168.085,281.000=168.075,282.000=168.085,283.000=168.075,284.000=168.085,285.000=168.075,286.000=168.085,287.000=168.075,288.000=168.085,289.000=168.075,290.000=168.085,291.000=168.075,292.000=168.021,297.000=168.011,298.000=168.021,305.000=168.011,306.000=168.021,313.000=168.011,314.000=168.021,321.000=168.011,322.000=168.021,323.000=164.675,324.000=172.941,325.000=168.021,326.000=153.258,327.000=190.716,327.500=168.128,328.000=168.117,330.000=168.128,331.000=168.117,334.000=168.128,335.000=168.117,338.000=168.128,339.000=168.117,343.000=168.128,344.000=168.117,347.000=168.128,348.000=168.117,351.000=168.128,352.000=168.117,355.000=168.128,356.000=168.117,359.000=168.128,360.000=168.117,363.000=168.128,364.000=168.117,367.000=168.128,367.833=162.311,368.000=162.321,369.000=171.052,370.000=162.321,372.000=168.321,375.000=180.049,376.000=168.321,385.000=168.310,386.000=168.321,388.000=168.021,393.000=168.011,394.000=168.021,395.000=165.334,396.000=168.021,401.000=168.011,402.000=168.021,409.000=168.011,410.000=168.021,417.000=168.011,418.000=168.021,425.000=168.011,426.000=168.021,433.000=168.011,434.000=168.021,439.750=160.286,440.000=168.075,441.000=160.267,441.500=165.458,442.000=173.816,443.000=165.458,444.250=173.001,445.000=168.299,454.000=168.310,455.000=168.299,466.000=162.991,467.000=168.310,468.000=168.299,472.000=168.021,477.000=168.011,478.000=168.021,485.000=168.011,486.000=168.021,493.000=168.011,494.000=168.021,501.000=168.011,502.000=168.021,509.000=168.011,510.000=168.021;
#STOPS:;
#BGCHANGES:;
// cache tags:
#FIRSTBEAT:0.000;
#LASTBEAT:506.750;
#SONGFILENAME:Songs/Astronomic Metal Collection 2/(foilman8805) We Are Not Anonymous/We Are Not Anonymous.sm;
#HASMUSIC:1;
#HASBANNER:1;
#MUSICLENGTH:183.106;
// end cache tags

//---------------dance-single - ----------------
#NOTES:
     dance-single:
     :
     Hard:
     11:
     1.000,1.000,1.000,0.972,1.000,1253.000,291.000,178.000,0.000,24.000:
1100
0000
0000
0011
0000
0000
1100
0000
0000
0011
0000
0000
2200
0000
0000
3300
0000
0000
0000
0000
0000
0000
0000
0000
0000
0000
0000
0000
0000
0000
0000
0000
0000
0000
0000
0000
0000
0000
0000
0000
0000
0000
0000
0000
0000
0000
0000
1100
,
0000
0000
0000
0000
0000
0000
0000
0000
0011
0000
0000
0000
0000
0000
0000
0000
0000
0000
0000
0000
1100
0000
0000
0000
0000
0000
0000
0000
0000
0000
0000
0000
0011
0000
0000
0000
0000
0000
0000
0000
0000
0000
2200
0000
0000
0000
0000
0000
0000
0000
0000
0000
0000
0000
3300
0000
0000
0000
0000
0000
0000
0000
0000
0000
0000
0000
0000
0000
0000
0000
0000
0000
0000
0000
0000
0000
0000
0000
0000
0000
0000
0000
0000
0000
0000
0000
0000
0000
0000
0000
0000
0000
0000
0000
0000
0000
0000
0000
0000
0000
0000
0000
0000
0000
0000
0000
0000
0000
0000
0000
0000
0000
0000
0000
0000
0000
0000
0000
0000
0000
0000
0000
0000
0000
0000
0000
0000
0000
0000
0000
0000
0000
0000
0000
0000
0000
0000
0000
0000
0000
0000
0000
0000
0000
0000
0000
0000
0000
0000
0000
0000
0000
0000
0000
0000
0000
0000
0000
0000
0000
0000
0000
0000
0000
0000
0000
0000
0000
0000
0000
0000
0000
0000
0000
0000
0000
0000
0000
0000
0000
0000
0000
0000
0000
0000
0000
0000
0000
0110
0000
0000
0000
,
0000
0000
0000
0000
0000
0000
0000
0000
1001
0000
0000
0000
0000
0000
0000
0000
0000
0000
0000
0000
0110
0000
0000
0000
0000
0000
0000
0000
0000
0000
0000
0000
0000
1001
0000
0000
0000
0000
0000
0000
0000
0000
0000
0000
0000
0220
0000
0000
0000
0000
0000
0000
0000
0000
0000
0000
0000
0000
0000
0000
0330
0000
0000
0000
0000
0000
0000
0000
0000
0000
0000
0000
0000
0000
0000
0000
0000
0000
0000
0000
0000
0000
0000
0000
0000
0000
0000
0000
0000
0000
0000
0000
0000
0000
0000
0000
0000
0000
0000
0000
0000
0000
0000
0000
0000
0000
0000
0000
0000
0000
0000
0000
0000
0000
0000
0000
0000
0000
0000
0000
0000
0000
0000
0000
0000
0000
0000
0000
0000
0000
0000
0000
0000
0000
0000
0000
0000
0000
0000
0000
0000
0000
0000
0000
0000
0000
0000
0000
0000
0000
0000
0000
0000
0000
0000
0000
0000
0000
0000
0000
0000
0000
0000
0000
0000
0000
0000
0000
0000
0000
0000
0000
0000
0000
0000
0000
0000
0000
0000
0000
0000
0000
0000
0000
0000
0000
0000
0000
0000
0000
0000
0000
,
0022
0000
0100
0000
1000
0000
0100
0000
1000
0000
0000
0033
0000
0000
2002
0000
0000
0000
0000
0000
0000
0000
0000
0000
0110
0000
0000
0000
3003
0000
0000
0000
,
0001
0010
0001
0010
0100
1000
0100
0010
0001
0010
0100
0010
0001
0100
0010
0001
,
1000
0100
1000
0100
0010
0001
0010
0100
1000
0100
0010
0100
1000
0010
0100
1000
,
0001
0010
0001
0010
0100
1000
0100
0010
0001
0010
0100
0010
0001
0100
0010
0001
,
1000
0001
0100
1000
0001
0100
0010
1000
0100
0001
1000
0010
0100
0001
0010
1000
,
0001
0010
0001
0010
0100
1000
0100
0010
0001
0010
0100
0010
0001
0100
0010
0001
,
1000
0100
1000
0100
0010
0001
0010
0100
1000
0100
0010
0100
1000
0010
0100
1000
,
0001
0010
0001
0010
0100
1000
0100
0010
0001
0010
0100
0010
0001
0100
0010
0001
,
1000
0001
0100
1000
0001
0100
0010
1000
0100
0001
1000
0010
0100
0001
0010
1000
,
0001
0000
0100
0000
0010
0000
0002
0000
0000
0003
0010
0000
0100
0000
2000
0000
,
0000
0000
0000
3000
0000
0000
0100
0000
0000
0000
0000
0000
0010
0000
0000
0000
0000
0000
0002
0000
0000
0000
0000
0000
0000
0000
0000
0003
0000
0000
0010
0000
0100
0000
1000
0000
0011
0000
0000
0000
0000
0000
0100
0000
0000
0000
0000
0000
,
0010
0000
0001
0000
0010
0000
0200
0000
0000
0300
1000
0000
0100
0000
0020
0000
,
0000
0000
0000
0000
0000
0000
0000
0000
0000
0000
0000
0000
0030
0000
0000
0000
0000
0000
0000
0000
0000
0000
0000
0000
0001
0000
0000
0000
0000
0000
0000
0000
0000
0000
0000
0000
0000
0000
0000
0000
0000
0000
0000
0000
0000
0000
0000
0000
0010
0000
0000
0000
0000
0000
0000
0000
0000
0000
0000
0000
0000
0000
0000
0000
0000
0000
0000
0000
0000
0000
0000
0000
0200
0000
0000
0000
0000
0000
0000
0000
0000
0000
0000
0000
0000
0000
0000
0000
0300
0000
0000
0000
0000
0000
0000
0000
1000
0000
0000
0000
0000
0000
0000
0000
0000
0000
0000
0000
0100
0000
0000
0000
0000
0000
0000
0000
0000
0001
0000
0000
0000
0000
0000
0000
0000
0000
0000
0000
1000
0000
0000
0000
0000
0000
0000
0000
0100
0000
0000
0000
0000
0000
0000
0000
0011
0000
0000
0000
0000
0000
0000
0000
0000
0000
0000
0000
0000
0000
0000
0000
0000
0000
0000
0000
0000
0000
0000
0000
0100
0000
0000
0000
0000
0000
0000
0000
0000
0000
0000
0000
0000
0000
0000
0000
0000
0000
0000
0000
0000
0000
0000
0000
,
0010
0000
0001
0000
0010
0000
0200
0000
0000
0300
1000
0000
0100
0000
0020
0000
,
0000
0000
0000
0030
0000
0000
0001
0000
0000
0000
0000
0000
0010
0000
0000
0000
0000
0000
0200
0000
0000
0000
0000
0000
0000
0000
0000
0300
0000
0000
0010
0000
0100
0000
1000
0000
0011
0000
0000
0000
0000
0000
0100
0000
0000
0000
0000
0000
,
0010
0000
0001
0000
0010
0000
0200
0000
0000
0300
1000
0000
0100
0000
0020
0000
,
0000
0000
0000
0030
0001
0000
0010
0000
1100
0000
1010
0000
0101
0000
0011
0000
,
1100
0000
0011
0000
1100
0000
0011
0000
2200
0000
0000
3300
0000
0000
0000
0000
0100
0000
0000
0000
0000
0000
0000
0000
0110
0000
0000
0000
0000
0000
0000
0000
,
0011
0000
1100
0000
0011
0000
1100
0000
0022
0000
0000
0033
0000
0000
0000
0000
0100
0000
0000
0000
0000
0000
0000
0000
0110
0000
0000
0000
0000
0000
0000
0000
,
1001
0000
0110
0000
1001
0000
0110
0000
2002
0000
0000
3003
0000
0000
0000
0000
0100
0000
0000
0000
0000
0000
0000
0000
0110
0000
0000
0000
0000
0000
0000
0000
,
2200
0010
0001
0010
0001
0000
3300
0000
0022
0100
1000
0100
1000
0000
0033
0000
,
0110
0000
1001
0000
0110
0000
1001
0000
0220
0000
0000
0330
0000
0000
0000
0000
0100
0000
0000
0000
0000
0000
0000
0000
0110
0000
0000
0000
0000
0000
0000
0000
,
1100
0000
0011
0000
1100
0000
0011
0000
2200
0000
0000
3300
0000
0000
0000
0000
0100
0000
0000
0000
0000
0000
0000
0000
0110
0000
0000
0000
0000
0000
0000
0000
,
0011
0000
1100
0000
0011
0000
1100
0000
0022
0000
0000
0033
0000
0000
0000
0000
0100
0000
0000
0000
0000
0000
0000
0000
0110
0000
0000
0000
0000
0000
0000
0000
,
1000
0000
0110
0000
1001
0110
1001
0000
0010
0000
0100
0000
1000
0010
0100
0001
,
1000
0000
0001
0000
0010
0000
0200
0000
0000
0300
1000
0000
0100
0000
0020
0000
,
0000
0000
0000
0030
0000
0000
0100
0000
0010
0000
0001
0000
1100
0000
0000
0000
0000
0000
0020
0000
0000
0000
0000
0000
0000
0000
0000
0030
0000
0000
0001
0000
0000
0000
0000
0000
0010
0000
0000
0000
0000
0000
0100
0000
0000
0000
0000
0000
,
1000
0000
0100
0000
0010
0000
0002
0000
0000
0003
0010
0000
0100
0000
2000
0000
,
0000
0000
0000
0000
0000
0000
0000
0000
0000
0000
0000
0000
3000
0000
0000
0000
0000
0000
0000
0000
0000
0000
0000
0000
0100
0000
0000
0000
0000
0000
0000
0000
0000
0000
0000
0000
0000
0000
0000
0000
0000
0000
0000
0000
0000
0000
0000
0000
0010
0000
0000
0000
0000
0000
0000
0000
0000
0000
0000
0000
0000
0000
0000
0000
0000
0000
0000
0000
0000
0000
0000
0000
0200
0000
0000
0000
0000
0000
0000
0000
0000
0000
0000
0000
0000
0000
0000
0000
0300
0000
0000
0000
0000
0000
0000
0000
0001
0000
0000
0000
0000
0000
0000
0000
0000
0000
0000
0000
0010
0000
0000
0000
0000
0000
0000
0000
0000
1000
0000
0000
0000
0000
0000
0000
0000
0000
0000
0000
0001
0000
0000
0000
0000
0000
0000
0000
0010
0000
0000
0000
0000
0000
0000
0000
1100
0000
0000
0000
0000
0000
0000
0000
0000
0000
0000
0000
0000
0000
0000
0000
0000
0000
0000
0000
0000
0000
0000
0000
0010
0000
0000
0000
0000
0000
0000
0000
0000
0000
0000
0000
0000
0000
0000
0000
0000
0000
0000
0000
0000
0000
0000
0000
,
0100
0000
1000
0000
0010
0000
0200
0000
0000
0300
1000
0000
0100
0000
0020
0000
,
0000
0030
0001
0000
0010
0000
0200
0000
0000
0300
1000
0000
0100
0000
0010
0000
,
0001
0000
1000
0000
0100
0000
0020
0000
0000
0030
0001
0000
0010
0000
0200
0000
,
0000
0000
0000
0300
1001
0000
0010
0000
0110
0000
1001
0000
0110
0000
2002
0000
,
0000
3003
0100
0010
1100
0001
0010
0001
1010
0000
1001
0000
0101
0000
0022
0000
,
0000
0033
0100
0010
1100
0001
0010
0001
1010
0000
1001
0000
0101
0000
2200
0000
,
3300
2020
3030
0220
0330
0202
0303
0022
,
0000
0033
0000
0001
0010
0100
0001
0100
1000
0001
0010
0100
0001
0100
2002
0000
,
0000
3003
0010
0100
1001
0010
0100
0010
1100
0000
1010
0000
0101
0000
0022
0000
,
0000
0033
0100
0010
1001
0100
0010
0100
0011
0000
0101
0000
1010
0000
2200
0000
,
0000
3310
0110
2020
0000
3130
0110
2002
,
0000
3003
0110
1001
0110
1001
0100
0010
1100
0011
1100
0011
1000
0100
0022
0000
,
0000
0033
1000
0100
0011
1000
0100
1000
0011
0000
0101
0000
1010
0000
2200
0000
,
0000
3300
0001
0010
1100
0001
0010
0001
1100
0000
1010
0000
0101
0000
0022
0000
,
0033
0202
0303
0220
0330
2020
3030
2200
,
0000
0000
0000
3300
0000
0000
0000
0000
0000
1000
0000
0000
0100
0000
0000
0010
0000
0000
1000
0000
0000
0010
0000
0000
0001
0000
0000
1000
0000
0000
0100
0000
0000
0010
0000
0000
1000
0000
0000
0010
0000
1001
0000
0000
0000
0000
0000
0000
,
0000
0000
0010
0100
0011
0100
1000
0100
0011
0000
0101
0000
1010
0000
2200
0000
,
0000
3300
0001
0010
1100
0010
0001
0010
1100
0000
1010
0000
0101
0000
0022
0000
,
0000
0133
0110
0202
0000
0313
0110
2002
,
0000
3013
0011
0010
0110
0100
1100
0110
,
0011
0001
0001
0001
0001
0001
0001
0001
,
0001
0001
0001
0001
0001
0001
0001
0001
,
0020
0000
0000
0000
0000
0000
0000
0000
0000
0000
0000
0000
0000
0000
0000
0000
0000
0000
0030
0000
0000
0000
0000
0000
0200
0000
0000
0000
0000
0000
0000
0000
0000
0000
0000
0000
0000
0000
0000
0000
0300
0000
0000
0000
0000
0000
0000
0000
0000
0000
0000
0000
0000
0000
0000
0000
0000
0000
0000
0000
0000
0000
0000
0000
0000
0000
0000
0000
0000
0000
0000
0000
0200
0000
0000
0000
0000
0000
0000
0000
0000
0000
0000
0000
0000
0000
0000
0000
0000
0000
0300
0000
0000
0000
0000
0000
2000
0000
0000
0000
0000
0000
0000
0000
0000
0000
0000
0000
0000
0000
0000
0000
3000
0000
0000
0000
0000
0000
0000
0000
0000
0000
0000
0000
0000
0000
0000
0000
0000
0000
0000
0000
0000
0000
0000
0000
0000
0000
0000
0000
0000
0000
0000
0000
0200
0000
0000
0000
0000
0000
0000
0000
0000
0000
0000
0000
0000
0000
0000
0000
0000
0000
0300
0000
0000
0000
0000
0000
0000
0000
0000
0001
0000
0000
0000
0000
0000
0000
0000
0000
0010
0000
0000
0000
0000
0000
0100
0000
0000
0000
0000
0000
,
1001
0001
0001
0001
0001
0001
0001
0001
,
0001
0001
0001
0001
0001
0001
0001
0001
,
1010
0100
0010
1001
0100
1000
0101
0010
,
0100
0011
0100
0010
1100
1100
0011
0011
,
1001
0001
0001
0001
0001
0001
0001
0001
,
0001
0001
0001
0001
0001
0001
0001
0001
,
0020
0000
0000
0000
0000
0000
0000
0000
0000
0000
0000
0000
0000
0000
0000
0000
0000
0000
0030
0000
0000
0000
0000
0000
0200
0000
0000
0000
0000
0000
0000
0000
0000
0000
0000
0000
0000
0000
0000
0000
0300
0000
0000
0000
0000
0000
0000
0000
0000
0000
0000
0000
0000
0000
0000
0000
0000
0000
0000
0000
0000
0000
0000
0000
0000
0000
0000
0000
0000
0000
0000
0000
0200
0000
0000
0000
0000
0000
0000
0000
0000
0000
0000
0000
0000
0000
0000
0000
0000
0000
0300
0000
0000
0000
0000
0000
2000
0000
0000
0000
0000
0000
0000
0000
0000
0000
0000
0000
0000
0000
0000
0000
3000
0000
0000
0000
0000
0000
0000
0000
0000
0000
0000
0000
0000
0000
0000
0000
0000
0000
0000
0000
0000
0000
0000
0000
0000
0000
0000
0000
0000
0000
0000
0000
0200
0000
0000
0000
0000
0000
0000
0000
0000
0000
0000
0000
0000
0000
0000
0000
0000
0000
0300
0000
0000
0000
0000
0000
0001
0000
0000
0000
0000
0000
0000
0000
0000
0010
0000
0000
0000
0000
0000
0000
0100
0000
0000
0000
0000
0000
0000
0000
,
1001
0001
0001
0001
0001
0001
0001
0001
,
0001
0000
0000
0000
0000
0000
0001
0000
0000
0000
0000
0000
0001
0000
0000
0000
0000
0000
0001
0000
0000
0000
0000
0001
0000
0000
0000
0000
0000
0000
1011
0000
0000
0000
0000
0000
1011
0000
0000
0000
0000
0000
0110
0000
0000
0000
0000
0000
,
1001
0010
0100
1010
0100
1000
0110
0001
,
0010
0000
0000
0000
0000
0000
0000
0000
0101
0000
0000
0000
0000
0000
0000
0000
0010
0000
0000
0000
0000
0000
0000
0000
0100
0000
0000
0000
0000
0000
0000
0000
0011
0000
0000
0000
0000
0000
0000
0000
0011
0000
0000
0000
0000
0000
0000
0000
1100
0000
0000
0000
0000
0000
0000
1100
0000
0000
0000
0000
0000
0000
0000
0000
,
1101
1001
1001
1001
1001
1001
1001
1001
,
1001
1001
1001
1001
1001
1001
1001
1001
,
0202
0000
0000
0000
0000
0000
0000
0000
0303
0000
0000
0000
0000
0000
0000
0000
0000
0000
0000
0000
0000
0000
0000
0000
0220
0000
0000
0000
0000
0000
0000
0000
0000
0000
0000
0000
0000
0000
0000
0000
0330
0000
0000
0000
0000
0000
0000
0000
0000
0000
0000
0000
0000
0000
0000
0000
0000
0000
0000
0000
0000
0000
0000
0000
0000
0000
0000
0000
0000
0000
0000
0000
2020
0000
0000
0000
0000
0000
0000
0000
3030
0000
0000
0000
0000
0000
0000
0000
0000
0000
0000
0000
0000
0000
0000
0000
2200
0000
0000
0000
0000
0000
0000
0000
0000
0000
0000
0000
0000
0000
0000
0000
3300
0000
0000
0000
0000
0000
0000
0000
0000
0000
0000
0000
0000
0000
0000
0000
0000
0000
0000
0000
0000
0000
0000
0000
0000
0000
0000
0000
0000
0000
0000
0000
0220
0000
0000
0000
0000
0000
0000
0000
0000
0000
0000
0000
0000
0000
0000
0000
0000
0000
0000
0000
0000
0000
0000
0000
0000
0000
0000
0000
0000
0000
0330
0000
0000
0000
0000
0000
0000
0000
0000
0000
0000
0000
0000
0000
0000
0000
0000
0000
,
1101
1001
1001
1001
1001
1001
1001
1001
,
1001
1001
1001
1001
1001
1001
1001
1001
,
1010
0100
0010
1001
0100
1000
0101
0010
,
0100
0011
0100
0010
1100
1100
0011
0011
,
1011
1001
1001
1001
1001
1001
1001
1001
,
1001
1001
1001
1001
1001
1001
1001
1001
,
2020
3030
0000
0220
0000
0330
0000
0000
0000
0202
0303
0000
0022
0000
0033
0000
0000
0000
0220
0000
0000
0330
0000
0000
,
1011
1001
1001
1001
1001
1001
1001
1001
,
1001
1001
1001
1001
1001
1001
1001
1001
,
0101
0010
0100
1001
0010
0001
1010
0100
,
0010
1100
0010
0100
0011
0011
1100
1100
,
1000
0000
0000
0000
0000
0000
0000
0000
0000
0000
0000
0000
0000
0000
0000
0000
0001
0000
0000
0000
0000
0000
0000
0000
0010
0000
0000
0000
0000
0000
0000
0000
0000
0100
0000
0000
0000
0000
0000
0000
0000
0000
1000
0000
0000
0000
0000
0000
0001
0000
0000
0000
0000
0000
0000
0000
0000
0000
0000
0000
0100
0000
0000
0000
0000
0000
0000
0000
0000
0000
0000
0000
0000
0000
0000
0000
0000
0000
0010
0000
0000
0000
0000
0000
0000
0000
0000
0000
0000
0000
0000
0000
0000
0000
0000
0000
1000
0000
0000
0000
0000
0000
0000
0000
0000
0000
0000
0000
0000
0000
0000
0000
0000
0000
0000
0000
0000
0000
0000
0000
1000
0000
0000
0000
0000
0000
0000
0000
0100
0000
0000
0000
0000
0000
0000
0000
0000
0000
0000
0000
0010
0000
0000
0000
0000
0000
0000
0000
0001
0000
0000
0000
0000
0000
0000
0000
0000
0000
0000
0000
0100
0000
0000
0000
0000
0000
0000
0000
0000
0000
0000
0000
0000
0000
0000
0000
0000
0001
0000
0000
0000
0000
0000
0000
0000
0000
0000
0000
0000
0000
0000
0000
,
0010
0000
0000
0000
0000
0000
0000
0000
0000
0000
0000
0000
0000
0000
0000
0000
1000
0000
0000
0000
0000
0000
0000
0000
0000
0000
0000
0000
0000
0000
0000
0001
0000
0000
0000
0000
0000
0000
0000
0000
0000
0000
0000
0000
0000
0000
0000
0000
0010
0000
0000
0000
0000
0000
0000
0000
0000
0000
0000
0000
0000
1000
0000
0000
0000
0000
0000
0000
0000
0000
0000
0000
0000
0000
0000
0000
0000
0000
0000
0000
0000
0100
0000
0000
0000
0000
0000
0000
0000
0000
0000
0000
0000
0000
0000
0000
0011
0000
0000
0000
0000
0000
0000
0000
0000
0000
0000
0000
0000
0000
0000
0000
0000
0000
0000
0000
0000
0000
0000
0000
0000
0000
0000
0000
0000
0000
0000
0000
0000
0000
0000
0000
0000
0000
0000
0000
0000
0000
0000
0000
0000
0000
0000
0000
0000
0000
0000
0000
0000
0000
0000
0000
0000
0000
0000
0000
0000
0000
0000
0000
0000
0000
0000
0000
0000
0000
0000
0000
0002
0000
0000
0000
0000
0000
0000
0000
0000
0000
0000
0000
0000
0000
0000
0000
0000
0000
0000
0000
0000
0000
0000
0000
,
0000
0003
0002
0003
0100
1000
0001
0010
0100
1000
0001
0010
0001
0010
0100
1000
,
0100
0001
0010
1000
0100
0010
0001
0010
0100
1000
0100
1000
0001
0010
0100
0010
,
1000
0100
1000
0100
1000
0010
1000
0010
1000
0001
1000
0001
1000
0100
1000
0100
,
1000
0010
1000
0010
1000
0001
1000
0001
2000
3000
0020
0030
0100
0000
1000
0000
,
0001
0000
0000
0010
0000
0000
0100
0000
0000
1000
0000
0000
0010
0000
0001
0000
0010
0000
0100
0000
1000
0000
0000
0000
0001
0000
0010
0000
0100
0000
1000
0000
0100
0000
0000
0000
0010
0000
0001
0000
0010
0000
0100
0000
1000
0000
0000
0000
,
0001
0010
0100
1000
0100
0000
0010
0001
0010
0100
1000
0000
0001
0010
0100
1000
0020
0000
0000
0000
0030
2000
0000
0000
,
0000
0000
0000
0000
3000
0000
0200
0000
0000
0000
0300
0000
0020
0000
0000
0030
0000
0000
0002
0000
0000
0000
0000
0000
0000
0000
0000
0000
0003
0000
0020
0000
0000
0030
0000
0000
0200
0000
0000
0300
0000
0000
2000
0000
0000
0000
0000
0000
,
0000
3000
0011
1100
0011
1100
0011
0100
1000
0010
0100
0001
0010
0100
0020
0000
,
0000
0000
0000
0000
0000
0000
0000
0000
0000
0000
0000
0000
0031
0100
1000
0001
,
0010
0000
0000
0100
0000
0000
0001
0000
0000
0010
0000
0000
1000
0000
0000
0100
0000
0000
0010
0000
0000
0100
0000
0000
1000
0000
0000
0010
0000
0000
0001
0000
0000
1000
0000
0000
0100
0000
0000
0020
0000
0000
0000
0000
0000
0000
0030
0000
,
1000
1000
0100
0100
0010
0010
0001
0001
,
0200
0000
0000
0000
0000
0000
0000
0000
0000
0000
0000
0000
0000
0000
0000
0000
0000
0000
0000
0000
0000
0300
0000
0000
0002
0000
0003
0000
0000
0000
2000
0000
3000
0000
0000
0000
0020
0000
0030
0000
0000
0000
0200
0000
0300
0000
0000
0000
,
1000
0100
0010
0001
1000
0100
0010
0001
1000
0100
0010
0001
1000
0100
0010
0001
,
0010
1000
0100
0001
0010
1000
0100
0001
0010
1000
0100
0001
0010
1000
0100
0010
,
0001
0010
0100
0010
0001
1000
0001
1000
0001
0100
0001
1000
0001
0100
0001
0010
,
0001
0010
0100
1000
0100
0010
0001
0010
,
0200
0000
0000
0000
0000
0000
0000
0000
0000
0000
0000
0000
0000
0000
0000
0000
0300
0000
0000
0000
0000
0000
0000
0000
0000
0000
0000
0000
0000
0000
0000
0000
0000
0000
0000
0000
2000
0000
0000
0000
0000
0000
0000
0000
0000
0000
0000
0000
0000
0000
0000
0000
0000
0000
0000
0000
3000
0000
0000
0000
0000
0000
0000
0000
0002
0000
0000
0000
0000
0000
0000
0000
0000
0000
0000
0000
0000
0000
0000
0000
0003
0000
0000
0000
0000
0000
0000
0000
0000
0000
0000
0000
0000
0000
0000
0000
0020
0000
0000
0000
0000
0000
0000
0000
0000
0000
0000
0000
0000
0000
0000
0000
0030
0000
0000
0000
0000
0000
0000
0000
0000
0000
0000
0000
0000
0000
0000
0000
0000
0200
0000
0000
0000
0000
0000
0000
0000
0000
0000
0000
0000
0000
0000
0000
0300
0000
0000
0000
0000
0000
0000
0000
0000
0000
0000
0000
0000
0000
0000
0000
2000
0000
0000
0000
0000
0000
0000
0000
0000
0000
0000
0000
0000
0000
0000
0000
3000
0000
0000
0000
0000
0000
0000
0000
0000
0000
0000
0000
0000
0000
0000
0000
,
0020
0030
0200
0300
0002
0003
0020
0030
0200
0300
2000
3000
,
0200
0300
0020
0030
0002
0003
2000
3000
0200
0300
0020
0030
,
2000
0000
0000
0000
3000
0000
0000
0000
0200
0000
0000
0000
0300
0000
0000
0000
0020
0000
0000
0000
0030
0000
0000
0000
0002
0000
0000
0000
0000
0000
0000
0000
0000
0000
0000
0000
0000
0000
0000
0000
0000
0000
0000
0000
0000
0003
0000
0000
,
1000
0100
1000
0100
0010
0001
0010
0100
1000
0100
0010
0100
1000
0010
0100
1000
,
0001
0010
0001
0010
0100
1000
0100
0010
0001
0010
0100
0010
0001
0100
0010
0001
,
1000
0100
1000
0100
0010
0001
0010
0100
1000
0100
0010
0100
1000
0010
0100
1000
,
0001
1000
0010
0001
1000
0010
0100
0001
0010
1000
0001
0100
0010
1000
0100
0001
,
1000
0100
1000
0100
0010
0001
0010
0100
1000
0100
0010
0100
1000
0010
0100
1000
,
0001
0010
0001
0010
0100
1000
0100
0010
0001
0010
0100
0010
0001
0100
0010
0001
,
1000
0100
1000
0100
0010
0001
0010
0100
1000
0100
0010
0100
1000
0010
0100
1000
,
0001
1000
0010
0001
1000
0010
0100
0001
0010
1000
0001
0100
0010
1000
0100
0001
,
0100
0000
0010
0000
0100
0000
2000
0000
0000
3000
0100
0000
0010
0000
0002
0000
,
0000
0000
0000
0000
0003
0000
0000
0000
0010
0000
0000
0000
0000
0000
0000
0000
0100
0000
0000
0000
0000
0000
0000
0000
2000
0000
0000
0000
0000
0000
0000
0000
0000
0000
0000
0000
3000
0000
0000
0000
0100
0000
0000
0010
0000
0000
0001
0000
1100
0000
0000
0000
0000
0000
0000
0000
0010
0000
0000
0000
0000
0000
0000
0000
,
0100
0000
1000
0000
0100
0000
0020
0000
0000
0030
0001
0000
0010
0000
0200
0000
,
0000
0000
0300
0000
1000
0000
0000
0000
0100
0000
0000
0000
0020
0000
0030
0000
0001
0000
0010
0000
1000
0000
0001
0010
1100
0000
0000
0000
0010
0000
0000
0000
,
0001
0000
0010
0000
0100
0000
2000
0000
0000
3000
0100
0000
0010
0000
0002
0000
,
0000
0000
0000
0003
0000
0000
0010
0000
0000
0000
0000
0000
0100
0000
0000
0000
0000
0000
2000
0000
0000
0000
0000
0000
0000
0000
0000
3000
0000
0000
0100
0000
0000
0010
0000
0001
1100
0000
0000
0000
0000
0000
0010
0000
0000
0000
0000
0000
,
1000
0000
0100
0000
0010
0000
0002
0000
0000
0003
0010
0000
0100
0000
2000
0000
,
0000
0000
0000
3000
0010
0000
0100
0000
0010
0000
0001
0000
0100
0000
0010
0000
,
1100
0010
0001
0010
0100
1000
0100
0010
1001
0100
0010
0100
1000
0100
0010
0001
,
1100
0001
0010
0100
1000
0100
0010
0001
1100
0001
1000
0001
0100
0001
1000
0001
,
1100
0010
0001
0010
0100
1000
0100
0010
0101
1000
0100
0010
0001
0010
0100
1000
,
0011
1000
0001
1000
0010
1000
0001
1000
0011
1000
0100
0010
0001
1000
0100
0010
,
1100
0001
0010
0100
1000
0001
0010
0100
1001
0010
1000
0010
0100
0010
0001
0100
,
1001
0100
0001
0100
0010
0100
1000
0100
0011
0100
1000
0010
1000
0001
1000
0010
,
1100
0001
0010
0100
1000
0100
0010
0001
1100
0001
1000
0001
0100
0001
0010
0100
,
0011
1000
0001
1000
0010
1000
0100
0010
1100
0000
1010
0000
0101
0000
0011
0000
,
1100
0011
1100
0011
2200
0000
0300
0000
0000
0000
0000
3000
0000
0000
0000
0000
;
