#TITLE:Little God Ch@nnel;
#SUBTITLE:;
#ARTIST:DJ Sharpnel;
#TITLETRANSLIT:;
#SUBTITLETRANSLIT:;
#ARTISTTRANSLIT:;
#CREDIT:;
#BANNER:little god bn.png;
#BACKGROUND:little god bg.png;
#LYRICSPATH:;
#CDTITLE:;
#MUSIC:Little God Channel.ogg;
#OFFSET:-1.261;
#SAMPLESTART:227.602;
#SAMPLELENGTH:20.343;
#SELECTABLE:YES;
#DISPLAYBPM:189.000;
#BPMS:0.000=188.750,264.000=94.375,279.500=283.125,280.000=188.750,309.000=283.125,311.000=377.500,312.000=188.750,340.000=377.500,344.000=188.750,372.000=283.125,375.000=377.500,376.000=188.750,436.000=283.125,439.000=377.500,440.000=188.750,470.000=251.038,471.000=188.750,502.000=251.038,503.000=188.750,597.000=283.125,599.000=377.500,600.000=188.750,629.000=283.125,631.000=377.500,632.000=188.750,660.000=283.125,663.000=377.500,664.000=188.750,692.000=283.125,695.000=188.750,724.000=283.125,727.000=188.750;
#STOPS:279.750=0.212
,309.000=0.026
,309.250=0.027
,309.500=0.026
,309.750=0.027
,310.000=0.026
,310.250=0.027
,310.500=0.026
,310.750=0.027
,311.500=0.159
,340.000=0.040
,340.250=0.040
,340.500=0.039
,340.750=0.040
,341.000=0.040
,341.250=0.040
,341.500=0.039
,341.750=0.040
,342.000=0.040
,342.250=0.040
,342.500=0.039
,342.750=0.040
,343.500=0.159
,372.000=0.026
,372.250=0.027
,372.500=0.026
,372.750=0.027
,373.000=0.026
,373.250=0.027
,373.500=0.026
,373.750=0.027
,374.000=0.026
,374.250=0.027
,374.500=0.026
,374.750=0.027
,375.500=0.159
,436.000=0.053
,436.500=0.053
,437.000=0.053
,437.500=0.053
,438.000=0.017
,438.167=0.018
,438.333=0.017
,438.500=0.053
,439.500=0.159
,470.000=0.020
,470.250=0.020
,470.500=0.020
,470.750=0.019
,502.000=0.020
,502.250=0.020
,502.500=0.019
,502.750=0.020
,597.000=0.026
,597.250=0.027
,597.500=0.026
,597.750=0.027
,598.000=0.026
,598.250=0.027
,598.500=0.026
,598.750=0.027
,599.500=0.159
,629.000=0.026
,629.250=0.027
,629.500=0.026
,629.750=0.027
,630.000=0.026
,630.250=0.027
,630.500=0.026
,630.750=0.027
,631.500=0.159
,660.000=0.026
,660.250=0.027
,660.500=0.026
,660.750=0.027
,661.000=0.026
,661.250=0.027
,661.500=0.026
,661.750=0.027
,662.000=0.026
,662.250=0.027
,662.500=0.026
,662.750=0.027
,663.500=0.159
,692.000=0.026
,692.250=0.027
,692.500=0.026
,692.750=0.027
,693.000=0.026
,693.250=0.027
,693.500=0.026
,693.750=0.027
,694.000=0.026
,694.250=0.027
,694.500=0.026
,694.750=0.027
,724.000=0.026
,724.250=0.027
,724.500=0.026
,724.750=0.027
,725.000=0.026
,725.250=0.027
,725.500=0.026
,725.750=0.027
,726.000=0.026
,726.250=0.027
,726.500=0.026
,726.750=0.027
;
#BGCHANGES:;
// cache tags:
#FIRSTBEAT:4.000;
#LASTBEAT:768.000;
#SONGFILENAME:Songs/SHARPNELSTREAMZ v2/Little God Channel/Little God Channel.sm;
#HASMUSIC:1;
#HASBANNER:1;
#MUSICLENGTH:251.918;
// end cache tags

//---------------dance-single - 15+ (TYLR)----------------
#NOTES:
     dance-single:
     15+ (TYLR):
     Hard:
     15:
     1.000,1.000,0.191,0.274,1.000,2129.000,48.000,69.000,29.000,0.000:
0000
0000
0000
0000
,
1MM1
0001
0000
0200
0010
0000
0301
0000
,
1010
1000
0000
0200
0310
0000
0001
0000
,
1001
0001
0000
0200
0010
0000
0001
0000
,
0310
0000
1M00
0000
0100
0000
0000
0000
0010
0000
0000
0000
0001
0010
0001
0010
,
0100
1000
0000
0020
0100
0000
1030
0000
,
1100
0100
0000
0020
0031
0000
0100
0000
,
1001
0001
0000
0200
0010
0000
0001
0000
,
0310
0000
10M0
0000
0100
0000
0000
0000
0010
0001
0010
0000
0100
0000
1000
0000
,
1MM1
0001
0000
0200
0010
0000
0301
0000
,
1010
1000
0000
0200
0310
0000
0001
0000
,
1001
0001
0000
0200
0010
0000
0001
0000
,
0310
0000
1M00
0000
0100
0000
0000
0000
0010
0000
0000
0000
0001
0010
0001
0010
,
M100
1000
0000
0001
0000
0100
0000
0010
,
0000
0100
0000
0001
0000
0010
0000
0100
,
1000
0100
1000
0100
0010
0100
0010
0100
0010
0001
0010
0001
1000
0001
1000
0001
,
1000
0010
0100
0001
1000
0001
0100
0010
1000
0100
0010
0001
0100
0010
1000
0000
,
2MM2
0000
3003
0000
0220
0000
0330
0000
1020
0000
1030
0000
0001
0000
1000
0010
,
0100
0001
0000
1000
0001
0100
0010
1000
0000
0000
1001
0000
0000
0000
1000
0000
,
2200
0000
3300
0000
0022
0000
0033
0001
1000
0001
0000
0100
0000
0000
0010
0000
,
1000
0010
0000
1000
0001
1000
0001
0010
0000
0000
1100
0000
1000
0001
1000
0001
,
0100
M00M
0100
0000
1000
0000
0010
0000
0100
M00M
0100
0000
1000
0000
0001
0000
,
0010
M00M
0020
0000
1030
0000
0100
0000
0010
0001
0000
0010
0100
0000
1000
0000
,
1001
0000
M2MM
0310
1001
0000
MM2M
0130
,
1000
0001
1000
0001
0100
0000
0010
0000
1000
0001
1000
0000
0100
0000
0010
0001
,
1000
0000
0100
0000
0010
0100
0000
0010
0001
0000
1000
0000
0001
0010
0000
0010
,
0100
0000
1000
0000
0001
1000
0000
0001
0100
0000
0010
0000
1000
0000
0010
0000
,
0100
0000
0001
0000
1000
0001
0000
1000
0100
0000
0010
0000
0001
1000
0000
1000
,
0010
0000
0100
0000
0001
0100
0000
0001
1000
0000
0100
0000
0010
0001
0010
0001
,
1000
0010
0100
0010
1000
0100
1000
0001
0010
0100
1000
0001
0100
0001
1000
0100
,
0010
0001
0100
0001
1000
0100
0010
0001
0100
0010
1000
0010
0100
0001
0010
0100
,
1000
0001
1000
0001
1000
0100
1000
0100
0010
0001
0010
0001
1000
0010
0100
0001
,
1000
0001
1000
0001
1000
0001
1000
0001
1000
0001
1000
0001
2000
0000
3000
0000
,
1001
0000
0000
0000
0001
0000
1000
0000
0001
0000
0000
0000
1000
0100
1000
0100
,
0010
0001
1000
0001
0100
0010
1000
0000
0001
0010
0100
1000
0001
0000
0000
0000
,
1000
0100
1000
0000
0001
0100
0001
0000
1000
0100
0010
0001
1000
0000
0001
0000
,
1000
0100
0000
0010
0001
0000
0000
0000
1000
0001
1000
0000
0001
0100
0001
0000
,
1000
0010
0100
0000
0001
0100
0010
0000
1000
0001
0000
0001
1000
0000
0100
0000
,
0010
0001
0010
0100
1000
0000
0000
0000
0001
1000
0010
1000
0010
0000
0000
1000
,
0001
1000
0001
0000
1000
0100
1000
0001
1000
0010
0100
0001
1000
0000
0100
0000
,
0010
0001
0010
0001
0010
0000
0000
0000
0100
0000
0000
0000
1000
0000
0000
0000
,
0001
0000
0000
0100
0001
0100
0000
0000
0010
0000
1000
0000
0001
0000
1000
0000
,
1001
0000
0001
0010
0100
1000
0001
0000
1000
0001
1000
0010
0100
0000
0000
0000
,
0001
0100
0001
0000
1000
0100
1000
0000
0001
0010
0100
1000
0001
0000
1000
0000
,
0001
0100
0000
0010
1000
0000
0000
0000
0001
0010
0100
1000
0001
0000
1000
0000
,
0001
0100
0001
0000
1000
0010
1000
0000
0001
1000
0000
1000
0100
0000
0010
0000
,
0001
1000
0001
0100
0010
0000
0000
0000
0100
0001
1000
0001
1000
0000
0000
0001
,
1000
0100
0010
0001
1000
0001
0010
0100
1000
0001
0100
0010
1000
0001
0010
0100
,
1000
0001
1000
0001
1000
0010
0100
0001
0010
0100
1000
0001
0010
0001
1000
0001
,
0100
0000
0010
0000
1000
0000
0001
0000
0010
0000
0100
0000
1000
0000
0001
0000
4000
3000
0004
0003
4000
3000
0004
0003
4000
3000
0000
0000
0000
0000
0000
0000
,
1001
0000
0000
0000
0011
0000
0000
0000
1100
0000
1000
0000
0001
0000
0100
0001
,
1000
0000
0100
1000
0001
0000
0100
0001
1000
0000
0100
1000
0001
0000
0100
0001
,
0010
0000
0000
0000
1100
0000
0000
0000
0011
0000
0001
0000
1000
0000
0010
1000
,
0001
0000
0010
0001
1000
0000
0010
1000
0001
0000
0010
0001
1000
0000
0010
1000
,
0100
0000
0000
0000
0011
0000
0000
0000
1100
0000
1000
0000
0001
0000
0100
0001
,
1000
0000
0100
1000
0001
0000
0100
0001
1000
0000
0100
1000
0001
0000
0100
0001
,
0010
0000
0000
0000
1100
0000
0000
0000
0011
0000
0001
0000
1000
0000
0010
1000
,
0001
0000
0010
0001
1000
0000
0010
1000
0001
0000
0010
0001
1000
0000
0010
1000
,
0001
0000
1000
0000
0001
0000
0010
0000
0001
0000
0100
0000
0010
0000
0100
0001
,
1000
0000
0100
0000
0010
0000
0100
0000
1000
0001
0000
0010
0100
0000
1100
0000
,
1000
0000
1100
0000
0100
0000
0010
0000
0001
0000
1001
0000
1000
0000
0001
0100
,
0010
0000
1000
0000
0100
0000
0110
0000
0010
0001
0010
0001
1000
0000
1001
0000
,
0001
0100
0001
0100
0010
1000
0010
1000
0001
1000
0001
1000
0001
0010
0001
0010
,
0100
1000
0100
1000
0001
1000
0001
1000
0001
0100
0001
0100
0010
1000
0010
1000
,
0001
0010
0100
1000
0001
1000
0100
0010
0001
1000
0001
0100
0010
1000
0001
1000
,
0010
0100
0010
0100
0010
0100
0010
0100
0040
0000
0000
0000
0030
0000
0000
0000
,
1MM1
0000
0000
0000
,
0000
0000
0000
0000
,
0000
0000
0000
0000
,
0000
0000
0000
0000
0000
0000
0000
MMMM
,
1001
1000
0001
1000
0002
0000
0103
0020
,
0000
0130
0001
0100
0002
0000
0013
0200
,
0000
0310
0001
1000
0001
0100
0001
0200
,
0000
0320
0000
0030
0000
2000
0000
3200
,
0000
0000
0310
0002
0000
0000
0013
0200
,
0000
0000
2300
0000
0000
0000
3002
0000
0000
0000
0000
0000
0203
0000
0000
0300
,
0001
0100
0001
0100
0010
1000
0010
1000
0001
1000
0010
0100
0001
0100
0010
1000
,
0001
1000
0001
1000
0001
0010
0001
0010
0100
1000
0100
1000
0002
0000
0003
0000
,
1000
0100
0010
0001
0010
0001
1000
0001
0010
0100
1000
0001
0010
0001
0100
0001
,
0100
0010
1000
0001
1000
0001
0100
0001
1000
0100
0010
0001
0010
0001
0100
0010
,
1000
0001
0100
0001
0100
0010
1000
0001
0100
0001
0100
0010
1000
0001
1000
0100
,
0010
0001
0100
0001
0100
0010
1000
0010
0100
0001
1000
0100
1000
0001
0010
0001
,
1000
0010
0100
0001
1000
0100
1000
0100
0010
0001
1000
0010
0100
0001
0100
0010
,
1000
0001
1000
0010
0100
0001
0010
0100
1000
0001
0010
0001
1000
0010
0100
0001
,
1000
0001
0100
0010
1000
0100
1000
0001
0010
0001
1000
0100
0010
0001
1000
0001
,
0010
0100
0010
0100
1000
0100
1000
0100
1000
0001
1000
0001
0200
0000
0300
0000
,
0001
0010
0100
1000
0100
1000
0001
1000
0100
0010
0001
1000
0100
1000
0010
1000
,
0010
0100
0001
1000
0001
1000
0010
1000
0001
0010
0100
1000
0100
1000
0010
0100
,
0001
1000
0010
1000
0010
0100
0001
1000
0010
1000
0010
0100
0001
1000
0001
0010
,
0100
1000
0010
1000
0010
0100
0001
0100
0010
1000
0001
0010
0001
1000
0100
1000
,
0001
0100
0010
1000
0001
0010
0001
0010
0100
1000
0001
0100
0010
1000
0010
0100
,
0001
1000
0001
0100
0010
1000
0100
0010
0001
1000
0100
1000
0001
0100
0010
1000
,
0001
1000
0010
0100
0001
0010
0001
1000
0100
1000
0001
0010
0100
1000
0010
0100
,
0001
1000
0001
1000
0100
0010
0100
0010
0001
1000
0010
0100
0002
0000
0003
0000
,
1000
0001
0010
0100
1000
0100
0010
0001
1000
0010
0100
0001
1000
0001
0100
0010
,
1000
0100
0010
0001
1000
0100
1000
0001
1000
0010
0100
0010
1000
0001
0010
0001
,
1000
0010
0100
0001
1000
0001
0100
0010
1000
0001
0010
0100
1000
0010
1000
0001
,
0100
0001
1000
0100
0010
0001
1000
0100
1000
0001
0100
0001
0010
0100
0010
0100
,
1000
0001
0010
0001
1000
0100
1000
0001
0100
0010
1000
0010
0100
0001
1000
0100
,
0010
0001
0100
0010
1000
0001
1000
0100
0010
0001
1000
0001
1000
0010
0100
0001
,
1000
0100
1000
0100
0010
0001
0100
0010
1000
0100
1000
0100
0010
0001
0100
0010
,
1000
0001
1000
0001
0010
0001
0100
0010
1000
0100
0010
0001
0100
0010
0100
0010
,
1000
0001
0010
0001
1000
0010
1000
0001
0010
0100
1000
0100
0010
0001
1000
0001
,
0100
0010
1000
0001
0010
0100
0010
0001
0100
0010
1000
0001
0010
0001
1000
0100
,
1000
0001
0010
0001
1000
0010
1000
0001
0010
0100
1000
0100
0010
0001
1000
0001
,
1000
0010
0100
0001
0010
0100
1000
0001
1000
0010
0100
0001
1000
0001
1000
0001
,
1000
0001
0100
0001
1000
0100
1000
0001
0100
0010
1000
0010
0100
0001
1000
0100
,
0010
0001
1000
0010
1000
0001
0010
0001
1000
0010
0100
0001
1000
0001
0100
0010
,
1000
0100
0010
0001
1000
0001
0010
0100
1000
0001
1000
0010
0100
0001
0100
0001
,
1000
1001
1001
1001
4000
3001
0020
0030
,
1100
0000
1000
0100
0010
0000
0001
0000
1000
0100
0010
0000
0001
1000
0010
1000
,
0001
0000
0100
0001
1000
0000
0010
1000
0001
1000
0001
0010
0100
0000
1000
0000
,
0001
1000
0010
0000
0100
0000
0100
0000
0001
0100
0010
0000
0100
0001
1000
0000
,
0100
0000
0000
0000
0000
0000
0100
0000
0000
0000
0000
0000
0010
0000
0000
0000
0001
0000
0000
0000
1000
0000
0000
0000
0010
0000
0000
1000
0000
0000
0100
0000
0000
0000
0000
0000
1000
0000
0000
0000
0000
0000
1000
0000
0000
0000
0000
0000
,
1010
0000
0010
0000
0100
0000
0010
1000
0001
0010
0001
1000
0100
0010
0100
1000
,
0001
0000
1000
0010
0100
0000
0001
1000
0100
0000
0010
0000
0100
0000
1000
0000
,
0001
1000
0010
0000
0100
0000
0010
1000
0001
1000
0100
0000
0010
0000
0001
1000
,
0010
0000
0000
0000
0100
0000
0001
0000
1000
0000
0000
0000
0100
0000
0010
0000
0001
0000
0010
0000
0001
0000
0010
0000
0002
0000
0000
0000
0000
0000
0000
0003
,
1100
0000
1000
0001
0010
0000
0100
0000
1000
0001
0010
0000
0100
1000
0001
1000
,
0010
0000
0100
0010
1000
0001
0100
0001
1000
0001
0010
0001
1000
0000
0001
0000
,
0010
0100
1000
0000
0001
0000
0001
0000
1000
0010
0100
0000
0001
0000
0001
0000
,
1000
0000
1100
0000
0000
0100
0000
1000
0001
1000
0001
1000
0010
0000
1000
0000
,
1001
0000
0001
0000
0010
0000
0100
0010
0001
1000
0100
1000
0001
0000
1000
0100
,
1000
0001
0100
0001
1000
0001
0100
0001
1000
0100
0010
0000
0001
0000
0000
0000
,
1000
0000
0010
0000
0100
0000
0010
0000
1000
0001
0100
0001
1000
0100
0010
0100
,
1000
0000
0001
0000
1000
0000
0010
0000
0000
0000
0100
0000
0001
0000
0100
0000
0010
0000
1000
0000
0010
0000
1000
0000
0020
0000
0000
0000
0000
0000
0000
0030
,
0101
0000
0001
0000
0000
1000
0100
0000
0010
0001
1000
0001
0100
0010
1000
0001
,
0000
0000
0000
0010
0000
0000
0100
0000
0000
1000
0000
0000
0001
0000
0000
1000
0000
0000
0100
0000
0000
0010
0000
0000
0001
0000
0000
0000
0000
0000
1000
0000
0000
0000
0000
0000
0010
0000
0000
0000
0000
0000
0000
0000
1000
0000
0000
0000
,
0001
0000
0000
0000
1000
0000
0000
0000
0100
0000
0000
0000
0010
0000
0000
0000
0000
0000
0001
0000
0000
1000
0000
0000
0010
0000
0000
0100
0000
0000
0000
0000
0000
0001
0000
0000
1000
0000
0000
0000
0000
0000
0100
0000
0000
0010
0000
0000
,
0001
0010
0100
1000
0010
1000
0001
0100
0001
1000
0100
1000
0001
0010
0001
0010
,
0100
0000
1000
0100
0010
0001
0100
0010
1000
0100
0010
0001
1000
0100
0010
0001
,
1000
0010
0000
0100
0001
1000
0100
0010
0001
1000
0000
0001
0010
0100
1000
0010
,
0000
0000
0000
0100
0001
0000
1000
0001
0100
0010
1000
0001
0010
0000
0100
0010
,
0001
1000
0100
1000
0010
0000
1000
0100
0010
0001
0010
0001
1000
0000
0001
0000
,
1001
0000
0000
0000
1000
0100
0010
0100
1000
0001
0010
0001
1000
0010
0100
0001
,
0000
0000
0000
0100
0000
0000
0010
0000
0000
1000
0000
0000
0001
0000
0000
0000
1000
0000
0000
0000
0100
0000
0000
0000
0010
0000
0000
0001
0000
0000
1000
0000
0000
0001
0000
0000
0010
0000
0000
0100
0000
0000
1000
0000
0000
0001
0000
0000
,
0100
0000
0000
0000
0M00
0000
1000
0000
0001
0010
0100
1000
0010
0100
0001
1000
,
0010
0000
0000
0000
0100
0000
0000
0000
0010
0000
0000
0000
1000
0000
0000
0001
0000
0000
0100
0000
0000
0001
0000
0000
1000
0000
0000
0100
0000
0000
1000
0000
0000
0001
0000
0000
0010
0000
0000
0100
0000
0000
0010
0000
0000
0100
0000
0000
,
1000
0001
0010
0001
0100
0000
0001
1000
0100
1000
0001
0010
0100
0000
0000
1000
,
0001
0000
0000
1000
0000
0000
0000
0000
0000
0000
0000
0000
0000
0000
0000
0000
0000
0000
0000
0000
0000
0000
0000
0000
0000
0000
0000
0000
0000
0000
0000
0000
0000
0000
0000
0000
0001
0000
0000
0000
0010
0000
0000
0000
0001
0000
0000
0000
,
0100
0000
0000
0000
0000
0000
0001
0000
0000
1000
0000
0000
0001
0000
0000
0100
0000
0000
0010
0000
0000
1000
0000
0000
0001
0000
0000
0100
0000
0000
0010
0000
0000
1000
0000
0000
0001
0000
0000
0000
0100
0000
0000
0000
0010
0000
0000
0000
,
1000
0000
0000
0000
0001
0000
0000
0000
1000
0000
0000
0000
0100
0000
0000
0000
0000
0000
0000
0000
0010
0000
0000
0000
0001
0000
0000
0000
1000
0000
0000
0000
0010
0000
0000
0000
0100
0000
0000
0001
0000
0000
0100
0000
0000
0001
0000
0000
,
1000
0001
1000
0100
0000
0010
0001
1000
0010
0000
0000
0000
,
1000
0001
1000
0100
0000
0010
0001
1000
0010
0000
0000
0000
,
1000
0001
1000
0100
0000
0010
0001
1000
0010
0000
0000
0000
,
1000
0001
1000
0100
0000
0010
0001
1000
0010
0000
0000
0000
,
0000
0000
0000
0000
,
0000
0000
0000
0000
,
0000
0000
0000
0000
,
0000
0000
0000
0000
0001
0010
0001
0010
0100
1000
0100
1000
0002
0000
0003
0000
,
1001
0001
1000
0010
2000
0000
3010
0200
,
0000
0310
1000
0010
2000
0000
3100
0020
,
0000
0130
1000
0001
0100
0010
0100
0020
,
0000
2030
0000
3000
0000
0002
0000
0023
,
0000
0000
0130
2000
0000
0000
3010
0200
,
0000
0302
0000
2003
0000
0000
3200
0310
,
0200
0000
1000
2000
0000
0000
0000
0000
,
0000
0000
0300
0000
3100
0010
0100
1000
0001
1000
0001
0100
0020
0000
0030
0000
,
1000
0001
0010
0100
0010
0100
1000
0001
0010
0100
1000
0001
0010
0001
0100
0001
,
0100
0010
1000
0001
1000
0001
0100
0001
1000
0100
0010
0001
0010
0001
0100
0010
,
1000
0001
0100
0001
0100
0010
1000
0001
0100
0001
0100
0010
1000
0001
1000
0100
,
0010
0001
0100
0001
0100
0010
1000
0010
0100
0001
1000
0100
1000
0001
0010
0001
,
1000
0010
0100
0001
1000
0100
1000
0100
0010
0001
1000
0010
0100
0001
0100
0010
,
1000
0001
1000
0010
0100
0001
0010
0100
1000
0001
0010
0001
1000
0010
0100
0001
,
1000
0001
0100
0010
1000
0100
1000
0001
0010
0001
1000
0100
0010
0001
1000
0001
,
0010
0100
0010
0100
1000
0100
1000
0100
1000
0001
1000
0001
0200
0000
0300
0000
,
0001
0010
0100
1000
0100
1000
0001
1000
0100
0010
0001
1000
0100
1000
0010
1000
,
0010
0100
0001
1000
0001
1000
0010
1000
0001
0010
0100
1000
0100
1000
0010
0100
,
0001
1000
0010
1000
0010
0100
0001
1000
0010
1000
0010
0100
0001
1000
0001
0010
,
0100
1000
0010
1000
0010
0100
0001
0100
0010
1000
0001
0010
0001
1000
0100
1000
,
0001
0100
0010
1000
0001
0010
0001
0010
0100
1000
0001
0100
0010
1000
0010
0100
,
0001
1000
0001
0100
0010
1000
0100
0010
0001
1000
0100
1000
0001
0100
0010
1000
,
0001
1000
0010
0100
0001
0010
0001
1000
0100
1000
0001
0010
0100
1000
0010
0100
,
0001
1000
0001
1000
0100
0010
0100
0010
0001
1000
0010
0100
0002
0000
0003
0000
,
1000
0001
0010
0100
1000
0100
0010
0001
1000
0010
0100
0001
1000
0001
0100
0010
,
1000
0100
0010
0001
1000
0100
1000
0001
1000
0010
0100
0010
1000
0001
0010
0001
,
1000
0010
0100
0001
1000
0001
0100
0010
1000
0001
0010
0100
1000
0010
1000
0001
,
0100
0001
1000
0100
0010
0001
1000
0100
1000
0001
0100
0001
0010
0100
0010
0100
,
1000
0001
0010
0001
1000
0100
1000
0001
0100
0010
1000
0010
0100
0001
1000
0100
,
0010
0001
0100
0010
1000
0001
1000
0100
0010
0001
1000
0001
1000
0010
0100
0001
,
1000
0100
1000
0100
0010
0001
0100
0010
1000
0100
1000
0100
0010
0001
0100
0010
,
1000
0001
1000
0001
0010
0001
0100
0010
1000
0100
0010
0001
2000
0000
3000
0000
,
0001
1000
0100
1000
0001
0100
0001
1000
0100
0010
0001
0010
0100
1000
0001
1000
,
0010
0100
0001
1000
0100
0010
0100
1000
0010
0100
0001
1000
0100
1000
0001
0010
,
0001
1000
0100
1000
0001
0100
0001
1000
0100
0010
0001
0010
0100
1000
0001
1000
,
0001
0100
0010
1000
0100
0010
0001
1000
0010
0100
0010
0000
1000
0000
1000
0000
,
0200
1300
0001
0002
0103
0001
0010
0020
,
0130
2000
3010
0200
0301
1000
0200
0310
,
0100
1000
0100
1000
0010
1000
0010
1000
0001
0100
0010
1000
0001
1000
0010
0100
,
0004
0000
0000
0000
0000
0000
0000
0003
,
2002
0000
0000
0000
,
0000
0000
0000
0000
,
3003
0000
0000
0000
;

//---------------dance-single - 16 (TYLR)----------------
#NOTES:
     dance-single:
     16 (TYLR):
     Challenge:
     16:
     1.000,1.000,0.179,0.266,1.000,2471.000,45.000,67.000,23.000,0.000:
0000
0000
0000
0000
,
1MM1
1000
0000
0020
0100
0000
1030
0000
,
0101
0001
0000
0020
0130
0000
1000
0000
,
1001
1000
0000
0020
0100
0000
1000
0000
,
0130
0000
00M1
0000
0010
0000
0000
0000
0100
0000
0000
0000
1000
0100
1000
0100
,
0010
0001
0000
0200
0010
0000
0301
0000
,
0011
0010
0000
0200
1300
0000
0010
0000
,
1001
1000
0000
0020
0100
0000
1000
0000
,
0130
0000
0M01
0000
0010
0000
0000
0000
0100
1000
0100
0000
0010
0000
0001
0000
,
1MM1
1000
0000
0020
0100
0000
1030
0000
,
0101
0001
0000
0020
0130
0000
1000
0000
,
1001
1000
0000
0020
0100
0000
1000
0000
,
0130
0000
00M1
0000
0010
0000
0000
0000
0100
0000
0000
0000
1000
0100
1000
0100
,
001M
0001
0000
1000
0000
0010
0000
0100
,
0000
0010
0000
1000
0000
0100
0000
0010
,
0001
0010
0001
0010
0100
0010
0100
0010
0100
1000
0100
1000
0001
1000
0001
1000
,
0001
0100
0010
1000
0001
1000
0010
0100
0001
0010
0100
1000
0010
0100
0001
0000
,
2MM2
0000
3003
0000
0220
0000
0330
0000
0201
0000
0301
0000
1000
0000
0001
0100
,
0010
1000
0000
0001
1000
0010
0100
0001
0000
0000
1001
0000
0000
0000
0001
0000
,
0022
0000
0033
0000
2200
0000
3300
1000
0001
1000
0000
0010
0000
0000
0100
0000
,
0001
0010
0000
0001
1000
0001
1000
0010
0000
0000
0101
0000
0001
1000
0001
1000
,
0100
M00M
0100
0000
0001
0000
0010
0000
0100
M00M
0100
0000
0001
0000
1000
0000
,
0010
M00M
0020
0000
0031
0000
0100
0000
0010
1000
0000
0010
0100
0000
0001
0000
,
1001
0000
0000
0000
0000
0000
0000
0000
0000
0000
M000
0000
0M20
0000
0000
000M
0000
0000
0130
0000
0000
0000
0000
0000
1001
0000
0000
0000
0000
0000
0000
0000
0000
0000
M000
0000
0M20
0000
0000
000M
0000
0000
0130
0000
0000
0000
0000
0000
,
1000
0001
1000
0001
0100
0000
0010
0000
1000
0001
1000
0000
0100
0000
0010
0001
,
1000
0000
0100
0000
0010
0100
0000
0010
0001
0000
1000
0000
0001
0010
0000
0010
,
0100
0000
1000
0000
0001
1000
0000
0001
0100
0000
0010
0000
1000
0000
0010
0000
,
0100
0000
0001
0000
1000
0001
0000
1000
0100
0000
0010
0000
0001
1000
0000
1000
,
0010
0000
0000
0000
0000
0000
0100
0000
0000
0000
0000
0000
0001
0000
0000
0100
0000
0000
0000
0000
0000
0001
0000
0000
1000
0000
0000
0000
0000
0000
0100
0000
0000
0000
0000
0000
0010
0000
0000
0100
0000
0000
1000
0000
0001
0000
1000
0000
,
0001
0000
0010
0100
1000
0010
1000
0001
0100
0010
1000
0001
0010
0001
1000
0010
,
0100
0001
0010
0001
1000
0010
0100
0001
0010
0100
1000
0100
0010
0001
0100
0010
,
1000
0001
1000
0001
1000
0100
1000
0100
0010
0001
0010
0001
1000
0010
0100
0001
,
0010
0000
0000
0001
0000
0000
0100
0000
0000
0010
0000
0000
1000
0000
0000
0010
0000
0000
0100
0000
0000
0001
0000
0000
1000
0000
0001
0000
1000
0000
0001
0000
0000
0000
0000
0000
2001
0000
0000
0000
0000
0000
3000
0000
0000
0000
0000
0000
,
1001
0000
0000
0000
0001
0000
1000
0000
0001
0000
0000
0000
1000
0100
1000
0100
,
0010
0001
0100
0010
1000
0001
0010
0001
0100
0010
1000
0100
0010
0001
1000
0001
,
0100
0010
1000
0001
0010
0001
1000
0010
0100
0001
0010
0100
1000
0001
1000
0010
,
1000
0100
0010
0001
1000
0010
0100
0001
0010
0100
1000
0100
0010
0001
0100
0010
,
1000
0001
0010
0001
0100
0001
0010
0001
0100
0010
1000
0100
0010
0001
1000
0001
,
0010
0100
1000
0001
0100
0010
1000
0010
0100
0001
1000
0001
0010
0100
1000
0100
,
0010
0001
0100
0010
1000
0100
0010
0001
1000
0001
0010
0100
1000
0001
0100
0001
,
0010
0100
0010
0100
1000
0100
0010
0001
0100
0010
1000
0001
0010
0001
1000
0010
,
0100
0010
1000
0100
0010
0001
1000
0010
0100
0001
0100
0001
1000
0000
0100
0000
,
1000
0001
0100
0010
1000
0100
0010
0001
1000
0001
0010
0100
1000
0001
1000
0010
,
0100
0010
1000
0001
0010
0001
1000
0010
0100
0001
1000
0100
0010
0001
1000
0001
,
0010
0100
1000
0001
1000
0010
0100
0001
1000
0100
1000
0001
0100
0001
0010
0100
,
1000
0010
0100
0001
1000
0001
0100
0010
1000
0100
0010
0001
1000
0001
1000
0001
,
1000
0010
0100
0001
0010
0001
1000
0100
1000
0010
0100
0001
0010
0100
0010
0001
,
0100
0010
1000
0001
0010
0001
1000
0100
1000
0001
0100
0010
1000
0100
0010
0001
,
0100
0010
0100
0010
1000
0010
0100
0001
1000
0100
0010
0001
0100
0010
0100
0001
,
1000
0000
0000
0100
0000
0000
0010
0000
0000
0001
0000
0000
1000
0000
0000
0010
0000
0000
0100
0000
0000
0001
0000
0000
1000
0000
0001
0000
1000
0000
0001
0000
0000
0000
0000
0000
1000
0000
0000
0000
0000
0000
0000
0000
0000
0000
0000
0000
,
1001
0000
0000
0000
0011
0000
0000
0000
1100
0000
1000
0000
0001
0000
0100
0001
,
1000
0000
0100
1000
0001
0000
0100
0001
1000
0000
0100
1000
0001
0000
0100
0001
,
0010
0000
0000
0000
1100
0000
0000
0000
0011
0000
0001
0000
1000
0000
0010
1000
,
0001
0000
0010
0001
1000
0000
0010
1000
0100
0010
0001
0000
1000
0000
0001
0100
,
0010
0000
0000
0000
1010
0000
0000
0000
0101
0000
0001
0000
1000
0000
0100
1000
,
0001
0000
0100
0001
1000
0000
0100
1000
0001
0000
0100
0001
1000
0000
0100
1000
,
0010
0000
0000
0000
0101
0000
0000
0000
1010
0000
1000
0000
0001
0000
0010
0001
,
1000
0000
0010
1000
0001
0000
0010
0001
0100
0001
0100
0000
0010
0000
0100
0000
,
0101
0000
0001
0000
1000
0000
0100
0000
1000
0000
0010
0000
0100
0000
0010
1000
,
0001
0000
0010
0000
0100
0000
0010
0000
0001
0100
0000
0010
1000
0000
1100
0000
,
0100
0000
1100
0000
1000
0000
0010
0000
0100
0000
0101
0000
0001
0000
1000
0100
,
0010
0000
0001
0000
0100
0000
0110
0000
0010
1000
0010
1000
0001
0000
1001
0000
,
1000
0100
1000
0100
0010
0001
0010
0001
1000
0010
1000
0010
0100
0001
0100
0001
,
1000
0100
0010
0100
1000
0001
0010
0001
1000
0100
1000
0001
1000
0010
0100
0001
,
1000
0001
0100
0010
1000
0010
0100
0001
1000
0100
0010
0001
1000
0001
0010
0100
,
1000
0000
0000
0010
0000
0000
0100
0000
0000
0001
0000
0000
0010
0000
0000
0001
0000
0000
0100
0000
0000
0010
0000
0000
1000
0000
0001
0000
1000
0000
0001
0000
0000
0000
0000
0000
1001
0000
0000
0000
0000
0000
0000
0000
0000
0000
0000
0000
,
10M1
0000
1000
0100
1000
0100
0010
0000
0001
0000
1000
0100
1000
0100
0010
0000
0001
0000
1000
0100
1000
0100
0010
0000
0001
0000
1000
0000
0100
0000
1000
0000
,
0010
0000
0100
0001
0100
0001
1000
0000
0010
0000
0100
0001
0100
0001
1000
0000
0010
0000
0100
0001
0100
0001
1000
0000
0010
0000
0100
0000
0010
0000
1000
0000
,
0001
0000
0010
0100
0010
0100
1000
0000
0001
0000
0010
0100
0010
0100
1000
0000
0001
0000
0010
0100
0010
0100
1000
0000
0001
0000
1000
0000
0010
0000
0100
0000
,
0001
0000
0000
0000
0000
0000
0000
0000
0000
0000
0000
0000
1000
0000
0000
0000
0000
0000
0100
0000
0000
0000
0000
0000
1000
0000
0000
0000
0000
0000
0100
0000
0000
0000
0000
0000
0010
0000
0000
0000
0000
0000
0000
0000
0000
0000
0000
0000
0001
0000
0000
0000
0000
0000
0000
0000
0000
0000
0000
0000
1000
0000
0000
0000
0000
0000
0100
0000
0000
0000
0000
0000
1000
0000
0000
0000
0000
0000
0100
0000
0000
0000
0000
0000
0010
0000
0000
0000
0000
0000
0000
0000
0000
0000
0000
0000
0001
0000
0000
0000
0000
0000
0000
0000
0000
0000
0000
0000
0000
0000
0000
0000
0000
0000
0000
0000
0000
0000
0000
0000
1000
0000
0000
0000
0000
0000
0001
0000
0000
0000
0000
0000
1000
0000
0000
0000
0000
0000
0001
0000
0000
0000
0000
0000
1000
0000
0000
0000
0000
0000
0001
0000
0000
0000
0000
0000
1000
0000
0000
0000
0000
0000
0001
0000
0000
0000
0000
0000
0020
0000
0000
0000
0000
0000
0000
0000
0000
0000
0000
0000
0000
0030
0000
0000
0000
0000
0000
0000
0000
0000
0000
0000
,
1100
1000
1000
0001
2000
0000
3010
0200
,
0000
0310
1000
0010
2000
0000
3100
0020
,
0000
0130
1000
0001
1000
1000
0010
0020
,
0000
0230
0000
0300
0000
0002
0000
0023
,
0000
0000
0130
0200
0000
0000
1300
2000
,
0000
3020
0000
0230
0000
0000
0302
0103
,
0001
0100
0010
1000
0100
0010
0100
1000
0001
1000
0100
0010
0001
1000
0100
1000
,
0001
0100
0010
1000
0100
1000
0010
0100
0001
1000
0001
1000
0002
0000
0003
0000
,
1000
0100
0010
0001
0010
0001
1000
0001
0010
0100
1000
0001
0010
0001
0100
0001
,
0100
0010
1000
0001
1000
0001
0100
0001
1000
0100
0010
0001
0010
0001
0100
0010
,
1000
0001
0100
0001
0100
0010
1000
0001
0100
0001
0100
0010
1000
0001
1000
0100
,
0010
0001
0100
0001
0100
0010
1000
0010
0100
0001
1000
0100
1000
0001
0010
0001
,
1000
0010
0100
0001
1000
0100
1000
0100
0010
0001
1000
0010
0100
0001
0100
0010
,
1000
0001
1000
0010
0100
0001
0010
0100
1000
0001
0010
0001
1000
0010
0100
0001
,
1000
0001
0100
0010
1000
0100
1000
0001
0010
0001
1000
0100
0010
0001
1000
0001
,
0010
0000
0000
0000
0000
0000
0000
0000
0000
0000
0000
0000
0100
0000
0000
0000
0000
0000
0000
0000
0000
0000
0000
0000
0010
0000
0000
0000
0000
0000
0000
0000
0000
0000
0000
0000
0100
0000
0000
0000
0000
0000
0000
0000
0000
0000
0000
0000
1000
0000
0000
0000
0000
0000
0000
0000
0000
0000
0000
0000
0100
0000
0000
0000
0000
0000
0000
0000
0000
0000
0000
0000
1000
0000
0000
0000
0000
0000
0000
0000
0000
0000
0000
0000
0100
0000
0000
0000
0000
0000
0000
0000
0000
0000
0000
0000
1000
0000
0000
0000
0000
0000
0000
0000
0000
0000
0000
0000
0001
0000
0000
0000
0000
0000
0000
0000
0000
0000
0000
0000
1000
0000
0000
0000
0000
0000
0000
0000
0000
0000
0000
0000
0001
0000
0000
0000
0000
0000
0000
0000
0000
0000
0000
0000
0200
0000
0000
0000
0000
0000
0000
0000
0000
0000
0000
0000
0000
0000
0000
0000
0000
0000
0000
0000
0000
0000
0000
0000
0001
0300
0000
0000
0000
0000
0000
0000
0000
0000
0000
0000
0000
0000
0000
0000
0000
0000
0000
0000
0000
0000
0000
0000
,
1000
0100
0010
0001
0010
0001
1000
0001
0010
0100
1000
0001
0010
0001
0100
0001
,
0100
0010
1000
0001
1000
0001
0100
0001
1000
0100
0010
0001
0010
0001
0100
0010
,
1000
0001
0100
0001
0100
0010
1000
0001
0100
0001
0100
0010
1000
0001
1000
0100
,
0010
0001
0100
0001
0100
0010
1000
0010
0100
0001
1000
0100
1000
0001
0010
0001
,
1000
0010
0100
0001
1000
0100
1000
0100
0010
0001
1000
0010
0100
0001
0100
0010
,
1000
0001
1000
0010
0100
0001
0010
0100
1000
0001
0010
0001
1000
0010
0100
0001
,
1000
0001
0100
0010
1000
0100
1000
0001
0010
0001
1000
0100
0010
0001
0100
0010
,
1000
0000
0000
0000
0000
0000
0000
0000
0000
0000
0000
0000
0001
0000
0000
0000
0000
0000
0000
0000
0000
0000
0000
0000
1000
0000
0000
0000
0000
0000
0000
0000
0000
0000
0000
0000
0001
0000
0000
0000
0000
0000
0000
0000
0000
0000
0000
0000
0010
0000
0000
0000
0000
0000
0000
0000
0000
0000
0000
0000
0100
0000
0000
0000
0000
0000
0000
0000
0000
0000
0000
0000
0010
0000
0000
0000
0000
0000
0000
0000
0000
0000
0000
0000
0100
0000
0000
0000
0000
0000
0000
0000
0000
0000
0000
0000
1000
0000
0000
0000
0000
0000
0000
0000
0000
0000
0000
0000
0001
0000
0000
0000
0000
0000
0000
0000
0000
0000
0000
0000
0100
0000
0000
0000
0000
0000
0000
0000
0000
0000
0000
0000
0010
0000
0000
0000
0000
0000
0000
0000
0000
0000
0000
0000
2000
0000
0000
0000
0000
0000
0000
0000
0000
0000
0000
0000
0000
0000
0000
0000
0000
0000
0000
0000
0000
0000
0000
0000
0000
3000
0000
0000
0000
0000
0000
0000
0000
0000
0000
0000
0000
0000
0000
0000
0000
0000
0000
0000
0000
0000
0000
0000
,
0001
1000
0100
0010
0001
0010
0100
1000
0001
0100
0010
1000
0001
1000
0010
0100
,
0001
0010
0100
1000
0001
0010
0001
1000
0001
0100
0010
0100
0001
1000
0100
1000
,
0001
0100
0010
1000
0001
1000
0010
0100
0001
1000
0100
0010
0001
0100
0001
1000
,
0010
1000
0001
0010
0100
1000
0001
0010
0001
1000
0010
1000
0100
0010
0100
0010
,
0001
1000
0100
1000
0001
0010
0001
1000
0010
0100
0001
0100
0010
1000
0001
0010
,
0100
1000
0010
0100
0001
1000
0001
0010
0100
1000
0001
1000
0001
0100
0010
1000
,
0001
0010
0001
0010
0100
1000
0010
0100
0001
0010
0001
0010
0100
1000
0010
0100
,
0001
1000
0001
1000
0100
1000
0010
0100
0001
0010
0100
1000
0010
0100
0010
0100
,
0001
1000
0100
1000
0001
0100
0001
1000
0100
0010
0001
0010
0100
1000
0001
1000
,
0010
0100
0001
1000
0100
0010
0100
1000
0010
0100
0001
1000
0100
1000
0001
0010
,
0001
1000
0100
1000
0001
0100
0001
1000
0100
0010
0001
0010
0100
1000
0001
1000
,
0001
0100
0010
1000
0100
0010
0001
1000
0001
0100
0010
1000
0001
1000
0001
1000
,
0001
1000
0010
1000
0001
0010
0001
1000
0010
0100
0001
0100
0010
1000
0001
0010
,
0100
1000
0001
0100
0001
1000
0100
1000
0001
0100
0010
1000
0001
1000
0010
0100
,
0001
0010
0100
1000
0001
1000
0100
0010
0001
1000
0001
0100
0010
1000
0010
1000
,
0001
0000
0000
1001
0000
0000
1001
0000
0000
1001
0000
0000
0001
1000
0001
1000
0000
0000
0200
0000
0000
0300
0000
0000
,
0011
0000
0001
1000
0100
1000
0001
0010
0001
1000
0100
1000
0001
0100
0010
1000
,
0001
1000
0100
1000
0001
0010
0100
1000
0001
0100
0001
0010
0100
1000
0001
0100
,
0010
1000
0010
0100
0001
1000
0001
1000
0100
0010
0100
1000
0001
0010
0001
1000
,
0001
0100
0010
0100
0001
1000
0001
0100
0010
1000
0100
0010
0001
0000
0001
0000
,
0100
0001
1000
0001
1000
0010
0100
0001
1000
0100
0010
0001
0100
0001
1000
0001
,
0010
0100
1000
0001
0010
0001
1000
0010
0100
0001
0010
0100
1000
0001
0010
0001
,
1000
0010
0100
0001
1000
0001
0010
0100
1000
0010
0100
0001
1000
0100
0010
0001
,
1000
0000
0001
0000
0010
0000
0001
0000
1000
0000
0100
0000
0010
0000
0001
0000
0100
0000
0001
0000
0100
0000
0001
0000
0200
0000
0000
0000
0000
0000
0000
0300
,
1010
0000
0010
1000
0001
1000
0100
0010
0001
1000
0100
1000
0001
0100
0010
1000
,
0001
1000
0100
1000
0001
0010
0100
1000
0001
0100
0001
0010
0100
1000
0001
0100
,
0010
1000
0010
0100
0001
1000
0001
1000
0100
0010
0100
1000
0001
0010
0001
1000
,
0001
0100
0010
0100
0001
1000
0001
0100
0010
1000
0100
0010
0001
0000
0001
0000
,
0100
0001
1000
0001
1000
0010
0100
0001
1000
0100
0010
0001
0100
0001
1000
0001
,
0010
0100
1000
0001
0010
0001
1000
0010
0100
0001
0010
0100
1000
0001
0010
0001
,
1000
0010
0100
0001
1000
0001
0010
0100
1000
0010
0100
0001
1000
0100
0010
0001
,
1000
0000
0001
0000
0010
0000
0001
0000
1000
0000
0100
0000
0010
0000
0001
0000
0100
0000
0001
0000
0100
0000
0001
0000
0200
0000
0000
0000
0000
0000
0000
0300
,
1010
0000
1000
0000
0001
0010
0100
1000
0001
1000
0010
0100
0001
0010
0100
1000
,
0001
0100
0010
1000
0001
1000
0100
0010
0001
0100
0010
1000
0001
1000
0010
0100
,
0001
1000
0001
0100
0010
1000
0001
1000
0100
1000
0010
0100
0001
1000
0100
0010
,
0100
1000
0001
0100
0010
0100
0001
1000
0001
0010
0100
1000
0001
1000
0001
1000
,
0002
0000
1003
0100
1000
0001
0010
0001
1000
0010
0100
0001
1000
0001
1000
0100
,
0010
0001
0100
0010
0100
0001
1000
0001
1000
0100
0010
0001
1000
0001
1000
0100
,
0010
0001
0010
0001
0100
0010
1000
0001
1000
0100
0010
0100
1000
0001
0010
0001
,
0100
0010
1000
0010
0100
0001
1000
0001
0010
0100
0010
0100
1000
0000
0100
0000
,
0110
0000
0010
0001
1000
0001
0100
0001
1000
0010
0100
0001
1000
0100
0010
0100
,
1000
0001
1000
0100
0010
0001
0100
0001
0100
0010
1000
0001
1000
0010
1000
0100
,
0010
0100
1000
0010
0100
0001
1000
0001
1000
0100
1000
0001
0010
0001
1000
0010
,
0100
0001
1000
0001
1000
0100
1000
0010
0100
0010
1000
0100
0010
0001
0010
0001
,
0100
0001
1000
0001
0100
0010
1000
0010
0100
0001
0100
0010
1000
0001
0010
0100
,
1000
0001
1000
0100
0010
0001
1000
0001
1000
0010
0100
0001
1000
0001
0100
0010
,
1000
0001
1000
0100
0010
0001
0010
0100
1000
0001
1000
0001
0100
0010
1000
0001
,
1000
0000
0000
0000
0100
0000
0000
0000
0010
0000
0000
0000
0001
0000
0000
0000
0000
0000
0000
0000
1000
0000
0000
0000
0010
0000
0000
0000
0100
0000
0000
0000
0001
0000
0000
0000
1000
0000
0000
0001
0000
0000
1000
0000
0000
0001
0000
0000
,
1000
0100
0010
0001
0000
1000
0010
0100
0001
0000
0000
0000
,
1000
0100
0010
0001
0000
1000
0010
0100
0001
0000
0000
0000
,
1000
0100
0010
0001
0000
1000
0010
0100
0001
0000
0000
0000
,
1000
0100
0010
0001
0000
1000
0010
0100
0001
0000
0000
0000
,
1000
0100
0010
0100
0010
0000
0001
0200
,
0000
0320
0000
2030
0000
0000
3001
0000
,
0002
0000
0013
0020
0000
0000
0000
0000
,
0000
0000
0000
0000
0031
0010
0001
0010
0100
1000
0100
1000
0002
0000
0003
0000
,
1001
0001
0001
0100
0002
0000
0103
0020
,
0000
0130
0001
0100
0002
0000
0013
0200
,
0000
0310
0001
1000
0001
0001
0100
0200
,
0000
0320
0000
0030
0000
2000
0000
3200
,
0000
0000
0310
0020
0000
0000
0031
0002
,
0000
0203
0000
0320
0000
0000
2030
3010
,
1000
0010
0100
0001
0010
0100
0010
0001
1000
0001
0010
0100
1000
0001
0010
0001
,
1000
0010
0100
0001
0010
0001
0100
0010
1000
0001
1000
0001
2000
0000
3000
0000
,
0001
0010
0100
1000
0100
1000
0001
1000
0100
0010
0001
1000
0100
1000
0010
1000
,
0010
0100
0001
1000
0001
1000
0010
1000
0001
0010
0100
1000
0100
1000
0010
0100
,
0001
1000
0010
1000
0010
0100
0001
1000
0010
1000
0010
0100
0001
1000
0001
0010
,
0100
1000
0010
1000
0010
0100
0001
0100
0010
1000
0001
0010
0001
1000
0100
1000
,
0001
0100
0010
1000
0001
0010
0001
0010
0100
1000
0001
0100
0010
1000
0010
0100
,
0001
1000
0001
0100
0010
1000
0100
0010
0001
1000
0100
1000
0001
0100
0010
1000
,
0001
1000
0010
0100
0001
0010
0001
1000
0100
1000
0001
0010
0100
1000
0001
1000
,
0100
0010
0100
0010
0001
0010
0001
0010
0001
1000
0001
1000
0020
0000
0030
0000
,
1000
0100
0010
0001
0010
0001
1000
0001
0010
0100
1000
0001
0010
0001
0100
0001
,
0100
0010
1000
0001
1000
0001
0100
0001
1000
0100
0010
0001
0010
0001
0100
0010
,
1000
0001
0100
0001
0100
0010
1000
0001
0100
0001
0100
0010
1000
0001
1000
0100
,
0010
0001
0100
0001
0100
0010
1000
0010
0100
0001
1000
0100
1000
0001
0010
0001
,
1000
0010
0100
0001
1000
0100
1000
0100
0010
0001
1000
0010
0100
0001
0100
0010
,
1000
0001
1000
0010
0100
0001
0010
0100
1000
0001
0010
0001
1000
0010
0100
0001
,
1000
0001
0100
0010
1000
0100
1000
0001
0010
0001
1000
0100
0010
0001
0100
0010
,
1000
0001
1000
0001
0010
0100
0010
0100
1000
0001
0100
0010
2000
0000
3000
0000
,
0001
1000
0100
0010
0001
0010
0100
1000
0001
0100
0010
1000
0001
1000
0010
0100
,
0001
0010
0100
1000
0001
0010
0001
1000
0001
0100
0010
0100
0001
1000
0100
1000
,
0001
0100
0010
1000
0001
1000
0010
0100
0001
1000
0100
0010
0001
0100
0001
1000
,
0010
1000
0001
0010
0100
1000
0001
0010
0001
1000
0010
1000
0100
0010
0100
0010
,
0001
1000
0100
1000
0001
0010
0001
1000
0010
0100
0001
0100
0010
1000
0001
0010
,
0100
1000
0010
0100
0001
1000
0001
0010
0100
1000
0001
1000
0001
0100
0010
1000
,
0001
0010
0001
0010
0100
1000
0010
0100
0001
0010
0001
0010
0100
1000
0010
0100
,
0001
0000
1000
0000
0001
0000
1000
0000
0100
0000
1000
0000
0010
0000
0100
0000
0001
0000
0010
0000
0100
0000
1000
0000
0020
0030
0100
0000
0010
0000
1000
0000
,
0001
1000
0100
1000
0001
0100
0001
1000
0100
0010
0001
0010
0100
1000
0001
1000
,
0010
0100
0001
1000
0100
0010
0100
1000
0010
0100
0001
1000
0100
1000
0001
0010
,
0001
1000
0100
1000
0001
0100
0001
1000
0100
0010
0001
0010
0100
1000
0001
1000
,
0001
0100
0010
1000
0100
0010
0001
1000
0001
0100
0010
1000
0001
1000
0001
1000
,
0001
1000
0010
1000
0001
0010
0001
1000
0010
0100
0001
0100
0010
1000
0001
0010
,
0100
1000
0001
0100
0001
1000
0100
1000
0001
0100
0010
1000
0001
1000
0010
0100
,
0001
0010
0100
1000
0001
1000
0100
0010
0001
1000
0001
0100
0010
1000
0010
1000
,
0100
0010
0100
1000
0010
0100
0001
0100
0010
1000
0100
0010
0001
0100
0010
1000
,
0002
0000
0000
0000
,
0003
0000
0000
0000
;
