#TITLE:YOU;
#SUBTITLE:Shuffle! Animation OP theme;
#ARTIST:YURIA;
#TITLETRANSLIT:;
#SUBTITLETRANSLIT:;
#ARTISTTRANSLIT:;
#CREDIT:ALICE_;
#BANNER:YOU.png;
#BACKGROUND:YOU.jpg;
#LYRICSPATH:;
#CDTITLE:cdtitle.png;
#MUSIC:YOU.mp3;
#OFFSET:0.335;
#SAMPLESTART:55.354;
#SAMPLELENGTH:12.000;
#SELECTABLE:YES;
#BPMS:0.000=130.000;
#STOPS:;
#BGCHANGES:0.000=YOU.avi=1.000=1=1=0,
194.500=YOU.jpg=1.000=1=0=1,
99999=-nosongbg-=1.000=0=0=0 // don't automatically add -songbackground-
;
// cache tags:
#FIRSTBEAT:1.000;
#LASTBEAT:195.750;
#SONGFILENAME:Songs/alice 4th complete step/YOU/YOU.sm;
#HASMUSIC:1;
#HASBANNER:1;
#MUSICLENGTH:91.019;
// end cache tags

//---------------dance-single - ----------------
#NOTES:
     dance-single:
     :
     Medium:
     8:
     0.581,0.589,0.308,0.044,0.038,338.000,28.000,4.000,0.000,0.000:
0000
0000
0000
0000
,
1000
0001
0100
0010
1000
0100
0010
0001
,
0100
0010
1000
0010
0100
0001
0010
0000
,
0100
0010
0001
1000
0010
0100
0001
1000
,
0100
0010
0001
1000
0010
0100
0002
2000
,
0000
0000
0000
3003
,
1000
0001
1000
0001
0100
0001
0010
0000
,
0100
1000
0100
1000
0001
0100
0010
0000
,
1000
0100
1000
0100
0010
0001
0100
0000
,
0001
0100
0001
0100
0010
1000
0001
0000
,
1000
0100
0100
1000
0010
0100
0010
1000
,
0001
0010
0010
0100
0010
0001
1000
0010
,
0100
0001
0001
1000
0100
1000
0010
0100
,
0001
0000
1000
0000
1000
0000
0010
0000
0100
0001
0000
1000
0000
0010
0000
0000
,
0100
0001
1000
0100
1000
0001
0100
0000
,
0001
1000
0100
1000
0001
0100
0001
0000
,
1000
0010
1000
0001
0010
0001
0100
0010
,
1000
0100
0010
0001
0010
0100
1000
0000
,
0010
1000
0001
0010
0001
1000
0010
0000
,
0100
0001
1000
0100
1000
0001
0100
0000
,
0001
0010
0001
1000
0010
1000
0100
0010
,
0001
0100
0010
1000
0001
0010
0100
0000
,
1100
1100
1000
0010
0100
0001
0010
0001
,
0101
0101
0001
0010
0001
0100
0010
1000
,
1010
1010
0010
0100
0001
1000
0100
0010
,
0011
0011
0001
0100
0010
1000
0001
0100
,
1001
1001
0100
0010
1000
0100
1000
0010
,
0110
0110
0001
1000
0010
0100
0001
0010
,
0011
0011
0100
1000
0010
0100
0001
1000
,
0020
0000
0030
0000
,
0000
0000
0000
0000
1100
0001
1000
0000
,
0101
1000
0010
0000
0100
0001
1000
0100
,
0010
0001
0100
0000
0101
1000
0001
0000
,
1100
0001
0010
0000
0100
1000
0010
0100
,
0001
1000
0100
0000
0011
0100
1000
0000
,
1010
0100
0001
0000
1000
0100
0001
0100
,
1000
0010
0100
0000
0101
0010
1000
0000
,
1100
0010
0001
0000
0100
0010
1000
0001
,
0010
0100
1000
0001
1001
0100
0010
1000
,
0001
0100
0001
0100
0010
1000
0001
1000
,
0100
0010
0001
0100
1001
0001
0100
0010
,
1000
0100
1000
0100
0010
0001
1000
0001
,
0100
0010
1000
0001
0110
0010
0001
0100
,
0010
1000
0010
1000
0100
0010
0100
1000
,
0001
0100
0010
1000
0101
0001
0010
0100
,
1100
1000
0010
0100
1001
0001
0100
0010
,
1000
0100
1000
0001
0100
0010
0100
0010
,
0001
0000
0010
0000
1000
0000
0100
0000
0010
0001
0100
0010
0000
1000
0100
0020
,
0000
0000
0000
0030
;

//---------------dance-single - ----------------
#NOTES:
     dance-single:
     :
     Hard:
     10:
     1.000,0.914,0.231,0.099,1.000,647.000,21.000,9.000,0.000,0.000:
0000
0000
0000
0000
,
0100
0001
0010
0001
1000
0010
0100
0010
,
1000
0100
0010
0001
0001
0100
0010
0000
,
0001
1000
0100
1000
0010
0100
0001
0010
,
0100
1000
0001
0100
0100
0010
2000
0002
,
0000
0000
0000
3003
,
0100
1000
0100
1000
0010
0100
0001
0010
0001
0010
0100
1000
0010
0100
0001
0000
,
0100
0001
0100
0001
0010
0100
1000
0010
1000
0010
0100
0001
0010
0100
1000
0000
,
0010
0100
0010
0100
0001
0010
0100
1000
0100
1000
0010
0100
0001
1000
0100
0000
,
1000
0001
1000
0001
0100
0010
1000
0100
1000
0001
0100
0010
1000
0100
0010
0000
,
0001
1000
0001
1000
0010
1000
0100
1000
0010
0100
0001
0100
0010
0010
1000
0100
,
1000
0001
1000
0001
0100
0001
0010
0001
0010
0100
1000
0100
0010
0010
0001
0100
,
0010
1000
0010
1000
0001
1000
0100
1000
0010
0100
0001
1000
0100
0010
0001
0100
,
0001
0010
0001
0010
0001
0100
0010
1000
0000
0101
0000
1100
0000
0110
0000
0000
,
0100
1000
0100
1000
0010
0100
1000
0100
0001
0010
0100
1000
0100
0010
0001
0000
,
0100
0001
0100
0001
0010
0100
0001
0100
1000
0010
0100
0001
0100
0010
1000
0000
,
0001
0100
0001
0100
0001
1000
0001
1000
0010
1000
0010
1000
0010
0100
0010
0100
,
0001
1000
0100
0010
0001
0010
0100
1000
0010
0100
0001
0100
0010
1000
0001
0000
,
0100
0001
0100
0001
0010
0100
0001
0100
1000
0010
0100
0001
0100
0010
1000
0000
,
0100
1000
0100
1000
0010
0100
1000
0100
0001
0010
0100
1000
0001
0100
0010
0000
,
1000
0100
1000
0100
1000
0010
1000
0010
0100
0001
0100
0001
1000
0001
1000
0100
,
0010
0001
0100
0001
1000
0010
0100
0001
0010
0100
1000
0010
0100
0001
0010
0000
,
1100
0000
2100
0000
3001
0000
0100
0001
1000
0100
0001
0100
1000
0010
0100
0000
,
0101
0000
0102
0000
1003
0000
0100
1000
0001
0010
0100
1000
0001
0100
0010
0000
,
1100
0000
2100
0000
3001
0000
0100
0010
1000
0100
0010
0001
1000
0010
0001
0000
,
0101
0000
0102
0000
1003
0000
0010
0100
0001
0010
0100
1000
0001
0100
0010
1000
,
1100
0000
1100
0000
0011
0000
0100
1000
0010
0001
0010
0100
0001
0010
0100
1000
,
0101
0000
0101
0000
1010
0000
0100
0001
0010
1000
0010
0001
1000
0010
0100
0001
,
0011
0000
1010
0000
0101
0000
1000
0100
0010
0010
0100
1000
0001
0100
0010
1000
,
0001
0001
0100
0100
0010
1000
0001
2002
0000
0000
0000
0000
0000
0000
0000
0000
,
0000
0000
0000
0000
0000
0000
3003
0000
0100
1000
0100
1000
0010
0100
0001
0100
,
0010
1000
0010
1000
0100
0010
0001
0010
0100
1000
0001
0100
0001
0010
0001
1000
,
0010
0100
0001
1000
0100
0010
0001
0100
0001
0010
0001
0010
0100
1000
0001
0100
,
0010
1000
0010
1000
0001
0100
0010
1000
0001
0010
0001
0100
0010
1000
0010
0100
,
0001
1000
0100
0010
0001
1000
0010
0100
0001
1000
0001
1000
0100
1000
0010
1000
,
0001
0100
0010
0100
1000
0100
0001
0010
0100
0010
0100
0010
0001
1000
0010
0100
,
0001
1000
0001
0010
0100
1000
0010
1000
0001
0100
0001
0100
0001
0100
0010
1000
,
0100
1000
0100
1000
0100
1000
0010
0100
0001
1000
0001
1000
0010
1000
0100
1000
,
0010
0100
0001
1000
0100
0001
1000
0010
0100
1000
0100
1000
0001
0100
0010
0100
,
0001
0010
0001
0010
0100
1000
0001
0100
0010
1000
0001
1000
0100
1000
0010
1000
,
0001
0100
0010
1000
0100
0010
0100
1000
0001
0010
0001
0010
0100
1000
0001
0100
,
0010
1000
0010
1000
0001
0010
0100
0010
0001
1000
0100
1000
0001
0100
0001
1000
,
0010
0001
0010
0100
0001
1000
0010
1000
0100
0010
0100
0010
0001
0010
0100
1000
,
0010
0100
0010
0100
0001
0100
0010
1000
0001
0010
0001
0100
0010
1000
0001
0100
,
0001
0010
0100
1000
0100
1000
0010
0100
0001
1000
0001
1000
0010
1000
0100
1000
,
0001
1000
0001
1000
0001
0100
0001
0010
0100
1000
0001
0100
0001
1000
0100
0010
,
0001
1000
0100
1000
0010
0001
0010
0100
1000
0001
0010
0100
0001
1000
0001
0010
,
0100
1000
0001
0100
1000
0001
0010
1000
0100
0010
0001
0100
0000
0010
1000
0200
,
0000
0000
0000
0000
0000
0000
0000
0000
0000
0000
0000
0000
0000
0000
0000
0300
;

//---------------dance-single - ----------------
#NOTES:
     dance-single:
     :
     Easy:
     6:
     0.439,0.452,0.143,0.044,0.022,263.000,13.000,4.000,0.000,0.000:
0000
0000
0000
0000
,
1000
0100
0010
0000
0001
0100
0010
0000
,
1000
0001
0100
0010
,
1000
0100
0001
0000
0100
1000
0010
0000
,
0010
0100
0001
2000
,
0000
0000
0000
3000
,
1001
0000
0001
0000
0001
0100
0001
0000
,
1000
0000
1000
0000
1000
0100
1000
0000
,
0010
0000
0100
0000
0001
0010
0001
0000
,
0100
0000
0001
0000
1000
0010
0100
0000
,
1001
0000
1100
0000
1000
0001
0101
0000
,
0010
1000
0001
1000
0010
1000
0100
0000
,
1001
0000
0101
0000
0001
1000
1100
0000
,
0010
0001
1000
0001
0100
0010
1000
0000
,
0001
0000
0001
0000
0100
1000
0010
0000
,
1000
0000
1000
0000
0100
0001
0010
0000
,
1000
0001
0100
0010
,
1000
0000
0101
0000
0010
1000
0001
0000
,
0100
0000
0010
0000
1000
0001
0010
0000
,
0001
0000
1000
0000
0010
0100
0001
0000
,
1000
0001
0010
1000
,
0001
0100
0010
1000
0100
0010
0001
0000
,
1000
0100
0010
0000
1000
0100
1000
0001
,
0100
0010
1000
0000
0001
0100
0001
0010
,
0100
1000
0001
0000
1000
0010
0001
0010
,
0100
0001
1000
0000
0001
0010
1000
0010
,
0001
0001
0100
0000
1000
0010
0100
0010
,
1000
1000
0100
0000
0001
0010
0100
0010
,
0001
0001
1000
0000
0100
0010
0100
1000
,
0020
0000
0030
0000
,
0000
0000
0000
0000
1001
0000
0100
0001
,
1000
0100
0001
0100
1000
0000
1000
0010
,
0001
0000
0010
1000
0100
0000
0100
0001
,
1000
0000
0010
0000
0001
0000
0010
0000
1000
0000
0000
0100
0000
0000
0010
0000
,
0001
0000
0001
1000
0100
0000
0100
1000
,
0010
0001
0010
1000
0100
0000
0010
0001
,
1000
0000
0100
0001
1000
0000
0010
0100
,
0001
0000
1000
0010
0001
0000
0110
0000
,
1000
0001
0100
0001
0010
0000
0100
1000
,
0001
0010
0001
0100
0010
0000
1000
0001
,
0100
0000
0010
1000
0100
0000
0001
0100
,
0001
0000
0010
0000
1000
0000
0010
0000
0100
0000
0000
1000
0000
0000
0001
0000
,
0010
0000
0100
1000
0001
0000
0100
0010
,
1000
0001
0010
0100
1000
0000
0010
0001
,
1000
0000
0100
0001
0010
0000
0100
1000
,
0001
0000
0010
1000
0001
0000
1100
0000
,
0010
0100
0001
0000
1001
0000
0010
0000
,
0010
0000
0000
0000
0010
0000
0000
0000
0100
0000
1000
0000
0000
0010
0000
0202
,
0000
0000
0000
0303
0000
0000
0000
0000
;

//---------------dance-single - Copied from----------------
#NOTES:
     dance-single:
     Copied from:
     Challenge:
     17:
     1.000,1.000,1.000,0.494,1.000,647.000,286.000,45.000,0.000,25.000:
0000
0000
0220
0000
0000
0000
0000
0330
,
1001
0100
0010
0001
0101
1000
0010
0100
,
1001
0010
0100
1000
0011
0100
1010
0000
,
0101
1000
0100
0010
1001
0100
0010
0001
,
1010
0100
0001
0010
0100
1000
0010
0002
,
0000
0000
0000
0000
0000
0000
0000
0003
,
0110
1000
0001
0001
1100
0010
1000
0001
0100
0100
1000
0010
1100
0001
0010
1000
,
1001
0100
0010
1000
0011
0001
0100
0010
1000
1000
0100
1000
0011
0100
0010
1000
,
0101
1000
0010
1100
0001
0001
0100
0001
1010
0010
0001
1000
0110
0010
1000
0100
,
0001
0010
0101
1000
0010
0110
1001
0100
0001
1000
0011
0100
0010
1001
0110
1000
,
1100
0011
0100
0011
1000
0110
1001
0010
0100
0011
1100
0010
1000
0100
1001
0010
,
0011
1100
0001
0110
1001
0100
0011
1100
0001
0110
1001
0100
0011
0010
1001
0100
,
1100
0011
0100
0011
1000
0110
1001
0010
0100
0001
1100
0011
1000
0110
1001
0010
,
1010
0000
0000
0000
0100
0000
0000
0000
1001
0000
0000
0000
0010
0000
0000
0000
0001
0000
0000
0000
1100
0000
0000
0000
0110
0000
0000
0000
1001
0000
0000
0000
0000
0000
0000
0000
0220
0330
0000
0000
0000
0000
0000
0000
0220
0330
0000
0000
0000
0000
0000
0000
2002
3003
0000
0000
0000
0000
0000
0000
0000
0000
0000
0000
,
0012
0100
1000
0100
0110
1000
0010
0100
1000
0010
0100
0100
0010
1000
0203
0300
,
2010
0001
0100
0001
0110
0010
0001
0100
0010
0100
0001
0010
0001
0100
3002
0003
,
0100
1010
0100
1010
0100
0011
0100
0011
1000
0001
0110
0010
1001
0100
0011
1000
,
0101
1000
0001
0100
1010
1000
0001
0100
0110
0001
1000
0010
0100
0001
0020
0030
,
0102
1000
0100
1000
0110
1000
0010
0100
0010
0010
1000
0100
0110
1000
0203
0300
,
2001
0010
0001
0010
0101
0010
0100
0001
0010
0010
0001
0100
0011
0100
3002
0003
,
0100
1001
0100
1001
0010
0101
0010
0101
1000
0010
0110
0001
0011
1000
0010
0100
,
1001
1000
0100
0001
0011
1000
0001
0010
1100
0001
1100
0010
1001
0011
0200
0300
,
1010
0100
2020
0000
3131
0000
1000
0110
0001
0110
1000
0010
1001
0100
1010
0100
,
0101
0010
0202
0000
1313
0000
0001
0110
1000
0110
0001
0100
1001
0010
0101
0001
,
0011
1100
0021
0000
1031
0000
0100
1010
0100
0011
1000
0100
1001
0001
0110
0010
,
1100
0011
1200
0000
1301
0000
0010
1100
0010
0101
1000
0011
1010
1000
0101
0010
,
1100
0001
1100
0010
0101
1000
0010
0100
0101
1000
0011
0100
1001
0010
1100
0010
,
0101
1000
0101
0010
1100
0001
0100
0010
1010
0100
0011
1000
0101
0010
0100
1000
,
0110
0001
0110
1000
1001
0010
0100
0011
1000
0101
1000
0110
1001
0100
0010
1000
,
0101
0101
1010
1010
0101
1001
1010
2002
0000
0000
0000
0000
0000
0000
0000
0000
,
0000
0000
0000
0000
0000
0000
0000
3003
2120
0000
3031
0100
1001
0000
0011
0000
,
0101
0000
1010
0001
1100
0001
0110
0100
2002
0000
3013
0100
1010
0000
0101
1000
,
0011
0000
1101
0000
1001
1001
0110
0001
2200
0000
3301
0010
0101
0000
1001
0000
,
0110
0000
1010
0100
1001
0010
0101
0000
0220
0000
1330
0001
1010
0000
0101
0110
,
1001
0000
1011
0000
0110
0110
1001
1000
0102
0100
0010
1000
0013
1100
0011
0100
,
2001
0001
0100
0010
3100
0011
1100
0001
1021
0000
0000
0130
1001
0000
0010
0100
,
2001
0010
0011
0000
3110
0001
1100
1000
0011
0100
0001
1010
0101
0001
1010
0001
,
1100
0010
1000
0101
1010
1000
0101
0010
0011
1000
0011
0100
1010
1001
0100
0010
,
1001
1000
0110
0100
0011
0011
1100
0010
0101
1000
0010
1100
0011
0100
1001
0110
,
1100
1000
0011
0100
1001
0010
0001
0110
1001
0001
0110
0010
1100
0001
1000
0010
,
0101
1000
0011
0100
1001
0010
1100
0011
1001
0100
1010
0100
0011
0100
1000
0011
,
1001
0100
0011
0100
1010
0100
0001
0110
1001
0100
0011
0100
1100
0010
1010
0001
,
0101
1000
0011
0100
1010
1010
0001
0100
1011
0001
0100
0011
1100
0010
1010
0100
,
1001
1000
0110
0100
1001
0100
0011
1000
0101
0001
1100
0010
1010
0100
0011
0100
,
1001
0010
1001
0100
1010
1100
0001
0010
0102
1000
1100
1000
0110
1000
0010
0103
,
2010
0001
0011
0001
0110
0100
0001
3010
0101
1000
0101
1000
0011
1000
0110
1000
,
0011
0100
1001
0010
1100
1001
0010
0100
1001
0010
0001
0101
1000
0010
0001
1100
,
1000
0001
0100
1010
0011
0100
0001
0010
1001
0011
1100
0220
0330
1001
0110
2002
,
0000
0000
3003
0000
;
