#TITLE:Bridge Zone;
#SUBTITLE:Sonic GG;
#ARTIST:Sonic Team;
#TITLETRANSLIT:;
#SUBTITLETRANSLIT:;
#ARTISTTRANSLIT:;
#CREDIT:;
#BANNER:;
#BACKGROUND:;
#LYRICSPATH:;
#CDTITLE:;
#MUSIC:Sonic GG - Bridge Zone.ogg;
#OFFSET:-0.232;
#SAMPLESTART:29.371;
#SAMPLELENGTH:29.999;
#SELECTABLE:YES;
#BPMS:0.000=156.212;
#STOPS:;
#BGCHANGES:;
// cache tags:
#FIRSTBEAT:0.000;
#LASTBEAT:158.000;
#SONGFILENAME:Songs/Owem Extras -l/Bridge Zone - [Owem]/Sonic GG - Bridge Zone.sm;
#HASMUSIC:1;
#HASBANNER:0;
#MUSICLENGTH:61.277;
// end cache tags

//---------------dance-single - Owem----------------
#NOTES:
     dance-single:
     Owem:
     Challenge:
     16:
     1.000,1.000,0.408,1.000,1.000,588.000,25.000,99.000,0.000,0.000:
1000
0000
0100
0000
0210
0300
0010
0000
0002
0003
1000
0020
0130
0000
0002
0003
,
1000
0000
0020
0030
0120
0030
0100
0000
0002
0003
1000
0200
0310
0000
0002
0003
,
0100
0000
0020
0030
2010
3000
1000
0000
0002
0003
0010
0200
1300
0000
0020
0030
,
0100
0000
0002
0003
2001
3000
2000
3000
0200
0300
0010
0000
0002
0003
1000
0000
,
0010
0000
0100
0000
0201
0300
0001
0000
2000
3000
0100
0020
0031
0000
2000
3000
,
0010
0000
0200
0300
0102
0003
0001
0000
2000
3000
0010
0200
0310
0000
2000
3000
,
0001
0000
0020
0030
0120
0030
0100
0000
2000
3000
0001
0200
0310
0000
2000
3000
,
0010
0000
0100
0000
0101
0000
0001
0000
1000
0000
0100
0000
0110
0000
0010
0001
,
1000
0010
0100
0010
1000
0001
0100
0001
0010
0100
1000
0001
0010
0001
0100
0010
1000
0010
0100
0001
1000
0100
1000
0010
,
0100
0001
0100
0010
1000
0001
1000
0100
0010
0001
1000
0100
1000
0010
1000
0001
0100
0001
0010
0100
1000
0001
0010
0001
,
0100
0010
0100
0001
1000
0100
0010
0100
1000
0001
0010
0001
0100
0010
1000
0010
0100
0001
1000
0100
1000
0001
0010
0001
,
0100
0010
1000
0010
0100
0001
1000
0100
1000
0010
0100
0010
1000
0001
0010
0100
1000
0001
0010
0001
0100
0010
1000
0010
,
0100
0001
1000
0100
1000
0001
0010
0100
0010
0001
1000
0100
1000
0010
0100
0010
1000
0001
0100
0001
1000
0100
0010
0001
,
1000
0100
1000
0001
0010
0001
0100
0010
1000
0010
0100
0001
1000
0100
1000
0010
0100
0010
1000
0001
0010
0001
0100
0010
,
1000
0010
0100
0001
1000
0010
1000
0100
0010
0001
1000
0100
1000
0001
0010
0001
0100
0010
1000
0010
0100
0001
1000
0100
,
1000
0010
0100
0010
1000
0001
0010
0001
0100
0010
1000
0010
0100
0001
1000
0100
0010
0001
1000
0010
0100
0001
0100
0010
,
1000
0000
0001
0000
2001
3000
0100
0000
0020
0030
1000
0020
0130
0000
0002
0003
,
1000
0000
0020
0030
0120
0030
0100
0000
0002
0003
1000
0200
0310
0000
0002
0003
,
0100
0000
0020
0030
2010
3000
1000
0000
0002
0003
0010
0200
1300
0000
0020
0030
,
0100
0000
0002
0003
2001
3000
2000
3000
0200
0300
0010
0000
0002
0003
1000
0000
,
0010
0000
0100
0000
0201
0300
0001
0000
2000
3000
0100
0020
0031
0000
2000
3000
,
0010
0000
0200
0300
0102
0003
0001
0000
2000
3000
0010
0200
0310
0000
2000
3000
,
0001
0000
0020
0030
0120
0030
0100
0000
2000
3000
0001
0200
0310
0000
2000
3000
,
0010
0000
0100
0000
0101
0000
0001
0000
1000
0000
0100
0000
0110
0000
0010
0001
,
1000
0010
0100
0010
1000
0001
0100
0001
0010
0100
1000
0001
0010
0001
0100
0010
1000
0010
0100
0001
1000
0100
1000
0010
,
0100
0001
0100
0010
1000
0001
1000
0100
0010
0001
1000
0100
1000
0010
1000
0001
0100
0001
0010
0100
1000
0001
0010
0001
,
0100
0010
0100
0001
1000
0100
0010
0100
1000
0001
0010
0001
0100
0010
1000
0010
0100
0001
1000
0100
1000
0001
0010
0001
,
0100
0010
1000
0010
0100
0001
1000
0100
1000
0010
0100
0010
1000
0001
0010
0100
1000
0001
0010
0001
0100
0010
1000
0010
,
0100
0001
1000
0100
1000
0001
0010
0100
0010
0001
1000
0100
1000
0010
0100
0010
1000
0001
0100
0001
1000
0100
0010
0001
,
1000
0100
1000
0001
0010
0001
0100
0010
1000
0010
0100
0001
1000
0100
1000
0010
0100
0010
1000
0001
0010
0001
0100
0010
,
1000
0010
0100
0001
1000
0010
1000
0100
0010
0001
1000
0100
1000
0001
0010
0001
0100
0010
1000
0010
0100
0001
1000
0100
,
1000
0010
0100
0010
1000
0001
0010
0001
0100
0010
1000
0010
0100
0001
1000
0100
0010
0001
1000
0010
0100
0001
0100
0010
,
1000
0000
0100
0000
0210
0300
0010
0000
0002
0003
1000
0020
0130
0000
0002
0003
,
1000
0000
0020
0030
0120
0030
0100
0000
0002
0003
1000
0200
0310
0000
0002
0003
,
0100
0000
0020
0030
2010
3000
1000
0000
0002
0003
0010
0200
1300
0000
0020
0030
,
0100
0000
0002
0003
2001
3000
2000
3000
0200
0300
0010
0000
0002
0003
1000
0000
,
0010
0000
0100
0000
0201
0300
0001
0000
2000
3000
0100
0020
0031
0000
2000
3000
,
0010
0000
0200
0300
0102
0003
0001
0000
2000
3000
0010
0200
0310
0000
2000
3000
,
0001
0000
0020
0030
0120
0030
0100
0000
2000
3000
0001
0200
0310
0000
2000
0000
,
0000
0000
3000
0000
;
