#TITLE:TRUE LOVE;
#SUBTITLE:;
#ARTIST:jun;
#TITLETRANSLIT:;
#SUBTITLETRANSLIT:;
#ARTISTTRANSLIT:;
#CREDIT:eastsideman09;
#BANNER:TRUE LOVE-bn.png;
#BACKGROUND:TRUE LOVE-bg.png;
#LYRICSPATH:;
#CDTITLE:esm09-cdtitle.png;
#MUSIC:TRUE LOVE.mp3;
#OFFSET:-0.467;
#SAMPLESTART:10.680;
#SAMPLELENGTH:16.500;
#SELECTABLE:YES;
#BPMS:0.000=188.000;
#STOPS:;
#BGCHANGES:;
// cache tags:
#FIRSTBEAT:8.000;
#LASTBEAT:296.000;
#SONGFILENAME:Songs/KBU/TRUE LOVE (eastsideman09)/TRUE LOVE.sm;
#HASMUSIC:1;
#HASBANNER:1;
#MUSICLENGTH:96.869;
// end cache tags

//---------------dance-single - ----------------
#NOTES:
     dance-single:
     :
     Hard:
     12:
     1.000,1.000,1.000,1.000,0.924,632.000,211.000,148.000,188.000,0.000:
0000
0000
0000
0000
,
0000
0000
0000
0000
,
2100
3010
0100
0001
0000
0011
0000
0001
,
2100
3001
0100
0020
0030
0000
MMMM
0000
,
2200
3300
2020
3030
0110
1000
1000
0022
,
0033
0011
1000
0101
0101
0010
1001
2002
,
3003
0000
0010
0000
1100
0000
2200
0000
3300
0000
0000
MMMM
0000
0000
0001
0000
,
2020
3030
0000
0220
0330
0000
0202
0303
2002
0000
3003
0000
2002
0000
3003
0000
,
11M0
0001
0100
0010
M100
0001
0010
0100
10M0
0001
1000
0010
100M
0010
1000
0010
,
M100
0001
1000
0100
M010
0001
1000
0010
1M00
0001
0010
0100
001M
0100
0010
0100
,
10M0
0001
0100
0010
1M00
0001
0010
0100
100M
0100
0010
0001
M010
0001
0010
0001
,
1M00
0010
0100
0001
10M0
0100
0010
0001
M010
0100
1000
0010
100M
0010
1000
0010
,
M100
0001
0010
0100
100M
0010
0100
0001
M100
0010
1000
0001
1M00
0001
1000
0001
,
M100
0010
1000
0001
M010
0100
1000
0001
01M0
0001
1000
0010
1M00
0010
1000
0010
,
M100
0001
1000
0100
M010
0001
0100
0010
1M00
0001
0010
0100
001M
0100
0010
0100
,
10M0
0001
0100
0010
1M00
0001
0010
0100
100M
0100
0010
0001
M010
0001
0010
0001
,
1100
0000
10M0
0001
0100
0000
01M0
0001
1000
0000
0M01
0000
1000
0010
M100
0001
,
1010
0110
0101
2002
3003
0022
0033
MMMM
,
0101
1001
0011
0220
0330
2002
3003
MMMM
,
1010
0110
0101
1001
01M0
0011
100M
0101
,
1010
1100
1001
1010
0100
0001
0010
0100
,
1010
1010
1001
0202
0303
0022
0033
MMMM
,
0101
0101
0110
2020
3030
0220
0330
MMMM
,
1100
0011
1001
0101
100M
0110
M001
1010
,
2020
3030
2020
0000
3030
0000
0220
0000
0330
0000
0202
0000
0303
0000
MMMM
0000
,
1100
0001
1020
0130
1001
0010
0102
0203
,
00M0
0320
M000
1030
1100
0001
0110
MMMM
,
0011
1000
0102
0013
1100
0001
2010
3020
,
0M00
023M
03M2
0023
0030
0020
0030
MMMM
,
1100
0001
0120
1030
0101
0010
2001
3002
,
M000
2003
00M0
3010
0101
M001
1001
10M0
,
2020
0000
3030
1010
2002
0000
0000
3003
,
0022
0000
0000
0000
0033
0000
0022
0000
0033
0000
0011
0000
0011
0100
0010
0100
,
2002
0000
3003
0000
2002
0000
3003
0000
1000
0100
0010
M000
0010
0100
1000
000M
,
1000
0001
0100
00M0
0100
0001
1000
00M0
1000
0001
0010
M000
0010
0001
1000
0000
,
0220
0000
0330
0000
0220
0000
0330
0000
0001
0100
0010
M000
0010
0100
0001
00M0
,
0001
1000
0100
000M
0100
1000
0001
0M00
0001
0010
0100
000M
0100
0010
0001
0000
,
2020
0000
3030
0000
2020
0000
3030
0000
1000
0001
0010
0M00
0010
0001
1000
00M0
,
1000
0010
0100
000M
0100
0010
1000
0M00
1000
0001
0100
M000
0100
0001
1000
00M0
,
1000
0010
0100
00M0
0100
0001
0010
M000
0010
0100
0001
M000
0001
0010
0100
0000
,
2002
3003
0000
2200
3300
0000
2002
3003
2020
0000
3030
0000
2020
0000
3030
0000
,
100M
0011
0110
1100
M001
1010
0110
0101
,
100M
0011
1001
0101
100M
0101
1001
0011
,
01M0
1010
1001
1100
M001
1100
1001
1010
,
0110
1000
0011
0101
0000
2002
3003
MMMM
,
M001
1100
0110
0011
100M
0011
0110
1100
,
M001
1010
1001
1100
M001
1100
1001
1010
,
01M0
0011
0110
1010
01M0
1010
0110
0011
,
0202
0303
0202
0000
0303
0000
0220
0000
0330
0000
2020
0000
0000
0000
3030
0000
,
100M
0010
0100
0001
10M0
0100
0010
0001
1M00
0010
0100
0001
M100
0001
0100
0001
,
M010
0100
1000
0001
M100
0010
1000
0001
M010
0100
1000
0010
100M
0010
1000
0010
,
M100
0001
0010
0001
M100
0010
1000
0100
100M
0010
0100
0001
M100
0001
0100
0001
,
1M00
0010
0100
0001
10M0
0001
0100
0010
100M
0100
0010
0001
M010
0001
0010
0001
,
1M00
0010
0100
0001
M010
0100
1000
0001
M100
0010
1000
0001
10M0
0001
1000
0001
,
1M00
0010
0100
0001
10M0
0100
0010
0001
M010
0100
1000
0010
100M
0010
1000
0010
,
M100
0001
0010
0001
M100
0010
1000
0100
100M
0010
0100
0001
M100
0001
0100
0001
,
10M0
0100
0010
0001
M010
0100
1000
0001
M100
0010
1000
0001
10M0
0001
1000
0001
,
2MMM
0MMM
0MMM
3MMM
2002
3003
2002
3003
,
1100
0010
0010
1100
0000
0001
0100
1010
,
0000
1100
0010
0000
0012
0103
0010
1000
,
0000
1100
0000
1000
0012
1003
0010
0200
,
0300
0000
MMMM
0000
0022
0033
0202
0303
,
0110
0001
0001
2200
3300
1100
0001
2020
,
3030
2002
3003
MMMM
0011
0011
1001
0202
,
0303
0000
0220
0000
0330
0000
1001
0000
0202
0303
0000
0220
0330
0000
2020
3030
,
2002
3003
2002
3003
01M0
0011
0110
1010
,
M001
1010
0110
0011
100M
0101
1001
1100
,
M001
1100
1001
0101
100M
0011
0110
1100
,
M001
1100
0110
0011
1001
1000
1010
2020
,
3030
0220
0330
MMMM
100M
0011
1001
0101
,
100M
0101
1001
0011
01M0
0011
0110
1100
,
0M10
1100
0110
0011
100M
0101
1001
1010
,
M001
0000
1010
0000
1001
0000
0101
0000
0022
0033
0022
0000
0033
0000
2002
0000
,
3003
2020
0000
3030
2002
0000
0000
0000
,
3003
0000
0000
0000
;
