#TITLE:Ocean Palace;
#SUBTITLE:Sonic Heroes;
#ARTIST:Jun Senoue;
#TITLETRANSLIT:;
#SUBTITLETRANSLIT:;
#ARTISTTRANSLIT:;
#CREDIT:owenviau1;
#BANNER:../Banner.png;
#BACKGROUND:../BG.PNG;
#LYRICSPATH:;
#CDTITLE:../CDTitleOV1.png;
#MUSIC:Sonic Heroes - Ocean Palace.ogg;
#OFFSET:-0.643;
#SAMPLESTART:60.644;
#SAMPLELENGTH:29.999;
#SELECTABLE:YES;
#BPMS:0.000=160.000;
#STOPS:;
#BGCHANGES:;
// cache tags:
#FIRSTBEAT:0.000;
#LASTBEAT:586.000;
#SONGFILENAME:Songs/Owem Extras -l/Ocean Palace - [owenviau1]/Ocean Palace.sm;
#HASMUSIC:1;
#HASBANNER:0;
#MUSICLENGTH:222.181;
// end cache tags

//---------------dance-single - owenviau1----------------
#NOTES:
     dance-single:
     owenviau1:
     Challenge:
     14:
     1.000,1.000,0.000,0.036,1.000,2150.000,0.000,8.000,0.000,0.000:
1000
0100
0010
0001
0100
0010
0100
0001
1000
0010
1000
0100
0010
0001
1000
0010
,
0100
0001
0100
0010
1000
0001
1000
0100
0010
0001
1000
0100
1000
0010
0100
0001
,
0100
0010
1000
0001
1000
0010
0100
0001
0100
0010
1000
0001
0100
0010
0100
0001
,
1000
0100
1000
0010
0100
0001
1000
0001
0010
0100
1000
0001
0010
0001
0100
0010
,
0100
0001
1000
0100
0010
0001
1000
0010
0100
0010
1000
0001
0100
0001
0010
0100
,
1000
0001
0100
0010
0100
0001
1000
0001
0100
0010
1000
0010
0100
0001
0010
0001
,
1000
0100
1000
0010
0100
0001
1000
0100
0010
0001
0100
0010
0100
0001
1000
0010
,
1000
0001
0100
0010
0100
0001
1000
0100
0010
0001
0100
0001
1000
0010
0100
0000
,
0001
1000
0010
0100
0010
1000
0001
0100
0001
0010
0100
1000
0001
0010
0001
0100
,
0010
1000
0010
0100
0001
1000
0100
1000
0010
0100
0001
1000
0001
0100
0010
0100
,
0001
1000
0100
1000
0010
0100
0001
1000
0100
1000
0010
0100
0001
0100
0010
1000
,
0001
1000
0100
0010
0001
1000
0100
1000
0001
0100
0010
1000
0010
0100
0001
0100
,
0010
1000
0001
1000
0100
0010
0001
1000
0010
1000
0100
0010
0001
0100
0001
1000
,
0010
0100
0001
0100
0010
1000
0001
1000
0010
0100
0010
1000
0100
1000
0001
0010
,
0001
0100
0010
1000
0001
0010
0001
0100
0010
1000
0001
1000
0100
0010
0001
1000
,
0010
0000
0100
0000
0000
0000
0002
0000
1003
0000
0100
0010
0001
1000
0001
0000
,
1000
0010
1000
0001
0100
0010
0100
0001
1000
0010
1000
0100
0010
0001
1000
0100
,
1000
0001
0010
0100
1000
0001
0010
0001
0100
0010
0100
0001
1000
0010
1000
0001
,
0100
0010
0100
0001
1000
0100
0010
0001
1000
0100
1000
0001
0100
0010
1000
0010
,
0100
0001
1000
0001
0010
0100
1000
0001
0010
0001
0100
0010
1000
0001
0100
0001
,
1000
0100
0010
0001
1000
0010
0100
0001
0100
0010
1000
0001
1000
0100
0010
0001
,
1000
0100
1000
0010
0100
0001
0100
0010
1000
0001
1000
0010
0100
0010
1000
0001
,
0100
0001
0010
0100
1000
0001
0010
0001
0100
0010
0100
0001
1000
0010
1000
0001
,
0100
0000
0010
1000
0001
0000
0100
0000
0010
0000
1000
0001
0010
0001
0100
0010
,
1000
0001
0100
0001
1000
0100
0010
0001
0100
0010
1000
0010
0100
0001
1000
0100
,
1000
0010
0100
0001
1000
0001
0100
0010
1000
0010
0100
0001
0010
0001
1000
0010
,
1000
0100
0010
0001
1000
0001
0100
0010
0100
0001
1000
0010
1000
0100
0010
0001
,
1000
0010
0100
0001
0100
0010
1000
0001
1000
0100
0010
0001
1000
0100
1000
0001
,
0010
0001
0100
0010
1000
0010
0100
0001
1000
0100
1000
0001
0010
0001
0100
0010
,
1000
0001
0010
0001
0100
0010
1000
0001
0100
0001
1000
0100
0010
0001
1000
0001
,
0100
0010
1000
0010
0100
0001
0100
0010
1000
0001
1000
0100
0010
0001
1000
0010
,
0100
0000
0001
0000
0000
0000
2000
0000
3010
0000
0100
0001
1000
0010
0000
0000
,
1000
0100
0010
0001
0100
0010
0100
0001
1000
0010
1000
0100
0010
0001
1000
0001
,
0100
0010
1000
0010
0100
0001
1000
0001
0010
0100
1000
0001
0010
0001
0100
0010
,
0100
0001
1000
0100
0010
0001
1000
0010
0100
0001
0100
0010
1000
0001
1000
0100
,
0010
0001
1000
0100
1000
0001
0010
0001
0100
0010
1000
0010
0100
0001
1000
0001
,
0100
0010
0100
0001
1000
0010
1000
0100
0010
0001
1000
0100
1000
0001
0010
0001
,
0100
0010
0100
0001
1000
0001
0100
0010
1000
0010
0100
0001
0100
0010
1000
0001
,
1000
0100
0010
0001
1000
0100
1000
0001
0010
0001
0100
0010
1000
0010
0100
0001
,
1000
0001
0100
0010
0100
0001
1000
0100
0010
0000
0001
1000
0002
0000
0000
0000
,
0103
0010
1000
0001
0100
0010
0100
0001
1000
0100
0010
0001
1000
0100
1000
0001
,
0010
0001
0100
0010
0100
0001
1000
0010
0100
0001
0100
0010
1000
0001
1000
0100
,
0010
0001
1000
0100
1000
0001
0010
0100
1000
0001
0010
0001
0100
0010
1000
0001
,
0100
0001
1000
0010
0100
0010
1000
0001
0010
0001
0100
0010
1000
0010
0100
0001
,
1000
0001
0010
0100
1000
0001
0010
0001
0100
0010
1000
0010
0100
0001
1000
0010
,
1000
0100
0010
0001
1000
0100
1000
0001
0010
0001
0100
0010
1000
0010
0100
0001
,
1000
0001
0100
0010
0100
0001
1000
0100
0010
0001
1000
0100
1000
0001
0010
0001
,
0100
0010
1000
0010
0100
0001
1000
0001
0010
0100
1000
0001
0010
0001
0100
0010
,
1000
0010
0100
0001
1000
0100
1000
0010
0100
0001
1000
0100
1000
0010
0100
0010
,
1000
0001
0100
0001
0010
0100
1000
0001
0010
0001
0100
0010
0100
0001
1000
0010
,
1000
0100
0010
0001
1000
0100
1000
0001
0100
0010
0100
0001
1000
0100
1000
0010
,
0100
0001
1000
0001
0010
0100
1000
0001
0010
0001
0100
0010
1000
0001
0100
0001
,
1000
0100
0010
0100
1000
0001
0100
0010
1000
0001
0100
0001
1000
0100
0010
0001
,
0010
0100
1000
0001
0010
0001
0100
0010
1000
0001
0100
0001
1000
0100
0010
0001
,
0100
0010
0100
0001
1000
0010
1000
0001
0100
0010
0100
0001
1000
0100
0010
0001
,
1000
0100
1000
0001
0010
0001
0100
0010
0100
0001
1000
0100
0010
0001
1000
0010
,
0100
0001
0100
0010
1000
0001
1000
0100
0010
0001
1000
0001
0100
0010
0100
0001
,
1000
0010
1000
0001
0100
0010
0100
0001
1000
0100
0010
0001
0100
0001
1000
0100
,
1000
0010
0100
0001
1000
0001
0100
0010
0100
0001
1000
0100
0010
0001
0100
0010
,
1000
0001
0100
0001
1000
0100
0010
0001
0100
0010
1000
0010
0100
0001
1000
0001
,
0010
0100
1000
0001
0010
0001
0100
0010
0100
0001
1000
0100
1000
0001
0100
0010
,
0100
0001
1000
0100
0010
0001
0010
0100
1000
0001
0100
0001
1000
0100
0010
0001
,
1000
0000
0100
0010
0001
0000
1000
0000
0010
0000
0100
0001
1000
0000
0001
0000
,
0100
0000
0001
1000
0010
0000
0100
0000
0001
0000
1000
0100
1000
0000
0010
0100
,
0001
0000
1000
0010
0100
0000
0001
0000
1000
0000
0100
0010
0001
0000
1000
0000
,
0010
0000
0000
0000
0100
0000
0000
0000
0001
0000
1000
0100
1000
0010
0100
0001
,
1000
0100
0010
0001
0100
0010
0100
0001
1000
0010
1000
0100
0010
0001
1000
0010
,
0100
0001
0100
0010
1000
0001
1000
0100
0010
0001
1000
0100
1000
0010
0100
0001
,
0100
0010
1000
0001
1000
0010
0100
0001
0100
0010
1000
0001
0100
0010
0100
0001
,
1000
0100
1000
0010
0100
0001
1000
0001
0010
0100
1000
0001
0010
0001
0100
0010
,
0100
0001
1000
0100
0010
0001
1000
0010
0100
0010
1000
0001
0100
0001
0010
0100
,
1000
0001
0100
0010
0100
0001
1000
0001
0100
0010
1000
0010
0100
0001
0010
0001
,
1000
0100
1000
0010
0100
0001
1000
0100
0010
0001
0100
0010
0100
0001
1000
0010
,
1000
0001
0100
0010
0100
0001
1000
0100
0010
0001
0100
0001
1000
0010
0100
0000
,
0001
1000
0010
0100
0010
1000
0001
0100
0001
0010
0100
1000
0001
0010
0001
0100
,
0010
1000
0010
0100
0001
1000
0100
1000
0010
0100
0001
1000
0001
0100
0010
0100
,
0001
1000
0100
1000
0010
0100
0001
1000
0100
1000
0010
0100
0001
0100
0010
1000
,
0001
1000
0100
0010
0001
1000
0100
1000
0001
0100
0010
1000
0010
0100
0001
0100
,
0010
1000
0001
1000
0100
0010
0001
1000
0010
1000
0100
0010
0001
0100
0001
1000
,
0010
0100
0001
0100
0010
1000
0001
1000
0010
0100
0010
1000
0100
1000
0001
0010
,
0001
0100
0010
1000
0001
0010
0001
0100
0010
1000
0001
1000
0100
0010
0001
1000
,
0010
0000
0100
0000
0000
0000
0002
0000
1003
0000
0100
0010
0001
1000
0001
0000
,
1000
0010
1000
0001
0100
0010
0100
0001
1000
0010
1000
0100
0010
0001
1000
0100
,
1000
0001
0010
0100
1000
0001
0010
0001
0100
0010
0100
0001
1000
0010
1000
0001
,
0100
0010
0100
0001
1000
0100
0010
0001
1000
0100
1000
0001
0100
0010
1000
0010
,
0100
0001
1000
0001
0010
0100
1000
0001
0010
0001
0100
0010
1000
0001
0100
0001
,
1000
0100
0010
0001
1000
0010
0100
0001
0100
0010
1000
0001
1000
0100
0010
0001
,
1000
0100
1000
0010
0100
0001
0100
0010
1000
0001
1000
0010
0100
0010
1000
0001
,
0100
0001
0010
0100
1000
0001
0010
0001
0100
0010
0100
0001
1000
0010
1000
0001
,
0100
0000
0010
1000
0001
0000
0100
0000
0010
0000
1000
0001
0010
0001
0100
0010
,
1000
0001
0100
0001
1000
0100
0010
0001
0100
0010
1000
0010
0100
0001
1000
0100
,
1000
0010
0100
0001
1000
0001
0100
0010
1000
0010
0100
0001
0010
0001
1000
0010
,
1000
0100
0010
0001
1000
0001
0100
0010
0100
0001
1000
0010
1000
0100
0010
0001
,
1000
0010
0100
0001
0100
0010
1000
0001
1000
0100
0010
0001
1000
0100
1000
0001
,
0010
0001
0100
0010
1000
0010
0100
0001
1000
0100
1000
0001
0010
0001
0100
0010
,
1000
0001
0010
0001
0100
0010
1000
0001
0100
0001
1000
0100
0010
0001
1000
0001
,
0100
0010
1000
0010
0100
0001
0100
0010
1000
0001
1000
0100
0010
0001
1000
0010
,
0100
0000
0001
0000
0000
0000
2000
0000
3010
0000
0100
0001
1000
0010
0000
0000
,
1000
0100
0010
0001
0100
0010
0100
0001
1000
0010
1000
0100
0010
0001
1000
0001
,
0100
0010
1000
0010
0100
0001
1000
0001
0010
0100
1000
0001
0010
0001
0100
0010
,
0100
0001
1000
0100
0010
0001
1000
0010
0100
0001
0100
0010
1000
0001
1000
0100
,
0010
0001
1000
0100
1000
0001
0010
0001
0100
0010
1000
0010
0100
0001
1000
0001
,
0100
0010
0100
0001
1000
0010
1000
0100
0010
0001
1000
0100
1000
0001
0010
0001
,
0100
0010
0100
0001
1000
0001
0100
0010
1000
0010
0100
0001
0100
0010
1000
0001
,
1000
0100
0010
0001
1000
0100
1000
0001
0010
0001
0100
0010
1000
0010
0100
0001
,
1000
0001
0100
0010
0100
0001
1000
0100
0010
0000
0001
1000
0002
0000
0000
0000
,
0103
0010
1000
0001
0100
0010
0100
0001
1000
0100
0010
0001
1000
0100
1000
0001
,
0010
0001
0100
0010
0100
0001
1000
0010
0100
0001
0100
0010
1000
0001
1000
0100
,
0010
0001
1000
0100
1000
0001
0010
0100
1000
0001
0010
0001
0100
0010
1000
0001
,
0100
0001
1000
0010
0100
0010
1000
0001
0010
0001
0100
0010
1000
0010
0100
0001
,
1000
0001
0010
0100
1000
0001
0010
0001
0100
0010
1000
0010
0100
0001
1000
0010
,
1000
0100
0010
0001
1000
0100
1000
0001
0010
0001
0100
0010
1000
0010
0100
0001
,
1000
0001
0100
0010
0100
0001
1000
0100
0010
0001
1000
0100
1000
0001
0010
0001
,
0100
0010
1000
0010
0100
0001
1000
0001
0010
0100
1000
0001
0010
0001
0100
0010
,
1000
0010
0100
0001
1000
0100
1000
0010
0100
0001
1000
0100
1000
0010
0100
0010
,
1000
0001
0100
0001
0010
0100
1000
0001
0010
0001
0100
0010
0100
0001
1000
0010
,
1000
0100
0010
0001
1000
0100
1000
0001
0100
0010
0100
0001
1000
0100
1000
0010
,
0100
0001
1000
0001
0010
0100
1000
0001
0010
0001
0100
0010
1000
0001
0100
0001
,
1000
0100
0010
0100
1000
0001
0100
0010
1000
0001
0100
0001
1000
0100
0010
0001
,
0010
0100
1000
0001
0010
0001
0100
0010
1000
0001
0100
0001
1000
0100
0010
0001
,
0100
0010
0100
0001
1000
0010
1000
0001
0100
0010
0100
0001
1000
0100
0010
0001
,
1000
0100
1000
0001
0010
0001
0100
0010
0100
0001
1000
0100
0010
0001
1000
0010
,
0100
0001
0100
0010
1000
0001
1000
0100
0010
0001
1000
0001
0100
0010
0100
0001
,
1000
0010
1000
0001
0100
0010
0100
0001
1000
0100
0010
0001
0100
0001
1000
0100
,
1000
0010
0100
0001
1000
0001
0100
0010
0100
0001
1000
0100
0010
0001
0100
0010
,
1000
0001
0100
0001
1000
0100
0010
0001
0100
0010
1000
0010
0100
0001
1000
0001
,
0010
0100
1000
0001
0010
0001
0100
0010
0100
0001
1000
0100
1000
0001
0100
0010
,
0100
0001
1000
0100
0010
0001
0010
0100
1000
0001
0100
0001
1000
0100
0010
0001
,
1000
0000
0100
0010
0001
0000
1000
0000
0010
0000
0100
0001
1000
0000
0001
0000
,
0100
0000
0001
1000
0010
0000
0100
0000
0001
0000
1000
0100
1000
0000
0010
0100
,
0001
0000
1000
0010
0100
0000
0001
0000
1000
0000
0100
0010
0001
0000
1000
0000
,
0010
0000
0000
0000
0100
0000
0000
0000
0001
0000
0000
0000
1000
0000
0010
0100
,
0001
1000
0100
1000
0010
0100
0001
0100
0010
1000
0001
1000
0100
0010
0001
1000
,
0100
1000
0010
0100
0010
1000
0001
0100
0001
1000
0010
0100
0001
1000
0001
0010
,
0100
1000
0001
0010
0001
0100
0010
1000
0010
0100
0001
1000
0100
1000
0001
0010
,
0100
1000
0001
0010
0001
0100
0010
0100
0001
1000
0100
0010
0001
1000
0100
1000
,
0010
0100
0001
0100
0010
1000
0001
1000
0010
0100
0001
0100
0010
1000
0100
1000
,
0001
0010
0001
1000
0100
0010
0001
1000
0100
1000
0001
0100
0010
0100
0001
1000
,
0010
1000
0100
0010
0001
0100
0001
1000
0010
0100
0001
0100
0010
1000
0001
1000
,
0100
0010
0001
1000
0100
1000
0010
0100
0001
1000
0010
1000
0001
0010
0100
0000
,
1000
0000
0000
0000
,
0000
0000
0000
0000
,
0000
0000
0000
0000
,
0000
0000
0000
0000
,
0002
0000
0000
0000
,
0003
1000
0010
0100
0010
1000
0001
0100
,
0002
0000
0003
0000
,
0000
0000
0000
0000
;
