#TITLE:edge;
#SUBTITLE:;
#ARTIST:Yamajet;
#TITLETRANSLIT:;
#SUBTITLETRANSLIT:;
#ARTISTTRANSLIT:;
#CREDIT:;
#BANNER:edge.png;
#BACKGROUND:edge-bg.png;
#LYRICSPATH:;
#CDTITLE:cdtitle.png;
#MUSIC:edge.mp3;
#OFFSET:-0.121;
#SAMPLESTART:68.247;
#SAMPLELENGTH:12.000;
#SELECTABLE:YES;
#BPMS:0.000=144.000;
#STOPS:;
#BGCHANGES:;
// cache tags:
#FIRSTBEAT:16.000;
#LASTBEAT:240.000;
#SONGFILENAME:Songs/Japanese Collaboration Mix/edge/edge.sm;
#HASMUSIC:1;
#HASBANNER:1;
#MUSICLENGTH:101.010;
// end cache tags

//---------------dance-single - Copied from Copied f----------------
#NOTES:
     dance-single:
     Copied from Copied f:
     Challenge:
     10:
     0.593,0.861,0.396,0.040,0.391,375.000,40.000,4.000,0.000,0.000:
0000
0000
0000
0000
,
0000
0000
0000
0000
,
0000
0000
0000
0000
,
0000
0000
0000
0000
,
1000
0010
0000
0000
1010
0000
0000
0001
0100
0010
0100
0000
0110
0000
0000
0000
,
0000
0010
1000
0000
1010
0000
0000
1000
0010
0100
0001
0000
0101
0000
0000
0000
,
0010
1000
0010
0000
0110
0000
0000
0010
0100
0010
1000
0000
0001
0000
0000
0000
,
0000
1000
0001
0000
1001
0000
0000
0001
0010
0001
0100
0000
0010
0000
0000
0000
,
0101
0100
0100
0100
,
0100
0000
0100
0000
0100
0000
0100
1000
,
0001
0001
0001
0001
,
0001
0000
0001
0000
0001
0000
0001
0100
,
0010
0010
0010
0010
,
0010
0000
0010
0000
0010
0000
0010
0001
,
1000
1000
1000
1000
,
1000
0000
1000
0000
1000
0000
1000
0100
,
1100
0000
0100
1001
0010
0000
0010
1001
,
0100
0000
0100
1001
0010
0000
0010
1001
,
0100
0000
0100
1010
0001
0000
0001
1010
,
0100
0000
0100
1010
0001
0000
0001
1010
,
0100
0000
0100
1010
0001
0000
0001
1010
,
0100
0000
0100
1010
0001
0000
0001
1010
,
0100
0000
0100
0011
1000
0000
1000
0011
,
0001
0010
0100
1001
,
0010
0100
0011
0000
0011
0000
0010
0100
,
0010
0000
0011
0000
0010
0001
0010
0100
,
0001
0000
1001
0000
1001
0000
0001
0100
,
0011
0000
1001
0000
0001
0010
0100
1000
,
0100
0000
0110
0000
0110
0000
0100
1000
,
0100
0000
0101
0010
0100
0000
0100
0001
,
1000
0000
1100
0000
1100
0000
1000
0010
,
1000
0000
1001
0010
1000
0100
0010
0001
,
0020
0000
0000
0100
0000
0000
0000
1000
,
0000
0000
0000
0100
0000
0000
0030
1000
,
0200
0000
0000
0010
0000
0000
0000
0001
,
0000
0000
0000
0010
0000
0000
0300
0001
,
1000
0100
1000
0100
1000
0100
1000
0000
1000
0010
1000
0010
1000
0010
1000
0000
,
0100
0010
0100
0010
0100
0010
0100
0000
0100
0001
0100
0001
0100
0001
0100
0000
,
0010
0001
0010
0001
0010
0001
0010
0000
0010
0100
0010
0100
0010
0100
0010
0000
,
1000
0100
1000
0100
1000
0100
1000
0000
1000
0001
1000
0001
1000
0001
1000
0000
,
1000
0100
1000
0100
0000
0010
0001
0010
0001
0000
1000
0100
0010
0001
0010
0000
,
0100
0100
0100
0100
,
0100
0000
0100
0000
0100
0000
0100
1000
,
0010
0010
0010
0010
,
0010
0000
0010
0000
1000
0100
0010
0001
,
0100
0100
0100
0100
,
0100
0000
0100
0000
0100
0000
0100
0001
,
0010
0010
0010
0010
,
0001
0010
0100
1000
,
0000
0101
0100
0100
,
1000
1000
0100
0011
,
0010
0010
1000
1000
,
0100
0100
0001
1001
,
1000
0100
1000
0100
0010
0001
0010
0000
0010
0001
0010
0001
1000
0100
1000
0000
,
1000
0010
1000
0010
0100
0001
0100
0000
0100
0001
0100
0001
1000
0010
1000
0000
,
1000
0010
0001
0010
1000
0010
0001
0000
1000
0100
0001
0100
1000
0100
0001
0000
,
1000
0100
0010
0001
1000
0100
0010
0001
1000
0010
0100
0001
1000
0100
0010
0000
,
1000
0100
1000
0100
0000
0010
0001
0010
0001
0000
1000
0100
0010
0001
0100
0000
,
0001
0010
0001
0010
0000
1000
0100
1000
0100
0000
0001
0010
0100
1000
0010
0000
,
0000
2002
0000
0000
,
3003
0000
0000
0000
;
