#TITLE:Summer Triangle;
#SUBTITLE:;
#ARTIST:Helblinde;
#TITLETRANSLIT:;
#SUBTITLETRANSLIT:;
#ARTISTTRANSLIT:;
#CREDIT:;
#BANNER:bn.png;
#BACKGROUND:bg.png;
#LYRICSPATH:;
#CDTITLE:cd-parrax.png;
#MUSIC:Summer Triangle.ogg;
#OFFSET:1.272;
#SAMPLESTART:99.534;
#SAMPLELENGTH:12.000;
#SELECTABLE:YES;
#BPMS:0.000=200.000;
#STOPS:;
#BGCHANGES:;
// cache tags:
#FIRSTBEAT:4.000;
#LASTBEAT:1132.000;
#SONGFILENAME:Songs/Index Tournament 1/Summer Triangle/Summer Triangle.sm;
#HASMUSIC:1;
#HASBANNER:1;
#MUSICLENGTH:339.542;
// end cache tags

//---------------dance-single - 17.6 (Parrax!)----------------
#NOTES:
     dance-single:
     17.6 (Parrax!):
     Challenge:
     17:
     1.000,1.000,0.112,1.000,1.000,3358.000,38.000,342.000,93.000,0.000:

0000
0000
0000
0000
,
0002
0023
0230
2300
0000
3002
0203
0320
,
2030
3020
0230
0302
0000
2003
0000
3002
,
0023
0230
0320
0230
2300
0000
3002
0203
,
0320
0230
0320
2030
3002
2003
3002
0000
,
2003
0000
3002
0000
,
0023
0000
0032
0000
,
2003
0000
3020
0000
,
2030
3200
0320
0032
,
2003
3000
0000
0010
0000
0000
0100
0000
0000
0010
0000
0000
2000
3000
0000
0100
0000
0000
0010
0000
0000
0001
0000
0000
2000
3000
0000
0010
0000
0000
0100
0000
0000
0001
0000
0000
1000
0000
0000
0010
0000
0000
0100
0000
0000
0010
0000
0000
,
2000
3000
0000
0001
0000
0000
0010
0000
0000
0100
0000
0000
2000
3000
0000
0001
0000
0000
0100
0000
0000
0010
0000
0000
1000
0000
0000
0010
0000
0000
0100
0000
0000
0001
0000
0000
2000
3000
0000
0100
0000
0000
0010
0000
0000
0001
0000
0000
,
1000
0000
0000
0010
0000
0000
0100
0000
0000
0010
0000
0000
2000
3000
0000
0100
0000
0000
0010
0000
0000
0001
0000
0000
2000
3000
0000
0010
0000
0000
1000
0000
0000
0100
0000
0000
1000
0000
0000
0001
0000
0000
0100
0000
0000
0010
0000
0000
,
2000
3000
0000
0001
0000
0000
0100
0000
0000
0001
0000
0000
0020
0030
0000
0001
0000
0000
0100
0000
0000
0010
0000
0000
1000
0000
0000
0001
0000
0000
0010
0000
0000
0100
0000
0000
2000
3000
0000
0001
0000
0000
0010
0000
0000
0100
0000
0000
,
1000
0000
0000
0010
0000
0000
0100
0000
0000
0010
0000
0000
2000
3000
0000
0100
0000
0000
0010
0000
0000
0100
0000
0000
2000
3000
0000
0001
0000
0000
0100
0000
0000
0010
0000
0000
1000
0000
0000
0001
0000
0000
0100
0000
0000
0001
0000
0000
,
2000
3000
0000
0100
0000
0000
0010
0000
0000
0001
0000
0000
2000
3000
0000
0010
0000
0000
0100
0000
0000
0001
0000
0000
0100
0000
0000
0010
0000
0000
1000
0000
0000
0001
0000
0000
2000
3000
0000
0100
0000
0000
0010
0000
0000
0001
0000
0000
,
1000
0000
0000
0100
0000
0000
0010
0000
0000
0001
0000
0000
2000
3000
0000
0010
0000
0000
0100
0000
0000
0010
0000
0000
2000
3000
0000
0100
0000
0000
0010
0000
0000
0100
0000
0000
1000
0000
0000
0001
0000
0000
0010
0000
0000
0001
0000
0000
,
2000
3000
0000
0010
0000
0000
0100
0000
0000
0010
0000
0000
2000
3000
0000
0001
0000
0000
0010
0000
0000
0100
0000
0000
1000
0000
0000
0001
0000
0000
0010
0000
0000
0001
0000
0000
2000
3000
0000
0010
0000
0000
0100
0000
0000
0010
0000
0000
,
1000
0000
0000
0100
0000
0000
1000
0000
0000
0010
0000
0000
0200
0300
0000
0001
0000
0000
1000
0000
0000
0100
0000
0000
2000
3000
0000
0010
0000
0000
0100
0000
0000
0001
0000
0000
0100
0000
0000
0010
0000
0000
1000
0000
0000
0001
0000
0000
,
0020
0030
0000
0001
0000
0000
0100
0000
0000
0010
0000
0000
2000
3000
0000
0001
0000
0000
0010
0000
0000
0001
0000
0000
0100
0000
0000
0010
0000
0000
1000
0000
0000
0001
0000
0000
2000
3000
0000
0010
0000
0000
0100
0000
0000
0001
0000
0000
,
1000
0000
0000
0100
0000
0000
0010
0000
0000
0001
0000
0000
2000
3000
0000
0010
0000
0000
0100
0000
0000
0010
0000
0000
2000
3000
0000
0100
0000
0000
0010
0000
0000
0001
0000
0000
1000
0000
0000
0001
0000
0000
0010
0000
0000
0100
0000
0000
,
2000
3000
0000
0010
0000
0000
0100
0000
0000
0010
0000
0000
2000
3000
0000
0001
0000
0000
0010
0000
0000
0001
0000
0000
1000
0000
0000
0100
0000
0000
0010
0000
0000
0001
0000
0000
2000
3000
0000
0010
0000
0000
0100
0000
0000
0010
0000
0000
,
1000
0000
0000
0001
0000
0000
0100
0000
0000
0001
0000
0000
2000
3000
0000
0100
0000
0000
0010
0000
0000
0001
0000
0000
2000
3000
0000
0001
0000
0000
0100
0000
0000
0010
0000
0000
1000
0000
0000
0010
0000
0000
0100
0000
0000
0001
0000
0000
,
2000
3000
0000
0100
0000
0000
0010
0000
0000
0001
0000
0000
2000
3000
0000
0001
0000
0000
0010
0000
0000
0100
0000
0000
1000
0000
0000
0001
0000
0000
0010
0000
0000
0001
0000
0000
2000
3000
0000
0010
0000
0000
0100
0000
0000
0010
0000
0000
,
1000
0000
0000
0001
0000
0000
0010
0000
0000
0100
0000
0000
2000
3000
0000
0001
0000
0000
0100
0000
0000
0010
0000
0000
2000
3000
0000
0010
0000
0000
0100
0000
0000
0001
0000
0000
1000
0000
0000
0100
0000
0000
0010
0000
0000
0001
0000
0000
,
0200
0300
0000
0010
0000
0000
1000
0000
0000
0001
0000
0000
0020
0030
0000
0001
0000
0000
0100
0000
0000
0010
0000
0000
1000
0000
0000
0001
0000
0000
0010
0000
0000
0001
0000
0000
0200
0300
0000
0010
0000
0000
1000
0000
0000
0001
0000
0000
,
1000
0100
0010
0100
1000
0001
1000
0010
1000
0001
0010
0001
1000
0010
0100
0001
,
1000
0001
0010
0100
1000
0010
1000
0001
0100
0001
1000
0010
1000
0001
0010
0001
,
1000
0010
0100
0001
0100
0010
1000
0001
1000
0001
0010
0100
1000
0010
0100
0010
,
1000
0001
0010
0001
0100
0001
1000
0010
1000
0001
0010
0001
1000
0010
0100
0010
,
1000
0001
1000
0100
1000
0001
0100
0001
1000
0001
0010
0100
1000
0001
0100
0001
,
1000
0100
0010
0100
1000
0010
0100
0010
1000
0001
0100
0001
1000
0100
0010
0001
,
1000
0001
0100
0010
1000
0010
0100
0001
1000
0001
0010
0100
1000
0001
0010
0100
,
1000
0010
0100
0010
1000
0001
0100
0001
1000
0100
0010
0001
1000
0001
0010
0100
,
1000
0001
0100
0010
1000
0010
0100
0001
1000
0001
1000
0010
0100
0001
0100
0010
,
1000
0100
0010
0001
1000
0001
0010
0100
1000
0001
0100
0001
1000
0010
0100
0010
,
1000
0100
0010
0001
1000
0001
0010
0100
1000
0001
0010
0100
1000
0001
0010
0001
,
1000
0000
0010
0000
1000
0001
1000
1000
,
0002
0003
0000
0010
0000
0000
0100
0000
0000
1000
0000
0000
0001
0000
0000
0010
0000
0000
0100
0000
0000
1000
0000
0000
0001
0000
0000
1000
0000
0000
0010
0000
0000
0100
0000
0000
0001
0000
0000
0100
0000
0000
0010
0000
0000
1000
0000
0000
,
0001
0010
0100
1000
0001
0010
0100
0010
0001
0100
0010
0100
0001
1000
0010
1000
,
0001
0010
0100
1000
0001
0010
0100
0010
0001
1000
0010
1000
0001
0100
0010
1000
,
0001
0010
0100
1000
0001
1000
0100
0010
0001
0100
0010
1000
0010
1000
0001
0100
,
0001
1000
0100
0010
0001
1000
0100
1000
0001
0100
0010
1000
0001
0100
0010
1000
,
0001
0010
0100
1000
0001
0010
0100
1000
0001
1000
0010
0100
0001
0100
0010
1000
,
0001
0010
0100
1000
0001
1000
0100
0010
0001
1000
0010
1000
0001
0100
0001
0010
,
0001
1000
0010
1000
0001
0100
0010
0100
0001
1000
0010
0100
0001
0100
0010
1000
,
0002
0003
0000
0010
0000
0000
0100
0000
0000
0010
0000
0000
0001
0000
0000
1000
0000
0000
0001
0000
0000
0100
0000
0000
0001
0000
0000
0010
0000
0000
0100
0000
0000
1000
0000
0000
0010
0000
0000
0100
0000
0000
0001
0000
0000
0100
0000
0000
,
0001
1000
0100
1000
0001
0100
0001
0010
0001
1000
0010
0100
0001
0100
0010
1000
,
0001
1000
0100
0010
0001
1000
0100
1000
0001
0100
0010
1000
0001
0010
0001
0100
,
0001
1000
0100
1000
0001
0100
0010
1000
0001
0010
0100
1000
0001
0010
0100
0010
,
0001
1000
0010
0100
0001
1000
0010
1000
0001
0010
0100
0010
0001
1000
0100
1000
,
0001
1000
0010
0100
0001
0100
0010
1000
0001
0010
0100
0010
0001
1000
0100
1000
,
0001
0100
0010
0100
0001
1000
0010
1000
0001
0010
0100
1000
0001
0010
0100
0010
,
0001
1000
0010
1000
0001
0100
0010
0100
0001
1000
0100
0010
0001
1000
0100
0010
,
0001
0100
0010
0100
0001
1000
0001
0010
0001
0100
0010
1000
0001
1000
0010
0100
,
0001
0010
0001
0100
0001
1000
0100
1000
0010
1000
0001
0010
0100
1000
0010
0100
,
0001
0010
0100
1000
0100
1000
0001
0010
0001
0100
0010
0100
0001
1000
0010
1000
,
0001
0010
0100
0010
0001
0100
0010
1000
0010
1000
0001
0010
0001
0100
0010
1000
,
0001
0010
0100
1000
0001
1000
0100
0010
0001
1000
0010
0100
0001
0100
0010
1000
,
0001
0010
0100
0010
0001
1000
0100
0010
0001
0100
0001
1000
0010
1000
0001
0100
,
0002
0003
0010
0000
0100
0000
1000
0000
0001
0000
1000
0000
0100
0000
0010
0000
0001
0000
1000
0000
0010
0000
0100
0000
0001
0000
0100
0000
0010
0000
1000
0000
,
0001
0010
0100
0010
0001
1000
0100
1000
0001
0100
0001
1000
0010
1000
0001
0100
,
0002
0003
1000
0000
0100
0000
1000
0000
0100
0000
0010
0000
0001
0000
1000
0000
0001
0000
0100
0000
0010
0000
0100
0000
0001
0000
1000
0000
0010
0000
0100
0000
,
0002
0000
0000
0000
2003
0000
0000
0000
3200
0000
0000
0000
2300
0000
0000
0000
0000
0000
0000
0000
3002
0000
0000
0000
0203
0000
0000
0000
0302
0000
0000
0003
,
1MM2
0000
0000
0000
,
2003
0000
3020
2030
0000
3200
0000
0320
,
0000
0000
0000
0000
0000
0000
0000
0032
,
2003
0000
3020
0230
0000
0302
0000
2003
,
0000
0000
0000
0000
,
0000
0000
3200
2300
,
3002
0000
0000
0203
0302
0000
0000
2003
,
3200
0000
0000
0000
0000
0000
0000
0000
0000
0000
0000
0000
2300
0000
0000
0000
3002
0000
0000
0000
0000
0000
0000
0000
2003
0000
0000
0000
3002
0000
0000
0003
,
1MM1
0011
1001
1010
,
1001
1100
1001
0101
,
1001
0110
1001
1100
,
0101
0011
1010
0110
,
1001
2000
3020
0230
0302
2003
3200
0320
,
0032
0000
0023
0032
0203
0320
0230
0302
,
1003
0010
0100
0001
0100
0010
1000
0001
0010
0001
0100
0001
1000
0100
1000
0001
,
0100
0010
1000
0001
0010
0100
1000
0001
0100
0001
0010
0001
1000
0010
0100
0004
,
2000
0000
0000
0000
,
0000
0000
0000
0000
,
0003
0000
0000
3200
,
0320
0000
0032
2003
0000
3002
0000
2003
,
0000
0000
0000
0000
0000
0000
0000
0000
0000
0000
0000
0000
0000
0000
0000
0000
0000
0000
0000
0000
0000
0000
0000
0000
0000
0000
0000
0000
0000
0000
0000
3000
,
0002
0003
0000
0010
0000
0000
0001
0000
0000
0100
0000
0000
0010
0000
0000
1000
0000
0000
0001
0000
0000
0010
0000
0000
0001
0000
0000
0100
0000
0000
0010
0000
0000
1000
0000
0000
0010
0000
0000
0100
0000
0000
0001
0000
0000
0010
0000
0000
,
0001
1000
0010
0100
0001
0100
0010
1000
0100
1000
0010
0100
0001
1000
0100
1000
,
0010
0100
0001
0100
0010
1000
0100
0010
0001
1000
0010
0100
0001
1000
0100
0010
,
0001
1000
0010
0100
0001
1000
0100
0010
0001
1000
0010
0100
0001
0100
0010
1000
,
0001
0010
0100
0010
0001
1000
0001
0100
0001
1000
0100
0010
0001
0100
0010
1000
,
0001
0010
0100
1000
0001
0100
0010
1000
0010
0100
0001
1000
0100
1000
0001
0100
,
0001
1000
0010
1000
0100
1000
0001
0100
0001
1000
0100
0010
0001
0100
0010
1000
,
0001
0010
0001
0100
0001
1000
0100
1000
0010
0100
0001
1000
0100
0010
0001
1000
,
0MM2
0000
0000
0000
0000
0000
0203
0302
,
0023
0000
0032
2003
0000
3200
2300
3020
,
1030
0100
1000
0001
0010
0001
0100
0001
1000
0100
0010
0001
1000
0010
0100
0001
,
1000
0100
0010
0100
1000
0001
0010
0001
1000
0010
0100
0001
0100
0010
1000
0001
,
1000
0100
0010
0001
1000
0100
0010
0001
1000
0100
0010
0100
1000
0001
0010
0001
,
1000
0010
0100
0001
1000
0001
0100
0010
1000
0001
0010
0001
1000
0100
0010
0100
,
1000
0001
0100
0001
1000
0010
0100
0001
0100
0010
1000
0001
1000
0010
0100
0010
,
1000
0001
0100
0001
1000
0010
0100
0001
1000
0100
1000
0010
1000
0001
0010
0100
,
1000
0001
0100
0010
1000
0001
0100
0001
1000
0100
0010
0100
1000
0001
0010
0001
,
0100
0010
1000
0010
1000
0001
0100
0001
1000
0100
0010
0001
0010
0001
1000
0100
,
1000
0001
0100
0010
1000
0010
1000
0001
0100
0001
1000
0010
1000
0001
0010
0001
,
1000
0010
0100
0001
1000
0100
0010
0001
1000
0010
1000
0100
1000
0001
0010
0001
,
1000
0010
0100
0001
0100
0010
1000
0001
1000
0010
0100
0010
1000
0001
0010
0001
,
1000
0010
1000
0100
1000
0001
0010
0001
1000
0010
0100
0010
1000
0100
0010
0001
,
1000
0010
0100
0001
1000
0010
0100
0001
1000
0010
1000
0100
1000
0001
0100
0001
,
1000
0100
0010
0001
0010
0001
1000
0100
1000
0001
0010
0001
1000
0100
0010
0001
,
1000
0010
0100
0001
0100
0010
1000
0001
1000
0010
1000
0001
0010
0001
0100
0001
,
1000
0100
0010
0001
1000
0001
0010
0100
1000
0001
0010
0001
1000
0100
0010
0100
,
1000
0010
0100
0010
1000
0001
0100
0001
1000
0010
1000
0001
0100
0001
1000
0010
,
1000
0001
0010
0001
1000
0100
0010
0001
1000
0100
1000
0010
1000
0001
0010
0100
,
1000
0001
0100
0001
0010
0001
1000
0010
1000
0001
0010
0100
1000
0001
0100
0010
,
1000
0001
0010
0001
0100
0001
1000
0010
1000
0001
0010
0100
1000
0001
0010
0001
,
1000
0010
0100
0001
0100
0001
1000
0100
1000
0001
0100
0001
1000
0100
0010
0100
,
1000
0001
0100
0010
1000
0001
0010
0100
1000
0001
0100
0010
0100
0001
1000
0100
,
1000
0001
0100
0001
1000
0100
0010
0001
1000
0010
0100
0001
1000
0100
1000
0001
,
0100
0001
1000
0100
1000
0001
0100
0010
1000
0001
0010
0001
1000
0010
0100
0001
,
2000
3000
0000
0100
0000
0000
1000
0000
0000
0001
0000
0000
0010
0000
0000
0100
0000
0000
0010
0000
0000
0001
0000
0000
1000
0000
0000
0010
0000
0000
0100
0000
0000
0001
0000
0000
1000
0000
0000
0010
0000
0000
0100
0000
0000
0010
0000
0000
,
1000
0001
0010
0001
1000
0100
0010
0001
1000
0010
0100
0001
1000
0010
1000
0001
,
0010
0001
1000
0100
1000
0001
0100
0010
1000
0010
0100
0001
1000
0100
0010
0001
,
1000
0100
0010
0100
1000
0001
0100
0010
1000
0001
0100
0001
1000
0100
0010
0001
,
1M00
0010
1000
0001
1000
0010
1000
0001
1000
0100
0010
0001
0100
0010
1000
0001
,
0010
0001
1000
0001
0010
0001
1000
0001
0100
0010
1000
0001
0010
0100
1000
0001
,
1000
0010
1000
0100
1000
0001
0100
0001
1000
0100
1000
0001
0100
0010
1000
0001
,
0010
0001
1000
0010
1000
0100
1000
0001
0100
0001
1000
0100
1000
0001
0100
0010
,
2000
3000
0000
0001
0000
0000
0010
0000
0000
0100
0000
0000
1000
0000
0000
0001
0000
0000
0100
0000
0000
0001
0000
0000
1000
0000
0000
0001
0000
0000
0100
0000
0000
0001
0000
0000
1000
0000
0000
0100
0000
0000
0010
0000
0000
0001
0000
0000
,
0100
0010
1000
0001
1000
0100
1000
0001
1000
0100
1000
0001
1000
0010
0100
0001
,
10M0
0100
0010
0001
1000
0010
1000
0001
0010
0001
1000
0010
1000
0100
1000
0001
,
0100
0001
1000
0100
1000
0001
0100
0001
1000
0100
0010
0001
1000
0010
0100
0001
,
2000
3000
0000
0100
0000
0000
1000
0000
0000
0001
0000
0000
2000
3000
0000
0100
0000
0000
1000
0000
0000
0001
0000
0000
1000
0000
0000
0010
0000
0000
0100
0000
0000
0001
0000
0000
2000
3000
0000
0100
0000
0000
0010
0000
0000
0001
0000
0000
,
1000
0000
0000
0001
0000
0000
0100
0000
0000
0001
0000
0000
2000
3000
0000
0001
0000
0000
0100
0000
0000
0001
0000
0000
1000
0000
0000
0100
0000
0000
0010
0000
0000
0001
0000
0000
2000
3000
0000
0010
0000
0000
0100
0000
0000
0001
0000
0000
,
1000
0000
0000
0100
0000
0000
1000
0000
0000
0001
0000
0000
0020
0030
0000
0100
0000
0000
1000
0000
0000
0001
0000
0000
1000
0000
0000
0010
0000
0000
0100
0000
0000
0001
0000
0000
0200
0300
0000
0010
0000
0000
1000
0000
0000
0100
0000
0000
,
1000
0000
0000
0001
0000
0000
0010
0000
0000
0100
0000
0000
2000
3000
0000
0001
0000
0000
0100
0000
0000
0010
0000
0000
1000
0000
0000
0010
0000
0000
1000
0000
0000
0001
0000
0000
1000
0000
0000
0100
0000
0000
0010
0000
0000
0100
0000
0000
,
1000
0000
0000
0001
0000
0000
0010
0000
0000
0001
0000
0000
2000
3000
0000
0010
0000
0000
0100
0000
0000
0001
0000
0000
0100
0000
0000
0010
0000
0000
1000
0000
0000
0001
0000
0000
2000
3000
0000
0100
0000
0000
0010
0000
0000
0001
0000
0000
,
1000
0000
0000
0001
0000
0000
0010
0000
0000
0001
0000
0000
0200
0300
0000
0010
0000
0000
1000
0000
0000
0010
0000
0000
1000
0000
0000
0001
0000
0000
0010
0000
0000
0100
0000
0000
1000
0000
0000
0001
0000
0000
0010
0000
0000
0001
0000
0000
,
1000
0010
0100
0001
0100
0010
1000
0001
0010
0001
1000
0010
1000
0001
0010
0001
,
1000
0100
0010
0001
1000
0100
0010
0001
1000
0010
0100
0001
1000
0010
0100
0001
,
2000
3000
0000
0100
0000
0000
1000
0000
0000
0001
0000
0000
0010
0000
0000
0001
0000
0000
1000
0000
0000
0100
0000
0000
1000
0000
0000
0001
0000
0000
0100
0000
0000
0010
0000
0000
0100
0000
0000
0001
0000
0000
1000
0000
0000
0100
0000
0000
,
1000
0001
0010
0100
1000
0001
0100
0010
1000
0010
0100
0001
1000
0100
1000
0001
,
0010
0001
1000
0100
1000
0001
0100
0001
1000
0100
1000
0001
0100
0001
1000
0100
,
1000
0010
1000
0001
0010
0001
1000
0010
1000
0001
0010
0100
1000
0001
0100
0010
,
1000
0001
0010
0001
1000
0100
0010
0100
1000
0001
0100
0001
1000
0010
0100
0010
,
1000
0001
0010
0001
1000
0100
1000
0001
1000
0010
0100
0001
0100
0010
1000
0001
,
1000
0100
0010
0001
1000
0001
0010
0001
1000
0010
0100
0001
1000
0010
0100
0001
,
1000
0100
0010
0001
1000
0100
0010
0001
1000
0010
1000
0001
0010
0001
1000
0010
,
2M00
3000
0000
0001
0000
0000
0010
0000
0000
0100
0000
0000
1000
0000
0000
0001
0000
0000
0100
0000
0000
0001
0000
0000
0010
0000
0000
0001
0000
0000
1000
0000
0000
0010
0000
0000
1000
0000
0000
0001
0000
0000
0010
0000
0000
0001
0000
0000
,
1000
0010
0100
0001
1000
0100
0010
0100
1000
0001
0100
0010
1000
0010
0100
0001
,
1000
0100
1000
0001
0010
0001
0100
0010
1000
0010
0100
0001
1000
0100
1000
0001
,
0010
0001
0100
0010
1000
0001
1000
0100
0010
0001
1000
0001
0010
0001
1000
0010
,
1000
0001
1000
0010
0100
0001
1000
0001
0010
0100
0010
0001
1000
0100
1000
0001
,
0100
0001
1000
0010
0100
0010
1000
0001
1000
0100
1000
0001
0010
0001
1000
0100
,
1000
0001
0100
0010
1000
0010
0100
0001
1000
0100
1000
0001
0010
0100
1000
0001
,
1000
0010
0100
0001
1000
0010
1000
0001
1000
0100
0010
0001
1000
0001
0100
0010
,
200M
0000
0000
0000
,
0000
0000
0000
0000
,
0000
0000
0000
0000
3002
0023
0030
0020
,
0230
2300
3002
2003
3004
0403
0340
4030
,
3MM1
0000
0000
0020
0030
0000
0002
0003
0000
2000
3000
0000
0002
0003
0000
0200
0300
0000
0002
0003
0000
2000
3000
0000
,
0200
0300
0000
2000
3000
0000
0002
0003
0000
2000
3000
0000
0020
0030
0000
2000
3000
0000
0002
0003
0000
0020
0030
0000
,
0002
0003
0000
2000
3000
0000
0020
0030
0000
2000
3000
0000
0002
0003
0000
0020
0030
0000
0200
0300
0000
2000
3000
0000
,
0002
0003
0000
0200
0300
0000
0020
0030
0000
2000
3000
0000
0002
0003
0000
0020
0030
0000
0002
0003
0000
0200
0300
0000
,
0002
0003
0000
2000
3000
0000
0200
0300
0000
2000
3000
0000
0020
0030
0000
2000
3000
0000
0002
0003
0000
0020
0030
0000
,
0200
0300
0000
2000
3000
0000
0020
0030
0000
0200
0300
0000
0002
0003
0000
2000
3000
0000
0200
0300
0000
0020
0030
0000
,
0200
0300
0000
2000
3000
0000
0002
0003
0000
0200
0300
0000
0020
0030
0000
0200
0300
0000
0002
0003
0000
2000
3000
0000
,
0200
0000
2300
0000
3002
0000
0203
0000
0301
0010
0100
1000
0001
0010
0100
1000
,
0002
0000
0000
0000
0003
0000
0000
0000
0000
0000
0000
0000
0100
0000
0000
0000
0000
0000
0000
0000
0000
0000
0000
0000
0020
0000
0000
0000
0000
0000
0030
0000
0000
0000
0000
0000
1000
0000
0000
0000
0000
0000
0000
0000
0000
0000
0000
0000
0020
0000
0000
0000
0000
0000
0030
0000
0000
0000
0000
0000
0100
0000
0000
0000
0000
0000
0000
0000
0000
0000
0000
0000
0002
0000
0000
0000
0000
0000
0003
0000
0000
0000
0000
0000
1000
0000
0000
0000
0000
0000
0000
0000
0000
0000
0000
0000
0020
0000
0000
0000
0000
0000
0030
0000
0000
0000
0000
0000
1000
0000
0000
0000
0000
0000
0000
0000
0000
0000
0000
0000
0002
0000
0000
0000
0000
0000
0003
0000
0000
0000
0000
0000
0100
0000
0000
0000
0000
0000
0000
0000
0000
0000
0000
0000
0002
0000
0000
0000
0000
0000
0003
0000
0000
0000
0000
0000
1000
0000
0000
0000
0000
0000
0000
0000
0000
0000
0000
0000
0200
0000
0000
0000
0000
0000
0300
0000
0000
0000
0000
0000
0010
0000
0000
0000
0000
0000
0000
0000
0000
0000
0000
0000
,
0002
0003
1000
0000
0002
0003
0010
0000
0002
0003
0100
0000
0020
0030
1000
0000
0002
0003
1000
0000
0020
0030
1000
0000
0002
0003
0010
0000
0200
0300
1000
0000
,
0002
0003
1000
0000
0002
0003
0100
0000
0020
0030
1000
0000
0002
0003
1000
0000
0200
0300
0010
0000
0002
0003
1000
0000
0002
0003
0010
0000
0002
0003
1000
0000
,
0002
0003
0100
0000
0020
0030
1000
0000
0002
0003
0010
0000
0200
0300
1000
0000
0002
0003
0100
0000
0020
0030
0100
0000
0002
0003
1000
0000
0200
0300
1000
0000
,
0020
0030
1000
0000
0001
0000
0010
0000
0001
0000
0100
0000
0010
0000
1000
0000
0010
0000
0100
0000
0001
0000
1000
0000
0100
0000
1000
0000
0001
0000
0010
0000
,
0001
1000
0001
0100
0010
1000
0001
0010
0100
1000
0001
0100
0010
1000
0010
0100
,
0001
1000
0100
1000
0010
1000
0001
0010
0001
0100
0010
1000
0010
1000
0001
0010
,
0001
0100
0001
1000
0100
1000
0001
0100
0010
1000
0001
0010
0100
1000
0001
1000
,
0MM2
0000
0000
2003
,
3020
0000
2030
3002
0000
0023
0000
0032
,
0000
0000
0000
2003
,
3020
0000
0230
0302
0000
0023
0000
0230
,
2300
0000
0000
0000
,
3MM2
0000
0000
0000
0000
0000
0000
0000
0000
0000
0000
0000
0000
0000
0000
0003
1MM1
0000
0000
0000
0000
0000
0000
0000
0000
0000
0000
0000
0000
0000
0000
0000
,
1MM1
1000
0010
1000
0001
0010
0001
1000
,
0001
0100
0001
0010
0001
1000
0010
1000
0100
1000
0001
0100
0010
1000
0100
0010
,
0002
0000
0000
0003
2020
3000
0000
0000
2030
0000
3000
0000
2002
0003
0000
0000
,
3002
0003
0202
0300
0203
0300
0220
0030
,
0320
0030
2020
3000
2030
3000
2002
0003
,
3002
0003
0022
0030
0023
0030
0220
0300
,
0230
0300
2200
3000
2300
3000
2002
0003
,
3002
0003
0202
0300
0203
0300
0220
0030
,
0320
0030
2020
3000
2030
3000
2200
0300
,
3200
0000
0300
0000
0220
0000
0030
0000
0320
0000
0030
0000
0022
0000
0003
0030
,
1MM1
0001
0010
0100
1000
0001
1000
0100
,
0010
0001
1000
0001
0100
0010
1000
0001
,
1000
0010
0100
0001
1000
0100
0010
0100
,
0010
0001
1000
0010
0100
0010
0100
0001
,
1000
0100
0010
0001
0010
0100
1000
0001
,
1000
0010
0100
0001
0100
0010
1000
0001
,
1000
0100
0010
0100
1000
0001
1000
0010
,
0100
0010
1000
0001
0010
0001
1000
0010
,
2000
3000
0000
0010
0000
0000
0100
0000
0000
0001
0000
0000
0100
0000
0000
0010
0000
0000
1000
0000
0000
0001
0000
0000
0010
0000
0000
0001
0000
0000
1000
0000
0000
0100
0000
0000
1000
0000
0000
0001
0000
0000
0100
0000
0000
0010
0000
0000
,
1000
0001
1000
0100
1000
0001
0100
0001
1000
0100
0010
0001
1000
0010
0100
0001
,
1000
0001
1000
0100
0010
0001
1000
0001
0100
0010
1000
0001
1000
0100
1000
0001
,
1000
0010
0100
0001
1000
0100
0010
0001
1000
0010
0100
0010
1000
0001
0010
0001
,
0100
0001
1000
0100
1000
0010
0100
0001
0100
0010
1000
0001
0010
0001
1000
0100
,
2000
3000
0000
0001
0000
0000
1000
0000
0000
0010
0000
0000
0100
0000
0000
0001
0000
0000
2000
3000
0000
0100
0000
0000
0010
0000
0000
0001
0000
0000
1000
0000
0000
0010
0000
0000
0100
0000
0000
0001
0000
0000
0100
0000
0000
0010
0000
0000
,
2000
3000
0000
0001
0000
0000
0010
0000
0000
0001
0000
0000
0100
0000
0000
0001
0000
0000
1000
0000
0000
0100
0000
0000
2000
3000
0000
0001
0000
0000
0010
0000
0000
0001
0000
0000
1000
0000
0000
0010
0000
0000
0100
0000
0000
0001
0000
0000
,
1000
0000
0000
0000
0000
0000
0000
0000
0100
0000
0000
0000
0000
0000
0000
0000
0010
0000
0000
0000
0000
0000
0000
0000
0001
0000
0000
0000
0000
0000
0000
0000
2000
3000
0000
0000
0020
0030
0000
0000
0200
0300
0000
0000
0002
0003
0000
0000
0020
0030
0000
0000
0200
0300
0000
0000
2000
3000
0000
0000
0020
0030
0000
0000
,
0200
0300
0000
0000
0001
0000
0000
0000
0010
0000
0000
0000
0001
0000
0000
0000
0100
0000
0000
0000
0001
0000
0000
0000
1000
0000
0000
0000
0100
0000
0000
0000
0010
0000
0000
0000
0001
0000
0000
0000
1000
0000
0000
0000
0010
0000
0000
0000
1000
0000
0000
0000
0100
0000
0000
0000
1000
0000
0000
0000
0001
0000
0000
0000
,
2000
3000
0000
0010
0000
0000
0100
0000
0000
0001
0000
0000
1000
0000
0000
0100
0000
0000
1000
0000
0000
0001
0000
0000
0100
0000
0000
0001
0000
0000
0010
0000
0000
0001
0000
0000
1000
0000
0000
0010
0000
0000
0100
0000
0000
0001
0000
0000
,
0100
0010
1000
0100
0010
0001
1000
0001
0100
0010
1000
0010
1000
0001
0010
0100
,
0010
0001
1000
0010
1000
0001
0010
0001
0100
0001
1000
0100
1000
0001
0100
0010
,
0100
0001
1000
0001
0010
0100
1000
0001
1000
0010
0100
0001
1000
0100
1000
0001
,
0200
0300
0000
0001
0000
0000
1000
0000
0000
0100
0000
0000
1000
0000
0000
0010
0000
0000
1000
0000
0000
0001
0000
0000
0010
0000
0000
0100
0000
0000
2000
3000
0000
0001
0000
0000
0100
0000
0000
0010
0000
0000
0100
0000
0000
0001
0000
0000
,
2000
3000
0000
0100
0000
0000
0010
0000
0000
0001
0000
0000
1000
0000
0000
0001
0000
0000
0100
0000
0000
0010
0000
0000
1000
0000
0000
0001
0000
0000
0010
0000
0000
0001
0000
0000
0100
0000
0000
0001
0000
0000
1000
0000
0000
0100
0000
0000
,
1000
0001
0100
0010
1000
0010
0100
0001
1000
0100
0010
0100
1000
0001
0100
0001
,
1000
0100
1000
0010
1000
0001
0010
0100
1000
0001
1000
0010
0100
0001
0100
0010
,
1000
0001
1000
0100
0010
0001
1000
0001
0100
0010
1000
0010
1000
0001
0010
0001
,
1000
0100
1000
0001
0100
0001
1000
0010
1000
0001
0010
0100
1000
0001
0100
0010
,
1000
0100
0010
0001
1000
0001
0010
0100
1000
0001
0100
0010
1000
0010
0100
0001
,
2000
0000
0000
0000
3000
0000
0000
0000
0000
0000
0000
0000
0100
0000
0000
0000
0000
0000
0000
0000
0000
0000
0000
0000
0010
0000
0000
0000
0000
0000
0000
0000
0000
0000
0000
0000
0001
0000
0000
0000
0000
0000
0000
0000
0000
0000
0000
0000
2000
0000
0000
0000
0000
0000
3000
0000
0000
0000
0000
0000
0100
0000
0000
0000
0000
0000
0000
0000
0000
0000
0000
0000
1000
0000
0000
0000
0000
0000
0000
0000
0000
0000
0000
0000
0001
0000
0000
0000
0000
0000
0000
0000
0000
0000
0000
0000
1000
0000
0000
0000
0000
0000
0000
0000
0000
0000
0000
0000
0010
0000
0000
0000
0000
0000
0000
0000
0000
0000
0000
0000
0100
0000
0000
0000
0000
0000
0000
0000
0000
0000
0000
0000
0001
0000
0000
0000
0000
0000
0000
0000
0000
0000
0000
0000
1000
0000
0000
0000
0000
0000
0000
0000
0000
0000
0000
0000
0010
0000
0000
0000
0000
0000
0000
0000
0000
0000
0000
0000
1000
0000
0000
0000
0000
0000
0000
0000
0000
0000
0000
0000
0001
0000
0000
0000
0000
0000
0000
0000
0000
0000
0000
0000
,
4000
3000
0100
0000
0010
0000
0100
0000
1000
0000
0001
0000
0040
0030
0001
0000
1000
0000
0010
0000
0100
0000
0010
0000
4000
3000
0001
0000
0100
0000
0001
0000
,
4000
3000
0100
0000
0010
0000
0001
0000
1000
0000
0001
0000
0010
0000
0001
0000
1000
0000
0001
0000
0100
0000
0010
0000
1000
0000
0001
0000
1000
0000
0010
0000
,
4000
3000
0001
0000
1000
0000
0100
0000
0010
0000
0100
0000
4000
3000
0001
0000
1000
0000
0100
0000
1000
0000
0001
0000
0400
0300
0010
0000
0100
0000
0001
0000
,
4000
3000
0001
0000
0100
0000
0001
0000
1000
0000
0100
0000
0010
0000
0001
0000
1000
0000
0100
0000
0010
0000
0100
0000
1000
0000
0001
0000
0100
0000
0010
0000
,
4000
3000
0001
0000
0100
0000
0010
0000
0100
0000
0001
0000
4000
3000
0100
0000
1000
0000
0001
0000
0010
0000
0001
0000
1000
0000
0010
0000
0100
0000
0001
0000
,
1000
0010
0100
0001
1000
0100
0010
0001
1000
0100
0010
0001
1000
0010
1000
0001
,
0100
0001
1000
0100
0010
0001
1000
0010
1000
0001
0100
0001
1000
0100
0010
0001
,
1000
0100
1000
0010
0100
0001
1000
0100
1000
0010
0100
0001
1000
0100
1000
0010
,
0100
0001
0100
0010
1000
0001
0010
0001
0100
0010
1000
0001
0010
0001
1000
0100
,
1000
0001
0100
0010
1000
0010
1000
0001
0010
0100
0010
0001
1000
0010
1000
0001
,
0100
0001
1000
0100
0010
0001
0100
0010
1000
0010
0100
0001
1000
0100
1000
0001
,
0010
0001
0100
0010
1000
0001
1000
0100
0010
0001
1000
0100
1000
0001
0100
0010
,
1000
0010
0100
0001
0010
0001
1000
0100
1000
0001
0100
0010
0100
0001
1000
0100
,
0010
0001
1000
0001
0100
0010
1000
0001
0010
0001
1000
0100
1000
0001
0100
0001
,
1000
0010
1000
0001
0010
0001
0100
0001
1000
0100
1000
0001
0100
0010
0100
0001
,
1000
0100
1000
0010
0100
0001
1000
0100
1000
0010
0100
0001
1000
0100
1000
0010
,
0100
0001
0100
0010
1000
0001
0010
0001
0100
0010
1000
0001
0010
0001
1000
0100
,
1000
0001
0100
0001
0010
0001
1000
0010
1000
0001
0010
0100
1000
0001
1000
0010
,
0100
0001
0100
0010
1000
0100
1000
0001
0010
0001
0100
0010
1000
0001
1000
0100
,
0010
0001
1000
0010
1000
0100
1000
0001
0100
0001
1000
0100
0010
0001
0100
0010
,
1000
0010
1000
0001
0010
0100
0010
0001
1000
0010
1000
0001
0010
0100
1000
0001
,
1000
0010
0100
0001
0100
0010
1000
0001
0010
0100
0010
0001
1000
0010
1000
0001
,
0100
0001
1000
0100
1000
0010
1000
0001
0010
0001
1000
0010
0100
0010
1000
0001
,
M010
0100
1000
0001
0100
0001
0010
0001
1000
0010
1000
0001
0010
0001
0100
0010
,
1000
0001
1000
0100
0010
0100
1000
0001
0100
0010
1000
0010
0100
0001
1000
0100
,
1000
0001
0010
0001
0100
0010
1000
0001
1000
0100
0010
0001
0100
0010
1000
0010
,
1000
0001
0010
0001
0100
0001
1000
0100
1000
0001
0100
0010
1000
0001
0010
0001
,
1000
0010
1000
0001
0010
0100
1000
0001
1000
0010
0100
0001
1000
0100
0010
0100
,
1000
0001
0100
0010
1000
0010
0100
0001
1000
0100
1000
0010
1000
0001
0010
0001
,
0100
0010
1000
0001
1000
0100
0010
0001
1000
0010
1000
0001
0100
0001
1000
0100
,
0010
0100
1000
0001
0100
0001
1000
0100
0010
0001
1000
0010
0100
0001
0100
0010
,
1M00
0001
0010
0001
1000
0100
1000
0001
1000
0010
0100
0001
1000
0100
1000
0001
,
0010
0001
0100
0010
1000
0010
0100
0001
1000
0001
0010
0100
1000
0001
1000
0010
,
0100
0001
0100
0001
1000
0100
1000
0001
0010
0100
1000
0001
0100
0001
0010
0001
,
1000
0010
1000
0001
0010
0001
0100
0010
1000
0010
0100
0001
1000
0100
1000
0001
,
0010
0001
1000
0010
0100
0001
1000
0001
0010
0100
1000
0001
0100
0010
1000
0010
,
0100
0001
0010
0001
1000
0100
1000
0001
0100
0010
0100
0001
1000
0100
0010
0001
,
0100
0010
1000
0010
1000
0001
0010
0100
0010
0001
1000
0010
1000
0001
0100
0001
,
1000
0100
0010
0001
1000
0010
1000
0100
1000
0001
0100
0010
1000
0001
0010
0100
,
200M
0000
0000
0000
3000
0000
000M
0000
0000
0000
0000
00M0
0000
0000
0000
0M00
,
0000
0000
0000
0000
0000
0000
0000
0000
0000
M000
0000
0000
0000
00M0
0000
0000
,
0000
0000
0M00
0000
0000
0000
0000
000M
0000
0000
0000
0000
0000
0000
0000
0000
,
0M00
0000
0000
0000
00M0
0000
0000
M000
0000
0000
0000
0000
0000
0000
0M00
0000
,
0000
0000
00M0
0000
000M
0000
0000
00M0
,
0000
0000
0M00
0000
0000
0000
0000
M000
0000
0000
0000
0000
00M0
0000
0000
0000
,
0000
0000
0000
0000
0000
0000
0M00
0000
0000
0000
00M0
0000
0000
0000
0000
M000
,
0000
0000
0000
0M00
0000
0000
0000
0000
00M0
0000
0000
0000
0000
0M00
0000
0000
,
0000
M000
0000
0000
00M0
0000
0000
0000
0000
0000
0000
M000
0000
0000
0000
000M
,
0000
0000
0000
0000
00M0
0000
0000
0000
0000
000M
0000
0000
0000
0000
0M00
0000
,
0000
00M0
0000
0000
,
0000
0000
0000
0000
,
M000
0000
0000
0000
0000
0000
0000
0000
0000
0M00
0000
0000
0000
0000
0000
0000
,
0000
0000
0000
00M0
0000
0000
0000
0000
0000
0000
0000
0000
000M
0000
0000
0000
,
0000
0000
0000
0M00
0000
0000
0000
0000
,
000M
0000
00M0
000M
0000
0000
0000
0M00
,
0000
0000
000M
0000
0000
0000
0000
M000
0000
0000
0000
0000
0000
0000
0000
0000
,
0000
0M00
0000
0000
0000
0000
M000
0000
0000
0000
0M00
0000
M000
0000
0000
0000
,
0000
0000
0000
0000
00M0
0000
0000
0000
0M00
0000
0000
0000
0000
000M
0000
0000
,
0000
00M0
0000
0M00
0000
0000
M000
0000
,
0M00
00M0
0000
0000
0000
000M
0000
0M00
,
0000
00M0
0000
0000
M000
0000
00M0
0000
,
0000
0M00
0000
0000
0000
000M
0000
M000
0000
0000
0000
0000
0000
0000
0000
000M
,
0000
0000
0000
0000
M000
0000
0000
0000
0000
000M
0000
0000
0000
0000
0000
0000
,
M000
0000
M000
0000
,
000M
0000
0000
0000
;
