#TITLE:Out of the Ashes;
#SUBTITLE:;
#ARTIST:Symphony X;
#TITLETRANSLIT:;
#SUBTITLETRANSLIT:;
#ARTISTTRANSLIT:;
#CREDIT:;
#BANNER:ootabn.png;
#BACKGROUND:Out Of The Ashes-bg.png;
#LYRICSPATH:;
#CDTITLE:!tear-cdtitle.png;
#MUSIC:Symphony X - Out Of The Ashes.mp3;
#OFFSET:-0.633;
#SAMPLESTART:124.300;
#SAMPLELENGTH:20.000;
#SELECTABLE:YES;
#BPMS:0.000=137.220;
#STOPS:;
#BGCHANGES:;
// cache tags:
#FIRSTBEAT:0.000;
#LASTBEAT:492.000;
#SONGFILENAME:Songs/Community Keyboard Megapack - Volume 3/(Tear) Out of The Ashes/Out of the Ashes.sm;
#HASMUSIC:1;
#HASBANNER:1;
#MUSICLENGTH:220.324;
// end cache tags

//---------------dance-single - ----------------
#NOTES:
     dance-single:
     :
     Hard:
     11:
     1.000,1.000,0.808,0.268,1.000,1610.000,178.000,59.000,0.000,0.000:  // measure 1
1100
0011
1001
0101
1010
1100
0110
0011
,  // measure 2
1001
0000
0101
0000
1010
0000
1100
0000
1001
0000
0110
0000
1001
0000
0001
0010
,  // measure 3
1100
0101
1010
1001
1100
0011
1100
0110
,  // measure 4
1001
0000
0101
0000
1000
0001
0010
0001
2200
0000
0000
3300
0022
0000
0000
0033
,  // measure 5
2002
0000
0000
3003
2020
0000
0000
3030
0202
0000
0000
0303
2002
0000
0000
3003
,  // measure 6
0100
0010
1000
0001
0010
0001
0100
0010
1001
0100
0010
1000
0001
0010
0100
1000
,  // measure 7
0001
0100
0010
0100
0001
1000
0100
1000
0001
0100
0010
1000
0001
0010
0100
0010
,  // measure 8
0001
1000
0010
0100
0011
1000
0100
0010
0001
0100
0010
1000
0100
1000
0001
0100
,  // measure 9
0010
1000
0001
0010
0001
1000
0010
0100
0010
1000
0001
0010
0100
0010
0001
0100
,  // measure 10
1001
0010
0100
0001
0010
0001
1000
0010
0100
0001
0010
0100
1000
0001
0100
0010
,  // measure 11
0100
0001
0010
0100
1000
0001
0010
0001
1000
0100
1000
0001
1100
0010
0100
0001
,  // measure 12
1000
0100
0010
0001
1000
0010
0100
0001
1000
0100
0010
0100
1000
0001
0010
0001
,  // measure 13
0100
0010
1000
0001
0010
0001
1000
0010
0101
1000
0001
0010
1100
0001
0100
0010
,  // measure 14
1001
0000
0000
0100
0000
0000
0001
0000
0000
1000
0000
0000
0110
0000
0000
0001
0000
0000
1000
0000
0100
0000
0010
0000
1001
0000
0000
0000
0000
0000
0000
0000
0000
0000
0000
0000
0011
0000
0000
0000
0000
0000
0000
0000
0000
0000
0000
0000
,  // measure 15
1100
0101
1010
1001
,  // measure 16
0220
0000
0000
0000
0000
0330
0100
0000
0110
0000
0000
0000
1001
0000
0000
0000
,  // measure 17
0011
0101
1010
0110
,  // measure 18
1001
0000
0100
0010
0001
1000
0010
0100
1001
0100
0010
1000
0001
0010
0001
1000
,  // measure 19
0010
0100
0010
1000
0001
0010
0100
0010
0001
0100
0010
1000
0001
0010
0100
1000
,  // measure 20
0010
0100
0001
1000
0100
0010
0001
0100
0010
0100
0001
1000
0100
1000
0010
0100
,  // measure 21
0001
1000
0100
0010
0001
0100
0010
1000
0100
1000
0001
0100
1001
0000
0110
0000
,  // measure 22
2002
0000
0000
0000
0000
0000
0000
0000
0000
3003
0000
0000
0202
0000
0000
0000
0000
0000
0000
0000
0000
0303
0000
0000
0022
0000
0000
0000
0000
0000
0000
0000
0000
0033
0000
0000
1100
0000
0000
0000
0000
0000
1000
0000
0010
0000
0100
0000
,  // measure 23
0001
1010
0000
1001
0000
1100
0000
0011
,  // measure 24
0002
0000
0000
0000
0000
0000
0000
0000
0000
0000
0000
0000
0000
0000
0000
0003
,  // measure 25
1100
0010
1100
0001
0100
0010
1001
0100
0010
1000
0011
0100
0001
1000
0110
0001
,  // measure 26
1000
0100
0011
1000
0001
0100
1010
0001
0100
0010
1001
0010
0100
0001
1100
0010
,  // measure 27
1000
0100
1001
0010
0100
0001
1010
0100
0001
0010
1100
0001
0100
0010
1001
0100
,  // measure 28
0010
1000
0110
0001
1000
0100
0011
1000
0010
0100
1001
0010
1001
0000
0100
0010
,  // measure 29
1001
0010
1001
0100
0010
1000
0101
0010
1000
0100
0011
1000
0001
0100
1010
0001
,  // measure 30
0100
0010
1001
0100
0010
1000
0110
0001
1000
0100
0011
1000
0010
0100
1001
0010
,  // measure 31
0100
0001
1100
0010
1000
0100
0011
1000
0010
0100
1001
0010
0100
0001
1010
0100
,  // measure 32
0001
0010
1100
0001
0100
0010
1001
0100
0001
1000
0110
0001
1000
0100
1000
0001
,  // measure 33
0100
0010
0000
1000
0100
1000
0000
0010
0100
0001
1000
0100
0010
0000
0001
0000
,  // measure 34
0100
0010
0000
1000
0000
0001
0010
0100
1000
0001
0100
0010
0100
0000
0001
0000
,  // measure 35
1000
0100
0000
1000
0000
0010
0100
0001
0010
0000
0001
0000
0100
0010
0000
0100
,  // measure 36
0000
0001
1000
0100
1000
0010
0100
0001
1000
0000
0100
0000
0010
0001
0000
0100
,  // measure 37
0010
1000
0001
0010
0100
0000
1000
0000
0001
0010
0000
0100
1000
0001
0100
0010
,  // measure 38
1000
0001
0010
0000
0002
0000
0000
0000
0000
0000
0000
0000
0023
0000
0000
0000
,  // measure 39
0000
0000
0230
0000
0000
1300
0001
0100
,  // measure 40
0010
0000
0100
0010
1001
0000
0000
0000
0000
0000
0000
0000
0000
0000
0000
0000
,  // measure 41
0000
0000
0000
0000
0000
0000
0000
0000
1000
0000
0010
0100
1001
0010
0100
0001
,  // measure 42
1000
0100
0010
0001
0100
0010
1000
0100
1000
0001
0100
0010
0100
0001
1000
0100
,  // measure 43
0010
0100
1000
0001
0100
0010
1000
0001
0010
0001
0100
0010
1000
0001
0010
0100
,  // measure 44
0010
0001
0100
0010
1000
0001
0100
0010
0100
0001
1000
0100
0010
0001
0100
0010
,  // measure 45
1000
0001
1000
0010
0100
0001
0010
0100
1000
0010
0100
0010
1001
0100
0010
1000
,  // measure 46
0100
0010
0001
0100
0010
1000
0001
0010
0001
0100
0010
1000
0001
0010
0001
0100
,  // measure 47
0010
1000
0001
0100
0010
0100
0001
1000
0100
0010
0001
1000
0110
0001
1000
0100
,  // measure 48
1000
0001
0100
0010
1001
0100
0010
1000
0001
0010
0100
1000
0110
0001
1000
0100
,  // measure 49
1000
0010
0100
0001
1000
0100
1000
0001
0100
0010
1000
0100
0011
0000
0001
0101
,  // measure 50
0000
0000
0000
1000
0000
0000
1100
0000
0000
0000
0000
0000
0000
0000
0000
0000
0000
0000
0001
0000
0000
0000
0000
0000
0011
0000
0000
0000
0000
0000
0100
0000
0000
0010
0000
0000
1001
0000
0000
0100
0000
0000
0010
0000
1000
0000
0001
0000
,  // measure 51
0010
0100
1000
0001
0100
0010
1000
0001
0010
0001
1000
0100
0010
0001
0100
0010
,  // measure 52
0100
0001
0010
0002
0000
0000
0000
0000
0000
0000
1003
0010
0200
0000
0000
0000
,  // measure 53
0301
0000
0010
0000
0100
0000
1000
0000
0000
0010
0000
0000
0200
0000
0000
0000
0000
0000
0000
0000
0000
0000
0000
0000
0001
0000
0000
0010
0000
0000
1000
0000
0000
0310
0000
0000
1001
0000
0100
0000
0010
0000
1000
0000
0000
0001
0000
0000
,  // measure 54
0010
0000
0000
0001
0000
0000
1000
0000
0000
0010
0000
0000
1000
0000
0100
0000
0010
0000
0001
0000
0000
1000
0000
0000
0020
0000
0000
0000
0000
0000
0000
0000
0000
0030
0000
0000
0110
0000
0000
1000
0000
0000
0001
0000
0000
0010
0000
0000
,  // measure 55
0001
0100
0010
1000
0001
0010
0100
1000
0010
0100
0001
1000
0100
0010
0001
0100
,  // measure 56
0010
0100
0001
1000
0100
0010
0100
1000
0001
0100
0010
1000
0001
0010
0001
1000
,  // measure 57
0010
0100
0010
1000
0100
0010
0001
0100
0010
1000
0001
0010
0001
0100
0010
1000
,  // measure 58
0001
0010
0100
1000
0010
0100
0010
1000
0001
0010
0001
0100
1001
0000
0000
1001
,  // measure 59
0000
0000
1001
0000
0100
0010
1001
0000
0000
1001
0000
0000
1001
0000
0100
0010
,  // measure 60
1001
0000
0000
1001
0000
0000
1001
0000
0100
0010
0100
0001
1000
0100
0010
0001
,  // measure 61
1000
0010
0100
0001
1000
0100
1000
0001
0100
0010
1000
0001
0010
0100
0010
0001
,  // measure 62
0100
0000
0000
0010
0000
0000
1000
0000
0000
0001
0000
0000
0010
0000
0000
0001
0000
0000
0100
0000
0000
0010
0000
0000
1000
0000
0000
0001
0000
0000
0010
0000
0100
0000
1000
0000
0001
0000
0000
0000
0000
0000
0000
0000
0000
0000
0000
0000
,  // measure 63
0100
0010
0000
1000
0100
1000
0000
0001
1000
0001
0010
0000
0100
1000
0000
0001
,  // measure 64
0000
0100
0010
1000
0001
0010
0100
1000
0010
0000
0100
0000
0001
1000
0000
0010
,  // measure 65
0100
0001
1000
0100
0010
0000
0001
0000
0100
0010
0000
1000
0000
0001
0010
0001
,  // measure 66
0100
0010
1000
0100
1000
0000
0001
0000
0100
0010
0000
1000
0100
0010
0001
1000
,  // measure 67
0010
0000
0100
0000
0001
0010
0000
0100
1000
0100
0010
0001
0100
0010
1000
0000
,  // measure 68
0200
0000
2300
0000
,  // measure 69
3020
0000
0000
0000
0000
0000
0000
0000
0230
0000
0000
0000
0000
0000
0301
1000
,  // measure 70
0110
0000
0000
0000
,  // measure 71
0000
0000
0000
0000
0000
0000
1000
0000
0100
0000
0010
0000
0001
0000
0000
1000
0000
0000
0010
0000
0000
1000
0000
0000
0100
0000
0000
0010
0000
0000
0001
0000
0000
1000
0000
0000
0010
0000
0000
0100
0000
0000
0001
0000
0000
1000
0000
0000
,  // measure 72
0100
1000
0010
0100
0001
1000
0010
0100
0010
1000
0001
0010
0100
1000
0010
0100
,  // measure 73
0001
1000
0100
1000
0010
0100
0001
1000
0100
0010
0001
1000
0100
1000
0001
0100
,  // measure 74
0010
1000
0001
0010
0001
0100
0010
1000
0001
0010
0100
1000
0010
0100
0001
1000
,  // measure 75
0100
0010
0001
0100
0010
1000
0001
0010
1100
0000
0001
0010
0100
1000
0010
0100
,  // measure 76
0001
1000
0100
1000
0001
0100
0001
0010
0100
0010
0001
1000
0010
0100
0001
1000
,  // measure 77
0100
0010
0001
0100
0010
1000
0001
0100
1001
0100
0010
1000
0001
0010
0100
1000
,  // measure 78
0110
0001
1000
0100
1000
0001
0100
0010
1001
0100
0010
1000
0001
0010
0001
1000
,  // measure 79
0010
0100
0001
1000
0100
1000
0001
0100
1001
0000
1000
1010
0000
0001
0101
0000
,  // measure 80
1000
0000
0000
0100
0000
0000
0010
0000
0000
0001
0000
0000
0110
0000
0000
0000
0000
0000
1000
0000
0000
0000
0000
0000
0110
0000
0000
0000
0001
0000
0000
0000
1000
0000
0000
0000
0100
0000
0000
0000
1000
0000
0001
0000
0010
0000
0001
0000
,  // measure 81
0000
0000
0000
0100
0000
0000
0010
0000
0100
0000
1000
0000
0001
0000
0000
0100
0000
0000
0010
0000
1000
0000
0001
0000
0010
0000
0000
0100
0000
0000
0010
0000
0001
0000
1000
0000
0010
0000
0000
1000
0000
0000
0100
0000
0010
0000
0001
0000
,  // measure 82
1000
0000
0000
0100
0000
0000
1000
0000
0010
0000
0100
0000
0001
0000
0000
1000
0000
0000
0100
0000
0000
1000
0000
0000
0010
0000
0000
0000
0100
0000
0000
0000
0001
0000
0000
0000
0010
0000
0100
0000
1000
0000
0001
0000
0100
0000
0010
0000
,  // measure 83
2000
0000
0000
0000
0000
0000
0000
0000
0000
3010
0100
0001
1000
0100
1000
0010
0100
0001
0010
0001
1000
0010
0100
0010
,  // measure 84
1000
0000
0100
0000
0010
0000
0001
0000
0100
0000
0010
0000
2000
0000
0000
0000
0000
0000
0000
0000
0000
0000
0000
0000
3010
0000
0000
0100
0000
0000
0001
0000
0000
1000
0000
0000
0100
0000
0000
0010
0000
0000
0001
0000
0000
1000
0000
0000
,  // measure 85
0100
1000
0010
0100
0001
1000
0010
0100
0010
1000
0001
0010
0100
0010
0001
0100
,  // measure 86
0010
0000
0100
0000
0001
0000
1000
0000
0100
0000
1000
0000
0010
0000
0100
0000
0001
0000
0010
0000
0000
0000
0000
0000
0100
0000
0000
1000
0000
0000
0001
0000
0000
0100
0000
0000
0001
0000
1000
0000
0010
0000
0100
0000
0000
0001
0000
0000
,  // measure 87
0010
0000
0000
0000
0000
0000
0000
0000
0100
0000
0000
0000
0000
0000
0000
0000
1000
0000
0000
0000
0000
0000
0000
0000
0001
0000
0000
0000
0000
0000
0100
0000
0000
0000
0000
0000
0010
0000
0000
0000
0000
0000
1000
0000
0000
0000
0000
0000
0100
0000
0000
0000
0000
0000
0000
0000
0000
0000
0000
0000
0010
0000
0000
0000
0000
0000
0000
0000
0000
0000
0000
0000
0100
0000
0000
0000
0000
0000
0000
0000
0000
0000
0000
0000
1000
0000
0000
0000
0000
0000
0000
0000
0000
0000
0000
0000
0010
0000
0000
0000
0000
0000
0000
0000
0100
0000
0000
0000
0000
0000
0000
0000
0001
0000
0000
0000
0000
0000
0000
0000
1000
0000
0000
0000
0000
0000
0100
0000
0000
0000
0000
0000
0010
0000
0000
0000
0000
0000
0001
0000
0000
0000
0000
0000
0100
0000
0000
0000
0000
0000
0000
0000
0000
0000
0000
0000
0010
0000
0000
0000
0000
0000
0000
0000
0000
0000
0000
0000
1000
0000
0000
0000
0000
0000
0000
0000
0000
0000
0000
0000
0001
0000
0000
0000
0000
0000
0000
0000
0000
0000
0000
0000
,  // measure 88
0010
0100
0010
1001
0000
0000
0100
0010
0100
1001
0000
0000
0010
0000
0000
0100
0001
1000
0100
0000
0000
0010
0000
0000
,  // measure 89
0200
0000
0000
0000
0000
0000
0000
0000
0000
0000
0000
0000
0000
0000
0000
0000
0000
0000
0300
0000
0000
0000
0000
0000
1000
0000
0000
0000
0000
0000
0000
0000
0010
0000
0000
0000
0000
0000
0000
0000
0100
0000
0000
0000
0000
0000
0000
0000
0002
0000
0000
0000
0000
0000
0000
0000
0000
0000
0000
0000
0000
0000
0000
0000
0000
0000
0000
0000
0000
0000
0000
0000
1000
0000
0000
0000
0000
0000
0000
0000
0000
0000
0000
0000
0003
0000
0000
0000
0000
0000
0000
0000
0000
0000
0000
0000
2200
0000
0000
0000
0000
0000
0000
0000
0000
0000
0000
0000
0000
0000
0000
0000
0000
0000
0000
0000
0000
0000
0000
0000
0000
0000
0000
0000
0000
0000
0000
0000
0000
0000
0000
0000
3300
0000
0000
0000
0000
0000
0000
0000
0000
0000
0000
0000
0022
0000
0000
0000
0000
0000
0000
0000
0000
0000
0000
0000
0000
0000
0000
0000
0000
0000
0000
0000
0000
0000
0000
0000
0000
0000
0000
0000
0000
0000
0000
0000
0000
0000
0000
0000
0033
0000
0000
0000
0000
0000
0000
0000
0000
0000
0000
0000
,  // measure 90
0202
0000
0000
0000
0000
0000
0000
0000
0000
0303
0000
0000
2020
0000
0000
0000
0000
0000
0000
0000
0000
3030
0000
0000
0001
0000
0000
0000
0100
0000
0010
0000
1000
0000
0001
0010
0100
0000
0000
0000
1000
0000
0001
0000
0100
0000
0010
0000
,  // measure 91
1000
0000
0001
0000
0010
0000
0001
0000
0100
0000
0010
0000
1000
0000
0000
0001
0000
0000
0010
0000
0000
0001
0000
0000
0100
0000
0010
0000
1000
0000
0001
0000
0010
0000
0001
0000
0100
0000
0010
0000
1000
0000
0100
0000
0010
0000
0001
0000
,  // measure 92
1000
0010
0100
0010
1000
0001
0010
0100
1000
0001
0100
0010
1000
0001
0010
0001
1000
0100
0010
0001
1000
0010
0100
0001
,  // measure 93
1000
0000
0000
0000
0000
0000
0000
0000
0100
0000
0000
0000
0000
0000
0000
0000
0010
0000
0000
0000
0000
0000
0000
0000
1001
0000
0000
0000
0000
0000
0000
0000
0000
0000
0000
0000
0000
0000
0000
0000
0000
0000
0000
0000
0000
0000
0000
0000
0000
0000
0000
0000
0000
0000
0000
0000
0000
0000
0000
0000
0000
0000
0000
0000
0000
0000
0000
0000
0000
0000
0000
0000
1001
0000
0000
0000
0000
0000
0000
0000
0010
0000
0000
0000
0000
0000
0000
0000
0100
0000
0000
0000
0000
0000
0000
0000
0002
0000
0000
0000
0000
0000
0000
0000
0000
0000
0000
0000
0000
0000
0000
0000
0000
0000
0000
0000
0000
0000
0000
0000
0003
0000
0000
0000
0000
0000
0000
0000
0000
0000
0000
0000
2000
0000
0000
0000
0000
0000
0000
0000
0000
0000
0000
0000
0000
0000
0000
0000
0000
0000
3000
0000
0000
0000
0000
0000
0001
0000
0000
0000
0000
0000
0000
0000
0000
0000
0000
0000
0200
0000
0000
0000
0000
0000
0000
0000
0000
0000
0000
0000
0000
0000
0000
0000
0000
0000
0000
0000
0000
0000
0000
0000
,  // measure 94
0300
0000
0000
0000
0000
0000
0010
0000
0000
0000
0000
0000
2000
0000
0000
0000
0000
0000
0000
0000
0000
0000
0000
0000
0000
0000
0000
0000
0000
0000
0000
0000
0000
0000
0000
0000
3000
0000
0000
0000
0000
0000
0001
0000
0000
0000
0000
0000
0020
0000
0000
0000
0000
0000
0000
0000
0000
0000
0000
0000
0000
0000
0000
0000
0000
0000
0000
0000
0000
0000
0000
0000
0130
0000
0000
0000
0000
0000
0000
0000
0000
0000
0000
0000
0000
0000
0000
0000
0010
0000
0000
0000
0000
0000
0000
0000
0001
0000
0000
0000
0000
0000
0000
0000
0000
0000
0000
0000
1000
0000
0000
0000
0000
0000
0000
0000
0000
0000
0000
0000
0010
0000
0000
0000
0000
0000
0000
0000
0000
0000
0000
0000
0100
0000
0000
0000
0000
0000
0000
0000
0000
0000
0000
0000
0001
0000
0000
0000
0000
0000
0000
0000
0000
0000
0000
0000
1000
0000
0000
0000
0000
0000
0000
0000
0000
0000
0000
0000
0100
0000
0000
0000
0000
0000
0000
0000
0000
0000
0000
0000
0010
0000
0000
0000
0000
0000
0000
0000
0000
0000
0000
0000
,  // measure 95
0001
0001
0100
0100
0010
0100
0001
0010
1001
0000
0100
1000
0001
0100
0010
0000
,  // measure 96
2000
0000
0000
0000
0000
3000
0200
0000
0000
0000
0000
0300
2000
0000
0000
3000
0010
0000
0100
0000
0001
0000
1000
0000
0100
0000
1000
0000
0010
0000
0100
0000
,  // measure 97
0001
0000
1000
0000
0110
0000
0001
0000
1000
0000
0100
0000
0011
0000
1000
0001
0100
0000
0010
0000
0100
0000
0001
0000
1000
0000
0100
0000
0010
0000
0001
0000
,  // measure 98
1000
0010
0100
0001
1000
0100
1000
0001
0100
0010
0100
0001
0010
0100
0010
0001
,  // measure 99
1000
0010
0100
0010
1000
0001
0100
0010
1001
0000
0000
0000
1001
0000
0000
0000
,  // measure 100
1001
0000
1001
1001
1001
0000
1100
0000
,  // measure 101
1100
0000
1100
1100
1100
0000
0011
0000
,  // measure 102
0011
0000
0000
0000
0000
0000
0000
0000
0000
0000
0000
0000
0011
0000
0000
0000
0000
0000
0011
0000
0000
0000
0000
0000
0012
0000
0000
0000
0000
0000
0000
0000
0000
0003
0000
0000
0100
0000
0000
0000
0000
0000
0010
0000
1000
0000
0001
0000
,  // measure 103
0010
0000
0001
1000
0100
1000
0010
0100
0001
1000
0100
0010
0100
1000
0001
0100
,  // measure 104
0010
1000
0001
0010
0001
0100
0010
1000
0001
0010
0100
0010
0001
1000
0010
0100
,  // measure 105
0001
1000
0100
1000
0010
0100
0001
1000
0100
0010
0001
1000
0010
0100
0001
0010
,  // measure 106
0001
0100
0010
1000
0001
0010
0001
0100
0010
1000
0001
0010
0100
1000
0010
0100
,  // measure 107
1001
0000
0010
0100
0001
1000
0100
1000
0001
0100
0010
1000
0001
0010
0001
1000
,  // measure 108
0010
0100
0001
1000
0100
0010
0001
1000
0010
0100
0001
1000
0100
1000
0010
0100
,  // measure 109
1001
0010
0100
0001
1000
0100
0010
0001
0110
1000
0001
0100
0010
1000
0001
0010
,  // measure 110
1100
0001
0100
0010
1000
0001
0100
0010
1000
0100
0010
0100
1000
0001
0100
0010
,  // measure 111
1001
0000
1000
1100
0000
0011
0000
0000
0101
0000
0000
1001
0100
0010
1000
0001
,  // measure 112
0110
1000
0001
0100
0010
1000
0001
0010
0100
0010
0001
1000
0010
0100
0001
1000
,  // measure 113
0100
1000
0010
0100
0001
1000
0100
0010
0001
1000
0010
1000
0001
0010
0001
0100
,  // measure 114
0010
1000
0001
0010
0001
0100
0010
1000
0001
0010
0100
1000
0010
0100
0001
1000
,  // measure 115
0100
1000
0001
0100
0010
1000
0001
0010
0001
0100
0010
1000
0100
0010
0001
0100
,  // measure 116
1001
0000
0010
0100
0001
1000
0100
0010
0001
0100
0010
1000
0001
0010
0001
1000
,  // measure 117
0010
0100
0001
1000
0100
1000
0010
0100
0001
1000
0100
0010
0100
1000
0010
0100
,  // measure 118
1001
0010
0100
0010
1000
0001
0010
0001
1100
0010
0100
0001
1000
0100
1000
0010
,  // measure 119
0101
0000
1000
0100
0010
0001
0100
0010
1000
0001
0010
0100
1000
0010
0100
0001
,  // measure 120
1100
0000
0001
0101
0000
1000
1010
0000
0001
0000
0011
0000
0001
0000
0101
0000
,  // measure 121
1000
0100
1000
0001
0100
0010
1000
0001
0010
0100
1000
0010
0100
0010
1000
0100
,  // measure 122
1000
0001
0100
0010
0100
0001
1000
0100
2002
0000
0000
0000
0000
0000
0000
3003
,  // measure 123
0220
0000
0000
0000
0000
0000
0000
0000
0000
0000
0000
0000
0000
0000
0000
0000
0000
0000
0000
0000
0000
0330
0000
0000
2002
0000
0000
0000
0000
0000
0000
0000
0000
0000
0000
0000
0000
0000
0000
3003
0000
0000
1000
0000
0100
0000
0010
0000
,  // measure 124
0001
0000
0000
0000
;
