#TITLE:MaxX ResurexXion;
#SUBTITLE:~Steps by MaxX PoweR~;
#ARTIST:DJ Demon;
#TITLETRANSLIT:;
#SUBTITLETRANSLIT:;
#ARTISTTRANSLIT:;
#CREDIT:;
#BANNER:maxxbanner.jpg;
#BACKGROUND:maxxresurexionbg.jpg;
#LYRICSPATH:;
#CDTITLE:Hadoken!!-cdtitle.png.jpg;
#MUSIC:maxx_resurrexxion.mp3;
#OFFSET:-0.045;
#SAMPLESTART:51.200;
#SAMPLELENGTH:15.620;
#SELECTABLE:YES;
#BPMS:0.000=300.000,192.000=150.000,224.000=300.000,495.000=150.000,503.000=599.995,505.000=666.000;
#STOPS:;
#BGCHANGES:;
// cache tags:
#FIRSTBEAT:0.000;
#LASTBEAT:533.500;
#SONGFILENAME:Songs/dragon force/MaxX ResurrexXion/maxx resurrexxion.sm;
#HASMUSIC:1;
#HASBANNER:1;
#MUSICLENGTH:114.703;
// end cache tags

//---------------dance-single - MaxX PoweR Edit----------------
#NOTES:
     dance-single:
     MaxX PoweR Edit:
     Challenge:
     12:
     1.000,1.000,0.828,0.619,0.196,677.000,95.000,71.000,158.000,7.000:

1000
0001
0100
0001
0100
0010
1000
0001
,
0100
0010
0100
0001
1000
0010
0100
0001
,
1000
0100
0010
0001
0100
0010
1000
0010
,
0100
0001
1000
0001
0100
0010
1000
0010
,
1000
0100
0010
0100
1000
0100
0010
0001
,
0010
0100
0010
0001
0010
0100
1000
0001
,
0100
0010
0100
0010
1000
0001
0100
0001
,
1000
0100
0010
0001
1000
0010
0100
0001
,
1010
0001
0101
1000
,
0011
0100
1001
0010
,
1100
0001
0110
1000
,
0011
0100
1010
0001
,
1100
0101
0011
1010
,
0101
1001
1100
0110
,
0101
1010
1001
0011
,
0001
0100
0010
0100
0001
1000
0010
0100
,
0001
0000
2000
0100
3000
0001
0000
0100
,
0010
0000
0002
0100
0003
0010
0000
1000
,
0001
0000
0200
0001
0300
1000
0000
0001
,
0100
1MM1
M11M
M1M1
,
1000
0000
0002
0100
0003
0010
0000
1000
,
0100
0000
2000
0010
3000
0001
0000
0010
,
1000
0000
0020
0100
0030
0001
0000
1000
,
0010
M1M1
M11M
1M1M
,
1000
0000
0002
0100
0003
0010
0000
1000
,
0001
0000
2000
0010
3000
1000
0000
0001
,
0100
0000
0020
0100
0030
0001
0000
0100
,
0010
1MM1
M11M
1M1M
,
0001
0000
0020
0001
0030
0100
0000
0010
,
0100
0000
0020
1000
0030
0001
0000
0100
,
0001
0000
0002
0100
0003
0010
0000
1000
,
0100
1M1M
M11M
M1M1
,
1MM1
0000
0000
0000
0101
0000
0010
0001
,
0010
0001
0100
0001
0100
0001
1000
0010
,
1000
0010
0100
0001
0100
0001
0010
0001
,
0010
0001
1000
0100
1000
0000
1001
0000
,
0101
0000
MM1M
0000
1010
0000
1000
0100
,
0010
0001
0100
0010
1000
0000
1100
0000
,
0011
0000
1000
0100
1000
0010
0100
0001
,
0100
0010
1000
0100
1000
0000
0110
0000
,
0101
0000
MMM1
0000
1001
0000
0001
0100
,
0010
1000
0100
0010
0001
0100
0010
1000
,
0001
0100
0010
1000
0100
0010
0001
0100
,
0010
1000
0001
0100
0010
0000
0011
0000
,
1100
0000
MM1M
0000
0101
0000
0100
0010
,
1000
0100
0010
0001
0100
0000
0110
0000
,
1010
0000
0001
0010
0100
0010
0001
1000
,
0100
0010
0100
1000
0100
0010
0001
0010
,
0202
0000
0000
0303
,
2010
0000
0000
3200
0000
0000
0320
1000
,
0132
0000
0000
0003
,
0201
0000
0000
0320
0000
0000
2030
0100
,
3012
0000
1000
0003
,
1200
0000
0000
0320
0001
0000
0230
0010
,
1302
0010
1000
0103
,
2001
0000
3100
0020
1000
0030
0002
0000
,
1003
0100
0010
0001
,
1000
0000
0010
0000
0100
0000
0001
0100
,
0010
1000
0001
0100
,
0001
0000
0100
0010
0100
0000
0001
1000
,
0001
0100
0010
0001
,
0010
0000
1000
0000
0100
0000
0010
0001
,
1000
0001
0010
0100
,
1000
0000
0010
0100
0010
0000
1000
0001
,
0100
0001
1000
0000
0010
0000
0100
0000
,
0001
0100
0001
0000
1000
0000
0010
0000
,
0100
0001
1000
0000
0010
0100
0001
0000
,
0100
0001
0010
0000
0001
1000
0010
0000
,
0100
0001
1000
0010
0100
0001
0010
0100
,
1000
0010
0100
0001
1000
0010
0100
0001
,
1000
0100
0010
0001
0100
0010
1000
0001
,
1000
0100
0010
0001
1000
0010
0100
0001
0010
0100
1000
0000
,
0002
0000
0003
2000
,
0000
0000
3200
0000
,
0000
0310
0000
0000
,
0002
0000
0000
0000
,
0113
0000
1000
0000
0001
1000
0100
1000
,
0010
0000
1000
0000
0001
0100
0010
1000
,
0001
0000
1000
0000
0010
1000
0001
0100
,
0001
1100
0101
1001
,
1010
0000
0100
0000
0001
0010
1000
0010
,
0001
0000
1000
0000
0100
1000
0001
0010
,
0100
0000
0010
0000
0001
0010
0100
1000
,
0100
1010
1100
0110
,
0011
0000
0001
1000
0010
0100
0001
1000
,
0010
0000
0100
0010
1000
0001
0010
0100
,
0010
0000
0100
1000
0010
0100
0001
0010
,
0001
0101
0011
1010
,
1100
0000
0010
0001
0100
0010
0100
0001
,
0100
0000
1000
0100
0001
0010
0100
1000
,
0100
0000
1000
0001
0100
1000
0100
0001
,
0010
1010
0110
0101
,
2MM2
0000
0000
3003
M1M2
0000
0000
0000
,
1000
0000
0003
0000
0010
0000
22MM
3300
,
MM22
0000
0100
0033
,
1000
0000
0001
0000
0010
0000
2MM2
3003
,
M2M2
0000
0000
0303
21MM
0000
0000
0000
,
0001
0000
3000
0000
0100
0000
MM22
0033
,
M22M
0000
0001
0330
,
1000
0000
0100
0000
0010
0000
M2M2
0303
,
2MM2
0000
0000
3003
M12M
0000
0000
0000
,
0001
0000
0030
0000
1000
0000
22MM
3300
,
M2M2
0000
1000
0303
,
0010
0000
1000
0000
0100
0000
2M2M
3030
,
MM22
0000
0000
0033
2MM1
0000
0000
0000
,
0100
0000
3000
0000
1000
0000
0010
0100
,
0002
0000
0000
2003
0000
0000
3020
0000
,
0230
0000
0000
0302
0000
0000
2003
0000
,
3001
0100
0001
0100
0010
1000
0010
1000
,
0001
0010
0001
0010
0100
1000
0100
1000
,
0001
1000
0001
1000
0010
0100
0010
0100
,
0010
1MM1
M11M
1MM1
,
1000
0100
0010
0001
0100
0010
1000
0001
,
0100
0010
1000
0001
0010
0100
1000
0010
,
1000
0001
0100
0001
0010
0100
1000
0010
,
0100
M11M
1MM1
M11M
,
1000
0M00
0010
000M
0100
M000
0010
0000
010M
0000
1000
0000
0M01
0000
0010
0000
,
010M
M000
0010
0000
1000
00M0
0100
0000
M010
0000
0001
00M0
0100
0000
M010
0000
,
0001
0M00
1000
000M
0100
00M0
0001
M000
0010
0000
010M
0000
1000
0M00
0010
000M
,
0100
M000
0001
00M0
1000
0M00
001M
0000
0100
0000
10M0
0000
0100
M000
0001
0000
,
0M10
0000
1000
000M
0010
0M00
0001
0000
10M0
0000
010M
0000
M010
0000
0001
0000
,
1M00
0000
001M
0000
0100
M000
0001
0000
0010
000M
0100
M000
0001
00M0
0100
0000
,
1000
000M
0010
0000
0100
M000
0001
0000
0010
0M00
0001
0000
1000
000M
0010
0000
,
0100
0000
0000
M000
0001
0000
0000
0000
0010
0000
0000
0000
010M
0000
0000
0000
1000
0000
0000
0000
0001
0000
0000
0000
1M00
0000
0000
0000
0010
0000
0000
0000
0100
000M
0000
0000
0010
0000
0000
0000
0000
0000
0000
0000
0000
0000
0000
0000
,
1000
0000
0000
1000
0000
0000
1000
0000
0000
1000
0000
0000
1000
0000
0000
0000
,
0001
0000
0000
0001
0000
0000
0001
0000
0000
0001
0000
0000
0001
0000
0000
0000
,
0000
20M2
0M00
00M0
,
0M00
00M0
0M00
00M0
,
0M00
00M0
0M00
00M0
,
0M00
00M0
0M00
00M0
,
0M00
00M0
0M00
00M0
,
0M00
00M0
0M00
00M0
,
0M00
00M0
0M00
00M0
,
0M00
0000
30M3
MMMM
0000
0000
0000
0000
;

//---------------dance-single - MaxX PoweR Edit----------------
#NOTES:
     dance-single:
     MaxX PoweR Edit:
     Hard:
     10:
     0.918,0.973,0.183,0.872,0.017,616.000,21.000,100.000,0.000,0.000:



0001
1000
0010
1000
0010
0100
0001
1000
,
0010
0100
0010
1000
0001
0100
0010
1000
,
0001
0010
0100
1000
0010
0100
0001
0100
,
0010
1000
0001
1000
0010
0100
0001
0100
,
0001
0010
0100
0010
0001
0010
0100
1000
,
0100
0010
0100
1000
0100
0010
0001
1000
,
0010
0100
0010
0100
0001
1000
0010
1000
,
0001
0010
0100
1000
0001
0100
0010
1000
,
0001
1000
0010
0100
,
0010
1000
0001
1000
,
0001
0010
0001
0100
,
0010
1000
0001
0010
,
0100
1000
0010
0100
,
0010
1000
0001
1000
,
0010
0100
0001
0010
,
0001
0100
0010
0100
0001
1000
0010
0100
,
0001
0000
2000
0000
3000
0001
0000
0100
,
0010
0000
2000
0000
3000
0010
0000
1000
,
0001
0000
0200
0000
0300
0010
0000
1000
,
0002
0203
0320
2030
,
3010
0000
0200
0000
0300
0001
0000
1000
,
0100
0000
0020
0000
0030
0001
0000
0010
,
1000
0000
0020
0000
0030
0100
0000
1000
,
0020
2030
3002
0203
,
0301
0000
2000
0000
3000
0010
0000
0100
,
0001
0000
0020
0000
0030
0001
0000
1000
,
0010
0000
0200
0000
0300
0001
0000
1000
,
0020
0230
0302
2003
,
3100
0000
0020
0000
0030
0001
0000
0010
,
0100
0000
2000
0000
3000
0001
0000
0100
,
0001
0000
0200
0000
0300
0010
0000
1000
,
0200
0320
0032
2003
,
3010
0000
0000
0000
1001
0000
0100
1000
,
0100
1000
0010
1000
0010
1000
0001
0100
,
0001
0100
0010
1000
0010
1000
0100
1000
,
0100
1000
0001
0010
0001
0000
1000
0000
,
0010
0000
0000
0000
0100
0000
0001
0010
,
0100
1000
0010
0100
0001
0000
0010
0000
,
0100
0000
1000
0100
1000
0010
0100
0001
,
0100
0010
1000
0100
1000
0000
0010
0000
,
0100
0000
0000
0000
0001
0000
1000
0010
,
0100
0001
0010
0100
1000
0010
0100
0001
,
1000
0010
0100
0001
0010
0100
1000
0010
,
0100
0001
1000
0010
0100
0000
0001
0000
,
1000
0000
0000
0000
0001
0000
0100
0010
,
1000
0100
0010
0001
0100
0000
0010
0000
,
1000
0000
0001
0010
0100
0010
0001
1000
,
0100
0010
0100
1000
0100
0010
0001
0000
,
2002
0000
0000
3003
,
0002
0000
0000
0023
0000
0000
0230
0000
,
2300
0000
0000
3000
,
0020
0000
0000
0230
0000
0000
0302
0000
,
2003
0000
0000
3000
,
0020
0000
0000
0230
0000
0000
0320
0000
,
2030
0000
0000
3000
,
0002
0000
0003
0200
0000
0000
0302
0000
,
1003
0100
0010
0001
,
1000
0010
0100
0001
,
0100
0001
1000
0010
,
1000
0010
0100
0001
,
1000
0010
0100
1000
,
0100
0001
0010
0100
,
1000
0001
0010
0100
,
1000
0100
0010
0001
,
1000
0001
1000
0000
0010
0000
0100
0000
,
0001
0100
0001
0000
1000
0000
0010
0000
,
0100
0001
0100
0000
0010
0000
1000
0000
,
0100
0010
0100
0000
1000
0000
0010
0000
,
0100
0001
1000
0010
0100
0001
0010
0100
,
1000
0010
0100
0001
1000
0010
0100
0001
,
1000
0100
0010
0001
0100
0010
1000
0001
,
1000
0010
0100
0001
0100
0010
1000
0000
,
0002
0000
0003
2000
,
0000
0000
3200
0000
,
0000
0320
0000
0000
,
0032
0000
0000
0003
,
0110
0000
1000
0000
0001
1000
0100
1000
,
0010
0000
1000
0000
0001
0100
0010
1000
,
0001
0000
1000
0000
0010
1000
0001
0100
,
0001
1000
0010
0100
,
0001
0000
0100
0000
0001
0010
1000
0010
,
0001
0000
1000
0000
0100
1000
0001
0010
,
0100
0000
0010
0000
0001
0010
0100
1000
,
0100
1000
0010
0100
,
0001
0000
0100
0010
0100
0010
1000
0001
,
0100
0000
0010
0100
0001
1000
0100
0010
,
0100
0000
0010
0001
0100
0010
1000
0100
,
1000
0001
0010
0100
,
1000
0000
0001
1000
0010
0100
0001
1000
,
0010
0000
0100
0010
1000
0100
0010
0001
,
0100
0000
0001
1000
0010
0100
0010
1000
,
0100
1000
0010
0100
,
2002
0000
0000
3003
0202
0000
0000
0000
,
0000
0000
0303
0000
0000
0000
2200
3300
,
0022
0000
0000
0033
,
0000
0000
0000
0000
0000
0000
2002
3003
,
0202
0000
0000
0303
2200
0000
0000
0000
,
0000
0000
3300
0000
0000
0000
0022
0033
,
0220
0000
0000
0330
,
0000
0000
0000
0000
0000
0000
0202
0303
,
2002
0000
0000
3003
0220
0000
0000
0000
,
0000
0000
0330
0000
0000
0000
2200
3300
,
0202
0000
0000
0303
,
0000
0000
0000
0000
0000
0000
2020
3030
,
0022
0000
0000
0033
2002
0000
0000
0000
,
0000
0000
0003
0000
3000
0000
0001
0100
,
0002
0000
0000
2003
0000
0000
3002
0000
,
2003
0000
0000
3002
0000
0000
2003
0000
,
3001
0100
0001
0100
0010
1000
0010
1000
,
0001
0010
0001
0010
0100
1000
0100
1000
,
0001
1000
0001
1000
0010
0100
0010
0100
,
0002
0203
0320
2030
,
3001
0010
0100
1000
0010
0100
0001
1000
,
0010
0100
0001
1000
0100
0010
0001
0100
,
0001
1000
0010
1000
0100
0010
0001
0100
,
0020
0230
0302
2003
,
3001
0100
0010
0100
0010
1000
0001
1000
,
0010
0100
0001
0010
0100
1000
0010
1000
,
0001
0100
0001
1000
0100
0010
0001
0100
,
0010
1000
0001
0100
0001
1000
0010
0100
,
0010
0100
0001
1000
0001
0010
0100
1000
,
0001
0100
0010
1000
0100
0010
0001
1000
,
0001
0010
0100
1000
0001
0010
0001
1000
,
0010
0100
0001
1000
0100
0010
0001
0000
,
1000
0000
0000
1000
0000
0000
1000
0000
0000
1000
0000
0000
1000
0000
0000
0000
,
0001
0000
0000
0001
0000
0000
0001
0000
0000
0001
0000
0000
0001
0000
0000
0000
,
0000
2002
0000
0000
,
0000
0000
0000
0000
,
0000
0000
0000
0000
,
0000
0000
0000
0000
,
0000
0000
0000
0000
,
0000
3003
0000
0000
;
