#TITLE:Spider Dance;
#SUBTITLE:Undertale OST\;
#ARTIST:Toby Fox;
#TITLETRANSLIT:;
#SUBTITLETRANSLIT:;
#ARTISTTRANSLIT:;
#CREDIT:owenviau1;
#BANNER:BN.PNG;
#BACKGROUND:BG.PNG;
#LYRICSPATH:;
#CDTITLE:../CDTitleOV1.png;
#MUSIC:Spider Dance.ogg;
#OFFSET:-0.043;
#SAMPLESTART:33.424;
#SAMPLELENGTH:29.999;
#SELECTABLE:YES;
#BPMS:0.000=230.000;
#STOPS:;
#BGCHANGES:;
// cache tags:
#FIRSTBEAT:0.000;
#LASTBEAT:576.000;
#SONGFILENAME:Songs/owenviau1 Simfiles 07_final/Spider Dance - [owenviau1] v1.0.3/Spider Dance.sm;
#HASMUSIC:1;
#HASBANNER:1;
#MUSICLENGTH:150.945;
// end cache tags

//---------------dance-single - 1.06 (1) (owenviau1)----------------
#NOTES:
     dance-single:
     1.06 (1) (owenviau1):
     Beginner:
     1:
     0.163,0.238,0.020,0.119,0.000,151.000,3.000,18.000,0.000,0.000:
1000
0000
0000
0000
,
0000
0010
0000
0000
,
0000
0100
0000
0000
,
0000
0000
0001
0000
,
0000
0000
1000
0000
,
0000
0000
0000
0000
,
0020
0000
0000
0000
,
0000
0000
0000
0000
,
0130
0000
0000
0000
,
0001
0000
0000
0000
,
0000
1000
0000
0000
,
0000
0000
0010
0000
,
0000
0000
0100
0000
,
0000
0000
0000
0000
,
0002
0000
0000
0000
,
0000
0000
0000
0000
,
1003
0000
0000
0000
,
0000
0100
0000
0000
,
0000
1000
0000
0000
,
0000
0000
0010
0000
,
0000
0000
0100
0000
,
0000
0000
0000
0000
,
0002
0000
0000
0000
,
0000
0000
0000
0000
,
1003
0000
0000
0000
,
0010
0000
0000
0000
,
0000
0100
0000
0000
,
0000
0000
0001
0000
,
0000
0000
1000
0000
,
0000
0000
0000
0000
,
0020
0000
0000
0000
,
0000
0000
0000
0000
,
0130
0000
0000
0000
,
0001
0000
0000
0001
0000
0000
0000
0000
,
1000
0000
0000
1000
0000
0000
0000
0000
,
0010
0000
0000
0010
0000
0000
0000
0000
,
0100
0000
0000
0000
,
0001
0000
0000
0001
0000
0000
0000
0000
,
1000
0000
0000
1000
0000
0000
0000
0000
,
0100
0000
0000
0100
0000
0000
0000
0000
,
0010
0000
0000
0000
,
0001
0000
0000
0001
0000
0000
0000
0000
,
1000
0000
0000
1000
0000
0000
0000
0000
,
0010
0000
0000
0010
0000
0000
0000
0000
,
0100
0000
0000
0000
,
0001
0000
0000
0001
0000
0000
0000
0000
,
1000
0000
0000
0000
,
0010
0000
0000
0000
,
1001
0000
0000
0000
,
1000
0000
0000
0000
,
0010
0000
0000
0000
,
0010
0000
0000
0000
,
0100
0000
0000
0000
,
0100
0000
0000
0000
,
0001
0000
0000
0000
,
1000
0000
0000
0000
,
1001
0000
0000
0000
,
0001
0000
0000
0000
,
0010
0000
0000
0000
,
0001
0000
0000
0000
,
1000
0000
0000
0000
,
0100
0000
0000
0000
,
1000
0000
0000
0000
,
0010
0000
0020
0000
,
0130
0000
0000
0000
,
0001
0000
0000
0000
,
0000
0000
1000
0000
0000
0000
0000
2000
,
0000
0000
3000
0000
,
0000
0010
0000
0000
,
0000
0100
0000
0000
,
0000
0001
0000
0000
,
2000
0000
3000
0000
,
0000
0010
0000
0000
,
0000
0100
0000
0000
,
0000
0000
0001
0000
0000
0000
0000
2000
,
0000
0000
3000
0000
,
0000
0100
0000
0000
,
0000
0010
0000
0000
,
0000
0001
0000
0000
,
2000
0000
3000
0000
,
1001
0000
0000
0000
,
0001
0000
0000
0000
,
0000
0000
1000
0000
0000
0000
0000
2000
,
0000
0000
3000
0000
,
0000
0010
0000
0000
,
0000
0100
0000
0000
,
0000
0001
0000
0000
,
2000
0000
3000
0000
,
0000
0010
0000
0000
,
0000
0100
0000
0000
,
0000
0000
0001
0000
0000
0000
0000
2000
,
0000
0000
3000
0000
,
0000
0100
0000
0000
,
0000
0010
0000
0000
,
0001
0000
1000
0000
,
0020
0000
0000
0000
,
1030
0000
0000
0000
,
0000
0010
0000
0000
,
0000
0100
0000
0000
,
0000
0000
0001
0000
,
0000
0000
1000
0000
,
0000
0000
0000
0000
,
0020
0000
0000
0000
,
0000
0000
0000
0000
,
0130
0000
0000
0000
,
0001
0000
0000
0000
,
0000
1000
0000
0000
,
0000
0000
0010
0000
,
0000
0000
0100
0000
,
0000
0000
0000
0000
,
0002
0000
0000
0000
,
0000
0000
0000
0000
,
1003
0000
0000
0000
,
0000
0100
0000
0000
,
0000
1000
0000
0000
,
0000
0000
0010
0000
,
0000
0000
0100
0000
,
0000
0000
0000
0000
,
0002
0000
0000
0000
,
0000
0000
0000
0000
,
1003
0000
0000
0000
,
0010
0000
0000
0000
,
0000
0100
0000
0000
,
0000
0000
0001
0000
,
0000
0000
1000
0000
,
0000
0000
0000
0000
,
0020
0000
0000
0000
,
0000
0000
0000
0000
,
0130
0000
0000
0000
,
0001
0000
0000
0001
0000
0000
0000
0000
,
1000
0000
0000
1000
0000
0000
0000
0000
,
0010
0000
0000
0010
0000
0000
0000
0000
,
0100
0000
0000
0000
,
0001
0000
0000
0001
0000
0000
0000
0000
,
1000
0000
0000
1000
0000
0000
0000
0000
,
0100
0000
0000
0100
0000
0000
0000
0000
,
0010
0000
0000
0000
,
0001
0000
0000
0001
0000
0000
0000
0000
,
1000
0000
0000
1000
0000
0000
0000
0000
,
0010
0000
0000
0010
0000
0000
0000
0000
,
0100
0000
0000
0000
,
0001
0000
0000
0001
0000
0000
0000
0000
,
1000
0000
0000
0000
,
0010
0000
0020
0000
,
0030
0000
0000
0000
;

//---------------dance-single - 5.16 (5) (owenviau1)----------------
#NOTES:
     dance-single:
     5.16 (5) (owenviau1):
     Easy:
     5:
     0.413,0.525,0.000,0.311,0.000,389.000,0.000,47.000,0.000,0.000:
1000
0100
0010
0001
,
0000
0100
0000
0000
0010
0000
0100
0000
,
0000
0001
1000
0100
,
1000
0010
0100
0000
,
0002
0003
2000
3000
,
0200
0300
2000
3000
,
0020
0030
0200
0300
,
0002
2003
3020
0000
,
1030
0100
0010
0001
,
0100
0010
0100
0010
,
1000
0001
0010
0100
,
1000
0010
0100
0010
,
1000
0000
0100
0000
,
0001
0000
0010
0000
,
2000
0000
0000
0000
,
0002
0000
3003
0000
,
1000
0100
0010
0001
,
0000
0100
0000
0000
0010
0000
0100
0000
,
0000
0001
1000
0100
,
1000
0010
0100
0000
,
0002
0003
2000
3000
,
0200
0300
2000
3000
,
0020
0030
0200
0300
,
0002
2003
3020
0000
,
1030
0100
0010
0001
,
0100
0010
0100
0010
,
1000
0001
0010
0100
,
1000
0010
0100
0010
,
1000
0000
0100
0000
,
0001
0000
0010
0000
,
2000
0000
0000
0000
,
0002
0000
3003
0000
,
1000
0001
0010
0100
,
1000
0000
0000
1000
0000
0000
0000
0000
,
0001
0000
0000
0001
0000
0000
0000
0000
,
1000
0000
0000
1000
0000
0000
0001
0100
,
0001
1000
0010
0100
,
0001
0000
0000
0001
0000
0000
0000
0000
,
1000
0000
0000
1000
0000
0000
0000
0000
,
0001
0000
0000
0001
0000
0000
1000
0100
,
1000
0010
0100
0001
,
1000
0000
0001
0100
0000
0000
0000
0000
,
0001
0000
1000
0100
0000
0000
0000
0000
,
1000
0000
0001
1000
0000
0000
0000
0000
,
0001
1000
0001
1000
,
0100
0100
0100
0000
,
1000
0001
1000
0000
0100
0000
0000
0000
,
0010
0010
0010
0000
,
0001
0100
0010
0100
,
0001
0000
1000
0000
,
0100
0000
0010
0000
,
0001
0000
1000
0000
,
0010
0100
0010
1000
,
0001
0100
0001
1000
,
0100
0000
0010
0000
,
0001
0000
0200
0000
,
1300
0001
0010
0100
,
1000
0000
0000
1000
0000
0000
0000
0000
,
0001
0000
0000
0001
0000
0000
0000
0000
,
1000
0000
0000
1000
0000
0000
0001
0100
,
0001
1000
0010
0100
,
0001
0000
0000
0001
0000
0000
1000
0000
,
0100
1000
0010
0000
,
0100
0000
0002
0000
,
1003
0000
1000
0000
,
1000
0000
1000
0000
,
0010
0000
0010
0000
,
0010
0000
0010
0000
,
0100
0000
0100
0000
,
0100
0000
0100
0000
,
0001
0000
0001
0000
,
0001
0000
0001
0000
,
2000
0000
0100
0000
,
0100
0000
0100
0000
,
3002
0000
0100
0000
,
0100
0000
0100
0000
,
2003
0000
0010
0000
,
0010
0000
0010
0000
,
3002
0000
0010
0000
,
2000
0000
3003
0000
,
1000
0000
1000
0000
,
1000
0000
1000
0000
,
0010
0000
0010
0000
,
0010
0000
0010
0010
,
0100
0000
0100
0000
,
0100
0000
0100
0000
,
0001
0000
0001
0000
,
0001
0000
0001
0000
,
2000
0000
0100
0000
,
0100
0000
0100
0000
,
3002
0000
0100
0000
,
0100
0000
0100
0000
,
2003
0000
0010
0000
,
0010
0000
0010
0000
,
3002
0000
0010
0000
,
2000
0000
3003
0000
,
1000
0100
0010
0001
,
0000
0100
0000
0000
0010
0000
0100
0000
,
0000
0001
1000
0100
,
1000
0010
0100
0000
,
0002
0003
2000
3000
,
0200
0300
2000
3000
,
0020
0030
0200
0300
,
0002
2003
3020
0000
,
1030
0100
0010
0001
,
0100
0010
0100
0010
,
1000
0001
0010
0100
,
1000
0010
0100
0010
,
1000
0000
0100
0000
,
0001
0000
0010
0000
,
2000
0000
0000
0000
,
0002
0000
3003
0000
,
1000
0001
0010
0100
,
1000
0000
0000
1000
0000
0000
0000
0000
,
0001
0000
0000
0001
0000
0000
0000
0000
,
1000
0000
0000
1000
0000
0000
0001
0100
,
0001
1000
0010
0100
,
0001
0000
0000
0001
0000
0000
0000
0000
,
1000
0000
0000
1000
0000
0000
0000
0000
,
0001
0000
0000
0001
0000
0000
1000
0100
,
1000
0010
0100
0001
,
1000
0000
0001
0100
0000
0000
0000
0000
,
0001
0000
1000
0100
0000
0000
0000
0000
,
1000
0000
0001
1000
0000
0000
0000
0000
,
0001
1000
0001
1000
,
0100
0100
0100
0000
,
1000
0001
1000
0000
0100
0000
0000
0000
,
0010
0010
0010
0000
,
0001
0100
0010
0100
,
0001
0000
1000
0000
,
0100
0000
0010
0000
,
0001
0000
1000
0000
,
0010
0100
0010
1000
,
0001
0100
0001
1000
,
0100
0000
0010
0000
,
0001
0000
0200
0000
,
1300
0001
0010
0100
,
1000
0000
0000
1000
0000
0000
0000
0000
,
0001
0000
0000
0001
0000
0000
0000
0000
,
1000
0000
0000
1000
0000
0000
0001
0100
,
0001
1000
0010
0100
,
0001
0000
0000
0001
0000
0000
1000
0000
,
0100
1000
0010
0000
,
0100
0000
0002
0000
,
0003
0000
0000
0000
;

//---------------dance-single - 8.22 (8) (owenviau1)----------------
#NOTES:
     dance-single:
     8.22 (8) (owenviau1):
     Medium:
     8:
     0.708,0.811,0.013,0.596,0.026,655.000,2.000,90.000,0.000,0.000:
0001
0100
0010
1000
,
0000
0001
0100
0000
0010
1000
0010
0100
,
0000
0001
0010
0001
1000
0010
0100
0010
,
1000
0001
0100
0010
0000
0000
0001
0100
,
0002
0003
0020
0030
,
0200
0300
2000
3000
,
0020
0230
0320
2030
,
3002
0023
0230
0000
,
1300
0001
0100
0000
0001
1000
0100
0000
,
0010
0001
1000
0001
0010
0001
1000
0000
,
0010
0100
0010
0100
0001
1000
0001
1000
,
0100
0000
0010
0000
0001
0000
1000
0000
0000
0000
0001
0000
0010
0100
1000
0000
,
0002
0003
0200
0300
,
0020
0030
2000
3000
,
0002
0023
0230
2300
,
3020
0230
0302
0000
,
1003
0100
1000
0010
,
0000
0100
0001
0000
1000
0100
1000
0010
,
0000
0100
0001
1000
0010
1000
0001
0100
,
0010
1000
0001
1000
0000
0010
0100
0010
,
2000
3000
0002
0003
,
0020
0030
0200
0300
,
2000
3020
0230
0320
,
2030
3002
0023
0000
,
1030
0001
0100
0000
0001
1000
0100
0000
,
0010
0001
1000
0001
0010
0001
1000
0000
,
0010
0100
0010
0100
0001
1000
0001
1000
,
0100
0000
0010
0000
0001
0000
1000
0000
0000
0000
0001
0000
0010
0100
1000
0000
,
0002
0003
0200
0300
,
0020
0030
2000
3000
,
0002
0023
0230
2300
,
3020
0230
0302
0000
,
1003
0000
0001
0000
0010
0100
1000
0001
,
0100
0000
0010
1000
0000
0000
0000
0000
,
0100
0000
0010
0001
0000
0000
0000
0000
,
0100
0000
0010
1000
0000
0001
0010
0100
,
1000
0000
0001
0000
0100
0010
1000
0001
,
0010
0000
0001
1000
0000
0000
0000
0000
,
0010
0000
1000
0001
0000
0000
0000
0000
,
0010
0000
0001
0100
0000
0010
1000
0001
,
0010
0000
0100
0000
1000
0010
0100
0001
,
1000
0000
0001
0100
0000
0000
0000
0000
,
0001
0000
1000
0100
0000
0000
0000
0000
,
1000
0000
0001
0010
0000
0100
0010
0001
,
1000
0010
0100
0001
,
0010
0100
0000
0010
0000
0000
0001
1000
,
0010
1000
0001
0000
0010
0000
0100
0000
,
1000
0010
0200
0000
,
0301
0010
0100
1000
,
0010
0100
0010
1000
,
0001
0000
0100
0000
0010
1000
0010
0000
,
0100
0001
1000
0100
,
0010
0001
0010
0100
1000
0010
0100
0010
,
1000
0001
0100
0001
1000
0100
0010
0001
,
1000
0000
0010
0000
0100
0001
0100
0010
,
1000
0000
0010
0100
0002
0000
0000
0003
,
1000
0000
0001
0000
0010
0100
1000
0001
,
0100
0000
0010
1000
0000
0000
0000
0000
,
0100
0000
0010
0001
0000
0000
0000
0000
,
0100
0000
0010
1000
0000
0001
0010
0100
,
1000
0000
0001
0000
0100
0010
1000
0001
,
0010
0000
0001
1000
0000
0000
0010
0100
,
0010
1000
0002
0000
0023
0000
0032
0000
,
0203
0320
2030
0000
,
3000
0000
1000
0100
0000
1000
0001
0000
,
0000
0000
0010
0001
0000
1000
0001
0000
,
0010
0000
0001
1000
0001
0000
0000
0000
0010
0000
0000
0000
0100
0000
2000
0000
,
0000
0000
3000
0000
,
0000
0000
0001
0010
0000
0001
1000
0000
,
0000
0000
0100
1000
0000
0001
1000
0000
,
0100
0000
0010
0000
0001
0100
0000
0010
,
2000
0000
3000
0000
,
0001
0000
1000
0010
0000
1000
0001
0000
,
1000
0000
0001
0010
0000
0001
1000
0000
,
0001
0000
1000
0100
1000
0000
0000
0000
0010
0000
0000
0000
0100
0000
0002
0000
,
0000
0000
0003
0000
,
0100
0000
0010
1000
0000
0001
0010
0000
,
0100
0000
0010
0001
0000
1000
0010
0000
,
0100
0000
0001
0000
0010
0100
0000
1000
,
0002
0000
0003
0000
,
0000
0000
1000
0100
0000
1000
0001
0000
,
0000
0000
0010
0001
0000
1000
0001
0000
,
0010
0000
0001
1000
0001
0000
0000
0000
0010
0000
0000
0000
0100
0000
2000
0000
,
0000
0000
3040
0000
,
0030
0000
0100
0010
0000
0001
1000
0000
,
0000
0000
0100
1000
0000
0001
1000
0000
,
0100
0000
0010
0000
0001
0100
0000
0010
,
2000
0000
0000
3000
,
0001
0000
1000
0010
0000
1000
0001
0000
,
1000
0000
0001
0010
0000
0001
1000
0000
,
0001
0000
1000
0100
1000
0000
0000
0000
0010
0000
0000
0000
0100
0000
0002
0000
,
0000
0000
4003
0000
,
3100
0000
0010
1000
0000
0001
0010
0000
,
0100
0000
0010
0001
0000
1000
0010
0000
,
0100
0000
0001
0000
0010
0100
0000
1000
,
0004
0000
0203
0000
,
0301
0100
0010
1000
,
0000
0001
1000
0000
0100
0010
0001
1000
,
0010
1000
0001
0010
0100
0010
0001
1000
,
0010
0000
0100
0000
0001
0000
0010
0000
0000
0000
0100
0000
1000
0010
0100
0000
,
0002
0003
0200
0300
,
2000
3000
0020
0030
,
0002
0023
0230
2300
,
3020
0230
0302
0003
,
1000
0001
0100
0001
1000
0001
0100
0001
,
1000
0010
0100
0010
1000
0010
0100
0001
,
1000
0100
0010
0100
1000
0001
0010
0001
,
1000
0000
0010
0000
0100
0000
0001
0000
0000
0000
1000
0000
0001
0010
0100
0000
,
2000
3000
0200
0300
,
0002
0003
0020
0030
,
0002
0023
0230
2300
,
3020
0230
0302
0000
,
1003
0000
0001
0000
0010
0100
1000
0001
,
0100
0000
0010
1000
0000
0000
0000
0000
,
0100
0000
0010
0001
0000
0000
0000
0000
,
0100
0000
0010
1000
0000
0001
0010
0100
,
1000
0000
0001
0000
0100
0010
1000
0001
,
0010
0000
0001
1000
0000
0000
0000
0000
,
0010
0000
1000
0001
0000
0000
0000
0000
,
0010
0000
0001
0100
0000
0010
1000
0001
,
0010
0000
0100
0000
1000
0010
0100
0001
,
1000
0000
0001
0100
0000
0000
0000
0000
,
0001
0000
1000
0100
0000
0000
0000
0000
,
1000
0000
0001
0010
0000
0100
0010
0001
,
1000
0010
0100
0001
,
0010
0100
0000
0010
0000
0000
0001
1000
,
0010
1000
0001
0000
0010
0000
0100
0000
,
1000
0010
0200
0000
,
0301
0010
0100
1000
,
0010
0100
0010
1000
,
0001
0000
0100
0000
0010
1000
0010
0000
,
0100
0001
1000
0100
,
0010
0001
0010
0100
1000
0010
0100
0010
,
1000
0001
0100
0001
1000
0100
0010
0001
,
1000
0000
0010
0000
0100
0001
0100
0010
,
1000
0000
0010
0100
0002
0000
0000
0003
,
1000
0000
0001
0000
0010
0100
1000
0001
,
0100
0000
0010
1000
0000
0000
0000
0000
,
0100
0000
0010
0001
0000
0000
0000
0000
,
0100
0000
0010
1000
0000
0001
0010
0100
,
1000
0000
0001
0000
0100
0010
1000
0001
,
0010
0000
0001
1000
0000
0000
0010
0100
,
0010
1000
0002
0000
0023
0000
0032
0000
,
0203
0320
2030
0000
,
3000
0000
0000
0000
;

//---------------dance-single - 10.09 (10) (owenviau----------------
#NOTES:
     dance-single:
     10.09 (10) (owenviau:
     Hard:
     10:
     1.000,1.000,0.013,0.795,0.252,1039.000,2.000,120.000,4.000,0.000:
0001
0100
0010
1000
0100
1000
0010
0100
,
0001
1000
0100
0010
0001
0100
0010
0100
,
0001
1000
0100
1000
0010
0100
0001
1000
,
0100
0000
0010
0000
0001
0000
0100
0000
0010
0000
1000
0000
0001
0010
0001
0000
,
1000
0010
0100
0001
1000
0100
1000
0001
,
0010
0001
0100
0010
1000
0001
0010
0100
,
2000
3020
0230
0302
,
2003
0000
3200
0000
0320
0031
0100
0001
,
1000
0010
0100
0010
1000
0001
0010
0001
,
0100
0010
1000
0001
0010
0100
1000
0001
,
0100
0010
1000
0010
0100
0001
1000
0100
,
1000
0000
0001
0000
0010
0000
0100
0000
1000
0000
0010
0000
0100
0001
0100
0000
,
0010
1000
0100
1000
0001
0010
0001
1000
,
0100
0010
0001
0100
0001
1000
0010
0100
,
0002
2003
3200
0320
,
0032
0003
2000
0000
3020
0130
0001
1000
,
0100
1000
0010
0100
0001
0100
0010
1000
,
0001
1000
0010
0100
0001
1000
0100
1000
,
0001
0010
0100
1000
0100
0010
0001
1000
,
0010
0000
0100
0000
0001
0000
1000
0000
0100
0000
1000
0000
0001
0010
0001
0000
,
0100
0010
0100
0001
1000
0010
1000
0001
,
0100
0010
1000
0001
0010
0001
1000
0100
,
0020
0032
0203
0302
,
2003
0000
3200
0000
0320
0031
1000
0010
,
0100
0001
0100
0010
1000
0001
1000
0100
,
0010
0001
0100
0001
1000
0010
0100
0001
,
1000
0100
1000
0001
0010
0100
1000
0001
,
0010
0000
0001
0000
0100
0000
0010
0000
1000
0000
0010
0000
0100
0001
0100
0000
,
0010
1000
0100
0010
0001
1000
0010
1000
,
0001
0100
0010
1000
0001
0010
0100
1000
,
0200
0320
0032
2003
,
3020
0000
0230
0000
0301
0010
0100
1000
,
0001
0100
0010
1000
0001
0100
0010
0100
,
0001
1000
0010
1000
0001
0100
0010
1000
,
0001
0010
0100
1000
0001
0010
0001
1000
,
0010
0100
0010
1000
0001
0100
0001
1000
,
0100
1000
0010
0100
0001
1000
0100
0010
,
0001
1000
0010
1000
0100
0010
0001
0100
,
0001
1000
0100
1000
0001
0010
0100
1000
,
0001
0010
0001
1000
0010
0100
0010
1000
,
0001
0100
0010
0100
0001
1000
0001
0100
,
0010
1000
0001
0010
0001
1000
0100
1000
,
0010
0100
0001
1000
0100
0010
0001
0100
,
0010
1000
0001
0100
0001
1000
0010
0100
,
0010
1000
0001
0010
0001
0100
0010
0100
,
0001
1000
0010
1000
0001
0100
0010
1000
,
0010
0100
0001
1000
0100
1000
0001
0010
,
0100
1000
0010
0100
0001
0100
0010
1000
,
0001
0010
0001
1000
0010
1000
0100
0010
,
0001
1000
0010
0100
0010
1000
0001
0010
,
0001
1000
0100
1000
0010
0100
0001
0100
,
0010
1000
0001
1000
0010
0100
0001
0010
,
0001
1000
0100
1000
0010
0100
0001
0100
,
0010
1000
0001
1000
0010
0100
0010
1000
,
0001
1000
0100
0010
0001
0100
0010
1000
,
0001
0010
0100
1000
0001
0010
0001
0100
,
0010
1000
0001
0100
0001
1000
0010
0100
,
0010
1000
0001
0010
0001
1000
0100
0010
,
0001
1000
0010
1000
0001
0100
0010
1000
,
0001
0010
0001
1000
0100
1000
0010
0100
,
0001
0100
0010
1000
0001
1000
0100
1000
,
0010
0100
0001
1000
0100
0010
0001
1000
,
0002
0203
0320
0030
2000
3000
0002
0003
,
2000
3000
0020
0030
0200
0000
0000
0000
,
0302
0003
0020
0030
0400
0300
4000
3000
0020
0030
0400
0300
0004
0003
2000
3000
,
0200
0300
0020
0030
0004
0003
4000
3000
0020
0030
4000
3000
0004
0003
0020
0030
,
0400
0300
4000
3040
0430
0300
0002
0003
4000
3000
0200
0300
4000
3000
0040
0000
,
0200
0300
0000
0000
0200
0300
0000
0030
0200
0300
0002
0003
2000
3000
0200
0300
,
2000
3000
0020
0030
0400
0300
0004
0003
2000
3000
0040
0030
4000
3000
0002
0003
,
0200
0300
0020
0030
0400
0300
0004
0003
2000
3000
0400
0300
0040
0030
0002
0003
,
0400
0300
0002
0003
4000
3000
0020
0030
0400
0300
0004
0003
2000
3000
0400
0300
,
0040
0000
0002
0003
0000
0000
0002
0003
0000
0030
0002
0003
2000
3000
0020
0030
,
0200
0300
0020
0030
4000
3000
0004
0003
0020
0030
0004
0003
4000
3000
0200
0300
,
0020
0030
0002
0003
0400
0300
0004
0003
2000
3000
0040
0030
0400
0300
0002
0003
,
4000
3000
0040
0430
0340
0030
2000
3000
0004
0003
0020
0030
0004
0003
4000
0000
,
0200
0300
0000
0000
0200
0300
0000
3000
0200
0300
0020
0030
0002
0003
2000
3000
,
0020
0030
0200
0300
0040
0030
4000
3000
0002
0003
0040
0030
0004
0003
2000
3000
,
0200
0300
0020
0030
0004
0003
4000
3000
0020
0030
0400
0300
0004
0003
2000
3000
,
0040
0030
2000
3000
0004
0003
0200
0300
0040
0030
4000
3000
0002
0003
0040
0030
,
0400
0000
2000
3000
0000
0000
2000
3000
0000
0300
2000
3000
0020
0030
0200
0300
,
0001
1000
0100
1000
0010
0100
0001
1000
,
0010
1000
0001
0100
0010
0100
0001
1000
,
0100
0000
0010
0001
0010
0000
0100
0000
1000
0000
0010
0000
0100
0000
0004
0000
,
1000
0000
0000
0000
1000
0003
0100
0010
0100
0010
0100
0010
0100
0010
0100
0010
,
0100
0010
0001
1000
0001
0100
0010
0100
,
0001
1000
0100
1000
0010
0100
0001
1000
,
0100
0010
0001
1000
0010
0100
0001
1000
,
0400
0000
0010
0000
0000
0000
1000
0000
0000
0000
0010
0000
0000
0300
1000
0000
,
0001
0100
0010
1000
0001
0010
0001
1000
,
0100
1000
0010
0100
0001
1000
0010
0100
,
0001
0000
1000
0100
0010
0000
0001
0000
1000
0000
0010
0000
0100
0000
0004
0000
,
1000
0000
0000
0000
1003
0000
0010
0100
0010
0100
0010
0100
0010
0100
0010
0100
,
0010
1000
0001
0010
0001
0100
0010
1000
,
0001
0010
0100
1000
0010
0100
0010
1000
,
0001
0000
0010
0000
0100
1000
0010
0400
,
M001
M001
M001
M001
,
0301
1000
0100
0010
0001
1000
0010
0100
,
0001
1000
0100
0010
0001
0100
0010
0100
,
0001
1000
0100
1000
0010
0100
0001
1000
,
0100
0000
0010
0000
0001
0000
0100
0000
0010
0000
1000
0000
0001
0010
0100
0000
,
1000
0010
0100
0001
1000
0100
1000
0001
,
0010
0001
0100
0010
1000
0001
0010
0100
,
2000
3020
0230
0302
,
2003
0000
3200
0000
0320
0031
0100
0001
,
1000
0010
0100
0010
1000
0001
0010
0001
,
0100
0010
1000
0001
0010
0100
1000
0001
,
0100
0010
1000
0010
0100
0001
1000
0100
,
1000
0000
0001
0000
0010
0000
0100
0000
1000
0000
0010
0000
0100
0001
0100
0000
,
0010
1000
0100
1000
0001
0010
0001
1000
,
0100
0010
0001
0100
0001
1000
0010
0100
,
0002
2003
3200
0320
,
0032
0000
2003
0000
3010
0100
0001
1000
,
0001
0100
0010
1000
0001
0100
0010
0100
,
0001
1000
0010
1000
0001
0100
0010
1000
,
0001
0010
0100
1000
0001
0010
0001
1000
,
0010
0100
0010
1000
0001
0100
0001
1000
,
0100
1000
0010
0100
0001
1000
0100
0010
,
0001
1000
0010
1000
0100
0010
0001
0100
,
0001
1000
0100
1000
0001
0010
0100
1000
,
0001
0010
0001
1000
0010
0100
0010
1000
,
0001
0100
0010
0100
0001
1000
0001
0100
,
0010
1000
0001
0010
0001
1000
0100
1000
,
0010
0100
0001
1000
0100
0010
0001
0100
,
0010
1000
0001
0100
0001
1000
0010
0100
,
0010
1000
0001
0010
0001
0100
0010
0100
,
0001
1000
0010
1000
0001
0100
0010
1000
,
0010
0100
0001
1000
0100
1000
0001
0010
,
0100
1000
0010
0100
0001
0100
0010
1000
,
0001
0010
0001
1000
0010
1000
0100
0010
,
0001
1000
0010
0100
0010
1000
0001
0010
,
0001
1000
0100
1000
0010
0100
0001
0100
,
0010
1000
0001
1000
0010
0100
0001
0010
,
0001
1000
0100
1000
0010
0100
0001
0100
,
0010
1000
0001
1000
0010
0100
0010
1000
,
0001
1000
0100
0010
0001
0100
0010
1000
,
0001
0010
0100
1000
0001
0010
0001
0100
,
0010
1000
0001
0100
0001
1000
0010
0100
,
0010
1000
0001
0010
0001
1000
0100
0010
,
0001
1000
0010
1000
0001
0100
0010
1000
,
0001
0010
0001
1000
0100
1000
0010
0100
,
0001
0100
0010
1000
0001
1000
0100
1000
,
0010
0100
0001
1000
0100
0010
0001
1000
,
0002
0203
0320
0030
2000
3000
0002
0003
,
2000
3000
0020
0030
0200
0000
0000
0000
,
0300
0000
0000
0000
;

//---------------dance-single - 18.22 (18) (owenviau----------------
#NOTES:
     dance-single:
     18.22 (18) (owenviau:
     Challenge:
     18:
     1.000,1.000,0.013,0.802,1.000,1717.000,2.000,121.000,4.000,0.000:
0010
0100
0001
1000
0100
1000
0010
0100
,
0001
1000
0100
0010
0001
0100
0010
0100
,
0001
1000
0100
1000
0010
0100
0001
1000
,
0100
0000
0010
0000
0001
0000
0100
0000
0010
0000
1000
0000
0001
0010
0100
0000
,
1000
0010
0100
0001
1000
0100
1000
0001
,
0010
0001
0100
0010
1000
0001
0010
0100
,
2000
3020
0230
0302
,
2003
0000
3200
0000
0320
0031
0100
0001
,
1000
0100
0010
0001
0100
0010
1000
0010
0100
0001
0010
0001
1000
0100
1000
0010
,
0100
0001
1000
0100
0010
0001
0100
0010
1000
0001
0100
0001
1000
0010
0100
0010
,
1000
0001
0010
0001
0100
0010
1000
0001
0010
0100
1000
0001
0100
0001
1000
0010
,
0100
0010
1000
0001
0010
0001
0100
0010
0100
0001
1000
0100
1000
0010
0100
0001
,
1000
0100
0010
0001
0100
0010
1000
0001
0010
0001
1000
0100
0010
0001
0100
0010
,
0100
0001
1000
0010
1000
0100
0010
0001
0100
0001
1000
0010
0100
0001
1000
0010
,
2000
3002
0203
0302
,
0023
0000
0230
0000
2300
3010
0100
0001
,
1000
0010
0100
0001
0100
0010
1000
0010
0100
0001
1000
0100
0010
0001
0010
0100
,
1000
0010
0100
0010
1000
0001
0010
0001
0100
0010
1000
0001
0010
0100
1000
0001
,
0100
0001
1000
0010
0100
0010
1000
0001
0010
0001
0100
0010
0100
0001
1000
0100
,
0010
0001
1000
0010
0100
0010
1000
0001
0010
0001
0100
0010
0100
0001
1000
0010
,
1000
0001
0100
0010
0100
0001
1000
0100
0010
0100
1000
0001
0100
0010
0100
0001
,
0010
0001
1000
0100
0010
0001
1000
0010
0100
0010
1000
0001
0010
0100
1000
0001
,
0200
0320
0230
0302
,
2003
0000
3200
0000
0320
0031
1000
0010
,
1000
0001
0100
0001
0010
0100
1000
0010
0100
0010
1000
0001
0010
0001
0100
0010
,
0100
0001
1000
0010
1000
0001
0100
0010
1000
0001
0010
0100
1000
0010
0100
0001
,
0100
0010
1000
0001
0010
0001
1000
0100
1000
0010
0100
0010
1000
0001
0100
0001
,
0010
0100
1000
0001
0010
0001
0100
0010
0100
0001
1000
0010
1000
0001
0100
0010
,
1000
0100
0010
0001
1000
0100
1000
0010
0100
0010
1000
0001
0010
0001
0100
0010
,
0100
0001
1000
0100
0010
0001
0100
0001
1000
0010
0100
0001
1000
0100
0010
0001
,
0200
0320
2030
3002
,
0023
0000
0230
0000
1300
0010
0100
0001
,
1000
0100
0010
0001
0010
0100
1000
0010
0100
0010
1000
0001
0010
0001
0100
0010
,
0100
0001
1000
0010
1000
0001
0100
0010
1000
0001
0010
0100
1000
0010
0100
0001
,
0100
0010
1000
0001
0010
0001
1000
0100
1000
0010
0100
0010
1000
0001
0100
0001
,
0010
0100
1000
0001
0010
0001
0100
0010
0100
0001
1000
0010
1000
0001
0100
0010
,
1000
0100
0010
0001
1000
0100
1000
0010
0100
0010
1000
0001
0010
0001
0100
0010
,
0100
0001
1000
0100
0010
0001
0100
0001
1000
0010
0100
0001
1000
0010
0100
0001
,
0010
0100
1000
0010
0100
0010
1000
0001
0010
0001
0100
0010
0100
0001
1000
0010
,
1000
0001
0100
0010
1000
0001
0010
0100
1000
0010
0100
0001
0100
0010
1000
0001
,
0010
0001
1000
0100
1000
0010
0100
0010
1000
0001
0100
0001
0010
0100
1000
0001
,
0010
0001
0100
0010
0100
0001
1000
0010
1000
0001
0100
0010
1000
0100
0010
0001
,
1000
0100
1000
0010
0100
0010
1000
0001
0010
0001
0100
0010
0100
0001
1000
0100
,
0010
0001
0100
0001
1000
0010
0100
0010
1000
0001
0100
0001
0010
0100
1000
0010
,
0100
0010
1000
0001
0010
0001
0100
0010
0100
0001
1000
0010
1000
0001
0100
0010
,
1000
0001
0010
0100
1000
0010
0100
0001
0100
0010
1000
0001
0010
0001
1000
0100
,
1000
0010
0100
0010
1000
0001
0100
0001
0010
0100
1000
0001
0010
0001
0100
0010
,
0100
0001
1000
0010
1000
0001
0100
0010
1000
0100
0010
0001
1000
0100
1000
0010
,
0100
0010
1000
0001
0010
0001
0100
0010
0100
0001
1000
0100
0010
0001
0100
0001
,
1000
0010
0100
0001
1000
0010
0100
0001
0010
0100
1000
0010
0100
0010
1000
0001
,
0010
0001
0100
0010
0100
0001
1000
0010
1000
0001
0100
0010
1000
0001
0010
0100
,
1000
0010
0100
0001
0100
0010
1000
0001
0010
0001
1000
0100
1000
0010
0100
0010
,
1000
0001
0100
0001
0010
0100
1000
0001
0010
0001
0100
0010
0100
0001
1000
0010
,
1000
0001
0100
0010
1000
0100
0010
0001
1000
0100
1000
0010
0100
0010
1000
0001
,
0010
0001
0100
0010
0100
0001
1000
0100
0010
0001
0100
0001
1000
0010
0100
0010
,
1000
0001
0100
0001
0010
0100
1000
0010
0100
0010
1000
0001
0010
0001
0100
0010
,
0100
0001
1000
0010
1000
0001
0100
0010
1000
0001
0010
0100
1000
0010
0100
0001
,
0100
0010
1000
0001
0010
0001
1000
0100
1000
0010
0100
0010
1000
0001
0100
0001
,
0010
0100
1000
0001
0010
0001
0100
0010
0100
0001
1000
0010
1000
0001
0100
0010
,
1000
0100
0010
0001
1000
0100
1000
0010
0100
0010
1000
0001
0010
0001
0100
0010
,
0100
0001
1000
0100
0010
0001
0100
0001
1000
0010
0100
0001
1000
0100
0010
0001
,
0100
0010
0100
0001
1000
0010
1000
0001
0100
0001
0010
0100
1000
0001
0100
0010
,
2000
3200
0320
0031
2000
3010
0200
0310
,
2000
3001
2000
3010
0200
0000
0000
0000
,
0302
0003
0020
0030
0400
0300
4000
3000
0020
0030
0400
0300
0004
0003
2000
3000
,
0200
0300
0020
0030
0004
0003
4000
3000
0020
0030
4000
3000
0004
0003
0020
0030
,
0400
0300
4000
3040
0430
0300
0002
0003
4000
3000
0200
0300
4000
3000
0040
0000
,
0200
0300
0000
0000
0200
0300
0000
0030
0200
0300
0002
0003
2000
3000
0200
0300
,
2000
3000
0020
0030
0400
0300
0004
0003
2000
3000
0040
0030
4000
3000
0002
0003
,
0200
0300
0020
0030
0400
0300
0004
0003
2000
3000
0400
0300
0040
0030
0002
0003
,
0400
0300
0002
0003
4000
3000
0020
0030
0400
0300
0004
0003
2000
3000
0400
0300
,
0040
0000
0002
0003
0000
0000
0002
0003
0000
0030
0002
0003
2000
3000
0020
0030
,
0200
0300
0020
0030
4000
3000
0004
0003
0020
0030
0004
0003
4000
3000
0200
0300
,
0020
0030
0002
0003
0400
0300
0004
0003
2000
3000
0040
0030
0400
0300
0002
0003
,
4000
3000
0040
0430
0340
0030
2000
3000
0004
0003
0020
0030
0004
0003
4000
0000
,
0200
0300
0000
0000
0200
0300
0000
3000
0200
0300
0020
0030
0002
0003
2000
3000
,
0020
0030
0200
0300
0040
0030
4000
3000
0002
0003
0040
0030
0004
0003
2000
3000
,
0200
0300
0020
0030
0004
0003
4000
3000
0020
0030
0400
0300
0004
0003
2000
3000
,
0040
0030
2000
3000
0004
0003
0200
0300
0040
0030
4000
3000
0002
0003
0040
0030
,
0400
0000
2000
3000
0000
0000
2000
3000
0000
0300
2000
3000
0020
0030
0200
0300
,
0001
1000
0100
1000
0010
0100
0001
1000
,
0010
1000
0001
0100
0010
0100
0001
1000
,
0100
0000
0010
0001
0010
0000
0100
0000
1000
0000
0010
0000
0100
0000
0004
0000
,
1000
0000
0000
0000
1000
0003
0100
0010
0001
1000
0100
1000
0010
0100
0001
1000
,
0100
0010
0001
1000
0001
0100
0010
0100
,
0001
1000
0100
1000
0010
0100
0001
1000
,
0100
0010
0001
1000
0010
0100
0001
1000
,
0400
0000
0010
0000
0000
0000
1000
0000
0000
0000
0010
0000
0000
0300
1000
0000
,
0001
0100
0010
1000
0001
0010
0001
1000
,
0100
1000
0010
0100
0001
1000
0010
0100
,
0001
0000
1000
0100
0010
0000
0001
0000
1000
0000
0010
0000
0100
0000
0004
0000
,
1000
0000
0000
0000
1003
0000
0010
0100
0010
1000
0001
0010
0100
1000
0001
0100
,
0010
1000
0001
0010
0001
0100
0010
1000
,
0001
0010
0100
1000
0010
0100
0010
1000
,
0001
0000
0010
0000
0100
1000
0010
0400
,
M001
M001
M001
M001
,
0301
1000
0100
0010
0001
1000
0010
0100
,
0001
1000
0100
0010
0001
0100
0010
0100
,
0001
1000
0100
1000
0010
0100
0001
1000
,
0100
0000
0010
0000
0001
0000
0100
0000
0010
0000
1000
0000
0001
0010
0100
0000
,
1000
0010
0100
0001
1000
0100
1000
0001
,
0010
0001
0100
0010
1000
0001
0010
0100
,
2000
3020
0230
0302
,
2003
0000
3200
0000
0320
0031
0100
0001
,
1000
0100
0010
0001
0100
0010
1000
0010
0100
0001
0010
0001
1000
0100
1000
0010
,
0100
0001
1000
0100
0010
0001
0100
0010
1000
0001
0100
0001
1000
0010
0100
0010
,
1000
0001
0010
0001
0100
0010
1000
0001
0010
0100
1000
0001
0100
0001
1000
0010
,
0100
0010
1000
0001
0010
0001
0100
0010
0100
0001
1000
0100
1000
0010
0100
0001
,
1000
0100
0010
0001
0100
0010
1000
0001
0010
0001
1000
0100
0010
0001
0100
0010
,
0100
0001
1000
0010
1000
0100
0010
0001
0100
0001
1000
0010
0100
0001
1000
0010
,
2000
3002
0203
0302
,
0023
0000
0230
0000
2300
3010
0100
0001
,
1000
0010
1000
0001
0010
0100
1000
0010
0100
0010
1000
0001
0010
0001
0100
0010
,
0100
0001
1000
0010
1000
0001
0100
0010
1000
0001
0010
0100
1000
0010
0100
0001
,
0100
0010
1000
0001
0010
0001
1000
0100
1000
0010
0100
0010
1000
0001
0100
0001
,
0010
0100
1000
0001
0010
0001
0100
0010
0100
0001
1000
0010
1000
0001
0100
0010
,
1000
0100
0010
0001
1000
0100
1000
0010
0100
0010
1000
0001
0010
0001
0100
0010
,
0100
0001
1000
0100
0010
0001
0100
0001
1000
0010
0100
0001
1000
0010
0100
0001
,
0010
0100
1000
0010
0100
0010
1000
0001
0010
0001
0100
0010
0100
0001
1000
0010
,
1000
0001
0100
0010
1000
0001
0010
0100
1000
0010
0100
0001
0100
0010
1000
0001
,
0010
0001
1000
0100
1000
0010
0100
0010
1000
0001
0100
0001
0010
0100
1000
0001
,
0010
0001
0100
0010
0100
0001
1000
0010
1000
0001
0100
0010
1000
0100
0010
0001
,
1000
0100
1000
0010
0100
0010
1000
0001
0010
0001
0100
0010
0100
0001
1000
0100
,
0010
0001
0100
0001
1000
0010
0100
0010
1000
0001
0100
0001
0010
0100
1000
0010
,
0100
0010
1000
0001
0010
0001
0100
0010
0100
0001
1000
0010
1000
0001
0100
0010
,
1000
0001
0010
0100
1000
0010
0100
0001
0100
0010
1000
0001
0010
0001
1000
0100
,
1000
0010
0100
0010
1000
0001
0100
0001
0010
0100
1000
0001
0010
0001
0100
0010
,
0100
0001
1000
0010
1000
0001
0100
0010
1000
0100
0010
0001
1000
0100
1000
0010
,
0100
0010
1000
0001
0010
0001
0100
0010
0100
0001
1000
0100
0010
0001
0100
0001
,
1000
0010
0100
0001
1000
0010
0100
0001
0010
0100
1000
0010
0100
0010
1000
0001
,
0010
0001
0100
0010
0100
0001
1000
0010
1000
0001
0100
0010
1000
0001
0010
0100
,
1000
0010
0100
0001
0100
0010
1000
0001
0010
0001
1000
0100
1000
0010
0100
0010
,
1000
0001
0100
0001
0010
0100
1000
0001
0010
0001
0100
0010
0100
0001
1000
0010
,
1000
0001
0100
0010
1000
0100
0010
0001
1000
0100
1000
0010
0100
0010
1000
0001
,
0010
0001
0100
0010
0100
0001
1000
0100
0010
0001
0100
0001
1000
0010
0100
0010
,
1000
0001
0100
0001
0010
0100
1000
0010
0100
0010
1000
0001
0010
0001
0100
0010
,
0100
0001
1000
0010
1000
0001
0100
0010
1000
0001
0010
0100
1000
0010
0100
0001
,
0100
0010
1000
0001
0010
0001
1000
0100
1000
0010
0100
0010
1000
0001
0100
0001
,
0010
0100
1000
0001
0010
0001
0100
0010
0100
0001
1000
0010
1000
0001
0100
0010
,
1000
0100
0010
0001
1000
0100
1000
0010
0100
0010
1000
0001
0010
0001
0100
0010
,
0100
0001
1000
0100
0010
0001
0100
0001
1000
0010
0100
0001
1000
0100
0010
0001
,
0100
0010
0100
0001
1000
0010
1000
0001
0100
0001
0010
0100
1000
0001
0100
0010
,
2000
3200
0320
0031
2000
3010
0200
0310
,
2000
3001
2000
3010
0200
0000
0000
0000
,
0300
0000
0000
0000
;
