#TITLE:Hard Step Future Force;
#SUBTITLE:;
#ARTIST:Dj OutBlast;
#TITLETRANSLIT:;
#SUBTITLETRANSLIT:;
#ARTISTTRANSLIT:;
#CREDIT:;
#BANNER:Ban.png;
#BACKGROUND:BG.png;
#LYRICSPATH:;
#CDTITLE:KOMBO.png;
#MUSIC:Song.mp3;
#OFFSET:0.000;
#SAMPLESTART:99.980;
#SAMPLELENGTH:12.000;
#SELECTABLE:YES;
#BPMS:0.000=154.800;
#STOPS:;
#BGCHANGES:;
// cache tags:
#FIRSTBEAT:0.000;
#LASTBEAT:320.021;
#SONGFILENAME:Songs/Definitive Keyboard Megapack/Hard Step Future Force - Dj outblast [KOMBO]/#hardcore# dj outblast - hard step future force.sm;
#HASMUSIC:1;
#HASBANNER:1;
#MUSICLENGTH:124.400;
// end cache tags

//---------------dance-single - Easy Steps KOMBO----------------
#NOTES:
     dance-single:
     Easy Steps KOMBO:
     Hard:
     10:
     1.000,1.000,1.000,1.000,0.060,530.000,338.000,446.000,0.000,0.000:

2002
0000
0000
3003
0010
0000
0000
0000
0001
0000
0100
0000
1000
0000
0000
0000
,
0010
0000
0001
0000
0100
1000
0100
0010
,
1000
0000
0001
0000
1000
0100
0010
0000
,
0100
0000
0100
0000
0001
0010
0100
1000
,
0100
0000
0100
0000
1000
0001
0010
0000
,
1000
0000
0010
0000
0100
0001
0100
1000
,
0010
0000
0100
0000
1000
0100
0001
0000
,
0001
0000
0010
0000
0001
0010
1000
0100
,
0010
0000
1100
0000
0011
0100
1100
0000
,
0110
0000
1001
0000
0110
0100
0101
0100
,
1100
0000
0101
0000
1010
0100
0101
0000
,
1010
0000
1001
0000
0110
1000
0110
0001
,
1010
0000
0101
0000
0110
0100
1100
0000
,
0110
0000
0011
0000
0110
0100
1100
0100
,
1001
0000
1010
0000
0101
0001
0110
0000
,
1100
0000
0110
0000
1100
0100
1010
0010
,
1001
0010
0100
0001
1100
0000
0100
0000
1100
0000
0110
0000
0011
0000
0010
0000
,
0110
0010
0011
0001
0101
0110
1100
0110
,
0101
0100
0101
0100
1100
0110
0011
0010
,
0110
0010
0011
0010
0110
1100
0110
0011
,
0101
0100
0110
0010
1010
0110
1100
0100
,
1100
0100
0101
0001
0101
1100
0110
1001
,
0110
0100
1100
0100
0110
0011
0110
0100
,
1100
0100
0101
0100
1100
0101
0011
1010
,
1001
1000
1100
0100
0110
1100
0110
0100
,
1001
0001
0101
0100
1100
0110
1010
1001
,
0101
0100
1100
0100
0110
0101
0011
0010
,
1010
0100
0101
0001
0101
0110
1100
0110
,
0202
0000
0000
0303
0010
0000
0000
0000
0001
0000
0010
0000
1000
0000
0000
0000
,
0010
0000
0001
0000
0100
1000
0100
0010
,
1000
0000
0001
0000
1000
0100
0010
0000
,
0100
0000
0010
0000
0001
0010
0100
1000
,
0100
0000
0100
0000
1000
0001
0010
0000
,
1000
0000
0010
0000
0100
0001
0100
1000
,
0010
0000
0100
0000
1000
0100
0001
0000
,
0001
0000
0010
0000
0001
0010
1000
0100
,
0001
0000
0000
0000
2020
3030
0000
0000
0202
0303
0220
0330
2020
3030
0000
0000
,
0220
0330
0000
0000
0220
0330
0000
0000
0202
0303
2200
3300
0202
0303
2002
3003
,
0220
0000
0330
0000
2200
3300
0000
0000
0022
0033
2002
3003
2200
3300
0000
0000
,
2002
3003
0000
0000
2002
3003
0000
0000
0022
0033
0202
0303
0022
0033
0220
0330
,
0022
0033
0000
0000
0220
0330
0000
0000
2200
3300
2002
3003
0022
0033
0000
0000
,
2002
3003
0000
0000
2002
3003
0000
0000
0022
0033
0202
0303
0022
0033
0220
0330
,
0022
0033
0000
0000
0202
0303
0000
0000
2020
3030
0220
0330
0202
0303
0000
0000
,
0220
0330
0000
0000
0220
0330
0000
0000
2020
3030
0022
0033
2020
3030
2002
3003
,
2020
3030
0000
0000
0220
0330
0000
0000
0220
0330
2020
3030
2002
3003
0000
0000
,
2020
3030
0000
0000
2020
3030
0000
0000
0220
0330
0022
0033
0220
0330
0202
0303
,
2020
0000
3030
0000
2200
3300
0000
0000
0022
0033
2002
3003
2200
3300
0000
0000
,
2002
3003
0000
0000
2002
3003
0000
0000
0022
0033
0202
0303
0022
0033
0220
0330
,
0220
0000
0330
0000
0022
0033
0100
0000
2200
3300
2002
3003
0022
0033
1000
0000
,
2002
3003
0001
0000
2002
3003
1000
0000
2200
3300
2020
3030
2200
3300
0220
0330
,
0220
0000
0330
0000
0202
0303
1000
0000
2020
3030
0220
0330
0202
0303
0010
0000
,
0220
0330
0001
0000
0220
0330
1000
0000
2020
3030
0022
0033
2020
3030
2002
3003
,
2002
0000
3003
0000
0202
0303
0010
0000
2020
3030
0220
0330
0202
0303
1000
0000
,
0220
0330
0001
0000
0220
0330
1000
0000
2020
3030
0022
0033
2020
3030
2002
3003
,
0220
0000
0330
0000
2200
3300
0010
0000
0022
0033
2002
3003
2200
3300
0001
0000
,
2002
3003
1000
0000
2002
3003
0010
0000
0022
0033
0202
0303
0022
0033
0220
0330
,
2002
0000
3003
0000
0000
1000
1100
0000
0000
0001
0011
0000
0000
0100
0110
0000
,
0000
0010
0110
0000
0000
1000
1001
0000
0000
0010
0011
0000
0000
0100
1100
0000
,
0000
0001
0101
0000
0000
0010
1010
0000
0000
0100
1100
0000
0000
0010
0011
0000
,
0000
0100
1100
0000
0011
0000
1010
0000
0011
0000
1010
1010
1010
0000
0000
0000
,
2002
0000
3003
0000
2020
3030
0010
0000
0202
0303
0220
0330
2020
3030
1000
0000
,
0220
0330
0001
0000
0220
0330
1000
0000
0202
0303
2200
3300
0202
0303
2002
3003
,
2002
0000
3003
0000
2020
3030
0010
0000
0202
0303
0220
0330
2020
3030
1000
0000
,
0220
0330
0001
0000
0220
0330
1000
0000
0202
0303
2200
3300
0202
0303
2002
3003
,
0220
0000
0330
0000
2200
3300
1000
0000
0022
0033
2002
3003
2200
3300
0100
0000
,
2002
3003
0010
0000
2002
3003
0100
0000
0022
0033
0202
0303
0022
0033
0220
0330
,
0220
0000
0330
0000
0022
0033
0001
0000
2200
3300
2002
3003
0022
0033
0010
0000
,
2002
3003
0100
0000
2002
3003
0010
0000
2200
3300
2020
3030
2200
3300
0220
0330
,
2002
0000
3003
0000
0202
0303
0100
0000
2020
3030
0220
0330
0202
0303
0001
0000
,
0220
0330
1000
0000
0220
0330
0001
0000
2020
3030
0022
0033
2020
3030
2002
3003
,
0202
0000
0303
0000
2002
3003
1000
0000
0220
0330
2020
3030
2002
3003
0001
0000
,
2020
3030
0100
0000
2020
3030
0001
0000
0220
0330
0022
0033
0220
0330
0202
0303
,
2002
0000
3003
0000
2020
3030
0010
0000
0202
0303
0220
0330
2020
3030
1000
0000
,
0220
0330
0001
0000
0220
0330
1000
0000
0202
0303
2200
3300
0202
0303
2002
3003
,
0220
0000
0330
0000
2200
3300
1000
0000
0022
0033
2002
3003
2200
3300
0100
0000
,
2002
3003
0010
0000
2002
3003
0100
0000
0022
0033
0202
0303
0022
0033
0220
0330
,
0220
0000
0330
0000
0022
0033
0000
0000
2200
3300
0220
0330
0022
0033
0000
0000
,
2002
3003
0000
0000
2002
3003
0000
0000
2200
3300
0022
0033
2200
3300
0220
0330
,
2002
0000
3003
0000
2020
3030
0000
0000
0202
0303
0220
0330
2020
3030
0000
0000
,
0220
0330
0000
0000
0220
0330
0000
0000
0202
0303
2200
3300
0202
0303
2002
3003
,
0220
0330
0000
0000
0000
0000
0000
0000
0000
0000
0000
0000
0000
0000
0000
0000
0000
0000
0000
0000
0000
0000
0000
0000
0000
0000
0000
0000
0000
0000
0000
0000
0000
0000
0000
0000
0000
0000
0000
0000
0000
0000
0000
0000
0000
0000
0000
0000
0000
0000
0000
0000
0000
0000
0000
0000
0000
0000
0000
0000
0000
0000
0000
0000
0000
0000
0000
0000
0000
0000
0000
0000
0000
0000
0000
0000
0000
0000
0000
0000
0000
0000
0000
0000
0000
0000
0000
0000
0000
0000
0000
0000
0000
0000
0000
0000
0000
0000
0000
0000
0000
0000
0000
0000
0000
0000
0000
0000
0000
0000
0000
0000
0000
0000
0000
0000
0000
0000
0000
0000
0000
0000
0000
0000
0000
0000
0000
0000
0000
0000
0000
0000
0000
0000
0000
0000
0000
0000
0000
0000
0000
0000
0000
0000
0000
0000
0000
0000
0000
0000
0000
0000
0000
0000
0000
0000
0000
0000
0000
0000
0000
0000
0000
0000
0000
0000
0000
0000
0000
0000
0000
0000
0000
0000
0000
0000
0000
0000
0000
0000
0000
0000
0000
0000
0000
0000
0000
0000
0000
0000
0000
0000
;
