#TITLE:Dawn of Ys;
#SUBTITLE:;
#ARTIST:Arvin ft. Kommisar;
#TITLETRANSLIT:;
#SUBTITLETRANSLIT:;
#ARTISTTRANSLIT:;
#CREDIT:Arvin;
#BANNER:../Banner.png;
#BACKGROUND:../bg.png;
#LYRICSPATH:;
#CDTITLE:;
#MUSIC:Dawn of Ys.ogg;
#OFFSET:-0.030;
#SAMPLESTART:12.700;
#SAMPLELENGTH:13.000;
#SELECTABLE:YES;
#BPMS:0.000=170.000;
#STOPS:;
#BGCHANGES:;
// cache tags:
#FIRSTBEAT:0.000;
#LASTBEAT:521.000;
#SONGFILENAME:Songs/Tachyon Epsilon/Dawn of Ys - [Arvin]/dawn of ys.sm;
#HASMUSIC:1;
#HASBANNER:1;
#MUSICLENGTH:184.973;
// end cache tags

//---------------dance-single - Arvin----------------
#NOTES:
     dance-single:
     Arvin:
     Hard:
     19:
     1.000,1.000,0.135,0.697,1.000,1391.000,25.000,129.000,0.000,1.000:


0102
0000
1000
0000
1000
0000
1000
0100
,
0100
1000
1000
1003
,
2001
0000
0010
0000
0010
0000
0010
0001
,
0001
0001
0010
3010
,
0102
0000
1000
0000
1000
0000
1000
0100
,
0100
1000
1000
1003
,
1020
0000
0100
0000
0100
0000
0130
0110
,
0010
0000
0000
0000
0000
0000
1000
0000
0000
0000
0000
0000
0001
0000
0000
0000
0000
0000
0010
0000
0000
0000
0000
0000
0100
0000
0000
0000
0000
0000
1000
0000
0000
0001
0000
0000
1000
0000
0000
0000
0000
0000
0001
0000
0010
0000
0100
0000
,
1000
0001
1000
0010
0100
0001
1000
0001
0010
0001
1000
0100
0010
0100
1000
0001
1000
0010
0100
0001
1000
0001
0010
0100
,
0010
0001
1000
0010
0100
0001
1000
0001
0010
0100
0010
0001
1000
0001
0100
0010
0100
0001
1000
0010
1000
0001
1000
0100
,
0010
0001
1000
0001
0100
0010
1000
0001
1000
0100
1000
0001
0010
0001
1000
0001
0100
0010
1000
0001
1000
0100
1000
0010
,
0100
0001
1000
0001
0010
0100
0010
0001
1000
0001
0100
0010
1000
0001
1000
0100
1000
0001
0100
0010
0100
0001
1000
0001
,
0010
0001
1000
0010
0100
0001
1000
0001
0010
0100
0010
0001
1000
0001
0100
0010
1000
0010
0100
0001
1000
0001
0010
0001
,
1000
0010
0100
0001
1000
0001
0010
0100
0010
0001
1000
0001
0100
0010
1000
0001
1000
0100
1000
0010
0100
0001
1000
0001
,
0010
0001
1000
0010
0100
0001
1000
0100
1000
0001
0010
0100
0010
0001
1000
0001
0100
0010
1000
0001
1000
0100
1000
0001
,
0100
0001
1000
0010
0100
0001
1000
0001
0010
0001
1000
0100
1000
0001
0100
0010
1000
0001
1000
0100
0010
0100
1000
0001
,
0100
0010
1000
0001
0010
0001
1000
0010
0100
0001
1000
0100
0010
0100
1000
0001
1000
0010
0100
0001
0100
0010
1000
0001
,
1000
0100
0010
0001
1000
0010
0100
0001
1000
0100
1000
0001
0100
0010
1000
0001
0010
0001
1000
0010
0100
0001
1000
0100
,
0020
0000
0001
0000
0001
0100
0000
0100
,
0000
0001
0001
0000
0100
0031
0000
2000
,
0000
0000
0010
0000
0001
0010
0000
3200
,
0000
0320
0032
2003
,
3020
0000
0100
0000
1030
0100
0010
0002
,
0000
1000
1000
0000
0103
0020
0000
2030
,
0000
0000
0000
0000
3002
0000
0013
0200
,
0000
0000
0300
2000
0000
3100
0010
0002
,
0000
0000
0010
0000
0010
1000
0000
1000
,
0000
0010
0010
0000
1000
0013
0000
2000
,
0000
0000
0100
0000
0100
0001
0000
3020
,
0000
0100
0230
0000
0002
0300
2003
0000
,
3200
0000
0010
0000
1300
0010
0100
0002
,
0000
1000
1000
0000
0013
0200
0000
2300
,
0000
0000
0000
0000
3002
0000
0103
0020
,
0000
0000
0000
0030
2000
0000
3200
0000
,
1300
0100
0010
0001
1000
0001
0100
0010
1000
0001
1000
0100
0010
0100
1000
0001
1000
0010
0100
0001
1000
0001
0010
0100
,
1000
0001
0100
0010
1000
0001
1000
0010
0100
0001
1000
0001
0010
0100
0010
0001
1000
0100
0010
0001
1000
0010
1000
0001
,
1000
0010
0100
0001
1000
0010
1000
0001
0100
0001
1000
0010
0100
0001
1000
0001
0010
0100
0010
0001
1000
0001
0100
0001
,
1000
0010
0100
0001
0100
0010
1000
0001
0100
0001
1000
0100
1000
0001
0100
0010
1000
0001
0010
0100
1000
0100
0010
0001
,
1000
0100
1000
0001
0100
0010
1000
0001
0010
0001
1000
0100
0010
0001
1000
0001
0100
0010
1000
0001
1000
0100
0010
0100
,
1000
0010
0100
0001
1000
0100
1000
0001
0100
0001
1000
0010
0100
0001
1000
0001
0100
0001
1000
0010
0100
0001
1000
0010
,
1000
0001
0010
0001
1000
0100
1000
0001
0100
0001
1000
0010
1000
0001
0010
0100
1000
0001
0010
0100
1000
0001
0100
0010
,
1000
0000
0000
0000
0000
0000
0000
0000
0001
0000
0000
1000
0001
0000
0020
0000
,
0000
0130
1000
0001
0100
0020
0000
2030
,
0000
3020
0000
0230
0000
0301
0010
0200
,
0000
0300
2000
0000
3010
0200
0000
0302
,
0000
0000
1003
0200
0000
0320
0000
0230
,
0000
0310
0001
1000
0010
0200
0000
0302
,
0000
0203
0000
0320
0000
1030
0100
0020
,
0000
0030
0002
0000
0103
0020
0000
2030
,
0000
3000
0001
0020
0000
0230
0000
2300
,
0000
3020
0230
0302
,
0023
0000
0130
2000
0000
3020
0000
0000
,
0230
0000
0302
0000
2003
0000
3100
0010
,
0000
0100
0010
0002
0000
0103
0010
2000
,
0000
3000
0001
0000
0010
0100
0000
2100
,
0000
0000
3001
0000
0001
0200
0000
0000
,
0301
1000
0010
0100
0001
1000
0100
1000
0001
0010
0100
1000
0001
0100
0010
1000
0010
0100
0001
1000
0100
0010
0001
1000
,
0010
0100
0010
1000
0001
0010
0100
1000
0001
1000
0100
0010
0001
1000
0010
0100
0001
1000
0010
1000
0001
0010
0001
1000
,
0010
0100
0001
1000
0100
0010
0001
1000
0001
0100
0010
1000
0001
0010
0100
1000
0100
0010
0001
1000
0010
0100
0001
1000
,
0100
0010
0100
1000
0001
0100
0010
1000
0001
1000
0010
0100
0001
1000
0100
0010
0001
1000
0100
1000
0001
0100
0001
1000
,
0001
0100
0010
1000
0001
0010
0100
0010
0001
1000
0001
0100
0010
1000
0001
1000
0100
0010
0001
0010
0100
1000
0001
0100
,
0010
1000
0001
0010
0001
1000
0010
0100
0001
0100
0010
1000
0001
0010
0001
1000
0010
0100
0001
1000
0001
0010
0100
0010
,
0001
1000
0100
0010
0001
1000
0001
0100
0010
1000
0010
0100
0001
1000
0001
0010
0100
1000
0001
1000
0010
0100
0001
0100
,
0010
1000
0001
0010
0001
1000
0100
1000
0001
0010
0100
1000
0001
1000
0010
0100
0001
1000
0001
0010
0100
1000
0001
1000
,
0010
0100
0001
1000
0000
0002
0000
0103
,
0010
0100
0001
0020
0000
0030
0100
1000
,
0001
0100
0010
0100
0001
1000
0001
0010
0100
0000
1000
0200
0000
0000
0000
0000
,
0000
0000
0000
0000
0000
0000
0000
0300
0000
0000
0010
0000
0001
0000
0200
0000
,
0000
0300
0010
2000
3000
0001
0010
0100
,
2000
0000
3002
0000
0103
0020
0000
0230
,
0000
0300
0002
0000
0000
0000
0000
0000
,
0003
1000
0100
0010
0001
0010
0100
1000
,
0000
0000
0001
0000
0100
0000
0010
0000
0100
0001
1000
0100
0010
0100
1000
0001
,
0100
0010
0100
0001
1000
0010
1000
0100
0020
0000
0000
0000
0031
0000
2000
0000
,
0000
0000
0000
3020
,
0230
0302
0023
0230
,
2300
3000
1000
0010
0000
1000
0100
0010
,
0002
0003
0001
0010
0000
0100
1000
0001
,
1000
0000
0100
0000
0010
0000
0001
0000
0100
0000
0010
0000
2000
0000
0000
0000
0000
0000
3001
0000
0000
0020
0000
0000
,
0000
0000
0000
0000
0030
0000
0000
0000
0001
1000
0001
1000
0010
0000
0100
0000
,
0000
0000
0000
0000
,
0000
0000
0000
0000
,
0000
0000
0000
0000
,
0000
0000
0000
0000
,
0000
0000
0000
0000
,
0000
0000
0000
0000
,
0000
0000
0000
0000
,
0000
0000
0000
1001
0000
0001
0100
0010
,
0000
1000
0010
1000
,
0001
1000
0100
0010
,
0011
1001
0101
0110
,
1010
0110
0101
1001
,
1000
0100
1000
0001
1000
0010
1000
0001
,
1000
0001
0100
0001
0010
0001
1000
0001
,
1000
1010
0010
0110
0100
0101
0001
1001
,
1000
0000
1100
0000
0100
0000
0010
0000
0100
1000
0001
0100
0010
0000
1000
0000
,
0001
0100
0010
1000
0001
0100
0010
1000
0010
0100
0001
1000
0001
0010
0100
1000
0001
0010
0001
1000
0010
0100
0001
0100
,
0010
1000
0001
1000
0100
0010
0001
0010
0100
1000
0001
0010
0001
1000
0010
0100
0001
0100
0010
1000
0001
0010
0100
1000
,
0001
0100
0010
1000
0001
0010
0001
1000
0100
1000
0001
0010
0001
1000
0010
0100
0001
1000
0001
0010
0100
1000
0100
0010
,
0001
1000
0001
0100
0010
0100
0001
1000
0010
0100
0001
1000
0001
0010
0100
1000
0001
1000
0010
0100
0001
0100
0010
1000
,
0001
0100
0001
1000
0100
0010
0001
1000
0100
0010
0100
1000
0001
1000
0010
0100
0010
1000
0001
1000
0100
0010
0100
1000
,
0001
0010
0100
1000
0001
0100
0001
1000
0100
1000
0001
0010
0100
1000
0001
1000
0010
0100
0001
0100
0010
1000
0001
0010
,
0001
1000
0010
1000
0001
0100
0001
1000
0100
1000
0001
0010
0001
1000
0010
0100
0001
1000
0010
0100
0001
1000
0100
0010
,
0001
0000
0000
0000
0000
0000
0000
0000
1000
0000
0000
0001
1000
0000
0200
0000
,
0000
0310
0001
1000
0010
0200
0000
0302
,
0000
0203
0000
0320
0000
1030
0100
0020
,
0000
0030
0002
0000
0103
0020
0000
2030
,
0000
0000
3001
0020
0000
0230
0000
0320
,
0000
0130
1000
0001
0100
0020
0000
2030
,
0000
3020
0000
0230
0000
0301
0010
0200
,
0000
0300
2000
0000
3010
0200
0000
0302
,
0000
0003
1000
0200
0000
0320
0000
0032
,
0000
0203
0320
2030
,
3200
0000
0310
0002
0000
0203
0000
0000
,
0320
0000
2030
0000
3002
0000
0013
0100
,
0000
0010
0100
2000
0000
3010
0100
0002
,
0000
0003
1000
0000
0100
0010
0000
0012
,
0000
0000
1003
0000
1000
0200
0000
0300
,
1000
0010
1000
0001
0010
0100
1000
0001
1000
0010
0100
0001
1000
0100
0010
0001
0010
0100
1000
0001
0100
0010
1000
0001
,
0010
0100
0010
0001
1000
0010
0100
0001
1000
0001
0100
0010
1000
0001
0010
0100
1000
0001
0010
0001
1000
0010
0100
0001
,
1000
0100
1000
0001
0100
0010
1000
0001
1000
0100
0010
0001
1000
0010
0100
0001
0100
0010
1000
0001
0010
0100
1000
0001
,
0100
0010
0100
0001
1000
0100
0010
0001
1000
0001
0010
0100
1000
0001
0100
0010
1000
0001
0100
0001
1000
0100
0010
0001
,
0010
0100
1000
0001
1000
0010
0100
0001
1000
0100
0010
0100
1000
0001
1000
0010
0100
0001
1000
0001
0010
0100
0010
0001
,
1000
0001
0100
0010
1000
0001
0010
0100
1000
0100
0010
0001
1000
0001
0100
0010
1000
0001
1000
0100
0010
0100
1000
0001
,
1000
0010
0100
0001
1000
0100
0010
0001
1000
0010
0100
0001
1000
0100
1000
0001
0010
0100
1000
0001
1000
0010
0100
0001
,
1000
0001
0010
0100
1000
0001
0100
0010
1000
0010
0100
0001
1000
0100
0010
0001
0010
0100
1000
0001
1000
0010
0100
0001
,
1000
0010
0100
0001
1000
0100
0010
0001
0010
0100
1000
0001
0200
0000
0000
0000
,
0310
0000
1000
0010
1000
0100
0010
0001
1000
0010
1000
0001
0010
0100
1000
0001
,
0100
0000
0000
0110
0000
0000
0101
1001
,
0000
2222
0000
0000
0000
0000
0000
0000
,
0000
0003
0030
0300
3000
0000
0000
0000
0000
0000
0000
0000
0000
0000
0000
0000
;

//---------------dance-single - Mad Matt----------------
#NOTES:
     dance-single:
     Mad Matt:
     Medium:
     18:
     1.000,1.000,0.135,0.697,1.000,1326.000,25.000,129.000,0.000,1.000:


2010
0000
0001
0000
0001
0000
0001
0010
,
0010
0001
0001
3001
,
1002
0000
0100
0000
0100
0000
0100
1000
,
1000
1000
0100
0103
,
2010
0000
0001
0000
0001
0000
0001
0010
,
0010
0001
0001
3001
,
0201
0000
0010
0000
0010
0000
0310
0110
,
0100
0000
0001
0000
1000
0000
0100
0000
0010
0000
0001
1000
0001
0000
1000
0100
,
0010
0100
1000
0001
1000
0010
0100
0001
1000
0001
0010
0001
1000
0010
0100
0001
,
1000
0001
0010
0100
0010
0001
0100
0010
1000
0001
0010
0100
0010
0001
0100
0010
,
1000
0100
1000
0001
0100
0010
1000
0001
0010
0001
1000
0010
0100
0001
1000
0100
,
1000
0010
0100
0010
1000
0001
0010
0100
0010
0001
0100
0010
1000
0001
0010
0001
,
1000
0010
0100
0001
1000
0100
1000
0010
0100
0001
1000
0001
0010
0001
0100
0010
,
1000
0001
0010
0100
0010
0001
0100
0010
1000
0001
1000
0100
1000
0010
0100
0001
,
1000
0001
0010
0100
0010
0001
1000
0001
0100
0010
1000
0001
0010
0001
0100
0010
,
1000
0001
0010
0001
1000
0010
0100
0010
1000
0001
0010
0100
1000
0001
0100
0010
,
1000
0001
0100
0010
1000
0001
0100
0010
1000
0010
0100
0001
1000
0100
0010
0001
1000
0100
0010
0001
0010
0100
1000
0001
,
1000
0010
0100
0001
1000
0100
0010
0001
1000
0010
1000
0001
0010
0100
1000
0001
0100
0001
1000
0010
0100
0001
1000
0100
,
0020
0000
0001
0000
0001
0100
0000
0100
,
0000
0001
0001
0000
0100
0031
0000
2000
,
0000
0000
0010
0000
0001
0010
0000
3200
,
0000
0320
0032
2003
,
3020
0000
0100
0000
1030
0100
0010
0002
,
0000
1000
1000
0000
0103
0020
0000
2030
,
0000
0000
0000
0000
3002
0000
0013
0200
,
0000
0000
0300
2000
0000
3100
0010
0002
,
0000
0000
0010
0000
0010
1000
0000
1000
,
0000
0010
0010
0000
1000
0013
0000
2000
,
0000
0000
0100
0000
0100
0001
0000
3020
,
0000
0100
0230
0000
0002
0300
2003
0000
,
3200
0000
0010
0000
1300
0010
0100
0002
,
0000
1000
1000
0000
0013
0200
0000
2300
,
0000
0000
0000
0000
3002
0000
0103
0020
,
0000
0000
0000
0030
2000
0000
3200
0000
,
1300
0100
0010
0001
1000
0100
0010
0100
1000
0001
1000
0010
0100
0001
0100
0010
1000
0001
1000
0010
0100
0001
0100
0010
,
1000
0001
1000
0100
0010
0001
1000
0100
0010
0100
1000
0001
0010
0100
1000
0001
0010
0100
0010
0001
1000
0001
0100
0010
,
0100
0001
1000
0010
0100
0010
1000
0001
0100
0001
1000
0010
1000
0001
0100
0010
1000
0001
1000
0010
0100
0010
1000
0001
,
1000
0100
0010
0001
0010
0100
1000
0001
0010
0100
0010
0001
1000
0100
0010
0001
1000
0100
0010
0100
1000
0001
1000
0010
,
0100
0010
1000
0001
0100
0010
0100
0001
1000
0010
1000
0001
0100
0010
1000
0001
1000
0010
0100
0001
0100
0010
1000
0001
,
1000
0100
1000
0001
0010
0100
1000
0001
0010
0100
0010
0001
1000
0100
0010
0100
1000
0001
0010
0100
1000
0001
0010
0001
,
1000
0001
0100
0001
1000
0010
1000
0001
0100
0001
1000
0010
0100
0010
1000
0001
0100
0001
1000
0010
0100
0001
1000
0010
,
1000
0000
0000
0000
0000
0000
0000
0000
0001
0000
0000
1000
0001
0000
0020
0000
,
0000
0130
1000
0001
0100
0020
0000
2030
,
0000
3020
0000
0230
0000
0301
0010
0200
,
0000
0300
2000
0000
3010
0200
0000
0302
,
0000
0000
1003
0200
0000
0320
0000
0230
,
0000
0310
0001
1000
0010
0200
0000
0302
,
0000
0203
0000
0320
0000
1030
0100
0020
,
0000
0030
0002
0000
0103
0020
0000
2030
,
0000
3000
0001
0020
0000
0230
0000
2300
,
0000
3020
0230
0302
,
0023
0000
0130
2000
0000
3020
0000
0000
,
0230
0000
0302
0000
2003
0000
3100
0010
,
0000
0100
0010
0002
0000
0103
0010
2000
,
0000
3000
0001
0000
0010
0100
0000
2100
,
0000
0000
3001
0000
0001
0200
0000
0000
,
0301
1000
0001
0100
0010
0100
0001
1000
0001
0100
0010
1000
0001
0100
0010
1000
0010
0100
0001
1000
0001
0010
0100
0010
,
0001
1000
0100
0010
0001
0010
0100
1000
0001
1000
0100
0010
0001
1000
0001
0100
0010
0100
0001
1000
0001
0100
0010
1000
,
0001
0100
0001
1000
0001
0010
0100
1000
0001
0010
0100
1000
0001
0010
0100
0010
0001
1000
0100
0010
0100
1000
0001
1000
,
0010
0100
0010
1000
0001
0100
0010
1000
0001
1000
0010
0100
0001
1000
0001
0010
0100
1000
0001
0010
0100
0010
0001
1000
,
0001
0100
0010
1000
0001
1000
0010
0100
0010
1000
0001
0100
0010
1000
0001
0100
0010
1000
0001
1000
0100
0010
0001
1000
,
0100
0010
0001
1000
0100
0010
0100
1000
0001
0010
0100
1000
0001
0010
0001
1000
0001
0100
0010
0100
0001
1000
0010
0100
,
0001
1000
0010
0100
0001
1000
0010
0100
0010
1000
0001
0100
0010
1000
0001
1000
0100
0010
0001
1000
0100
0010
0100
1000
,
0001
0010
0100
1000
0001
0010
0100
1000
0001
1000
0010
0100
0001
0100
0010
1000
0001
0100
0001
1000
0010
0100
0010
1000
,
0001
0010
0100
1000
0000
0002
0000
0103
,
0010
0100
0001
0020
0000
0030
0100
1000
,
0001
0100
0010
0100
0001
1000
0001
0010
0100
0000
1000
0200
0000
0000
0000
0000
,
0000
0000
0000
0000
0000
0000
0000
0300
0000
0000
0010
0000
0001
0000
0200
0000
,
0000
0300
0010
2000
3000
0001
0010
0100
,
2000
0000
3002
0000
0103
0020
0000
0230
,
0000
0300
0002
0000
0000
0000
0000
0000
,
0003
1000
0100
0010
0001
0010
0100
1000
,
0000
0000
0001
0000
0100
0000
0010
0000
0100
0001
1000
0100
0010
0100
1000
0001
,
0100
0010
0100
0001
1000
0010
1000
0100
0020
0000
0000
0000
0031
0000
2000
0000
,
0000
0000
0000
3020
,
0230
0302
0023
0230
,
2300
3000
1000
0010
0000
1000
0100
0010
,
0002
0003
0001
0010
0000
0100
1000
0001
,
1000
0000
0100
0000
0010
0000
0001
0000
0100
0000
0010
0000
2000
0000
0000
0000
0000
0000
3001
0000
0000
0020
0000
0000
,
0000
0000
0000
0000
0030
0000
0000
0000
0001
1000
0001
1000
0010
0000
0100
0000
,
0000
0000
0000
0000
,
0000
0000
0000
0000
,
0000
0000
0000
0000
,
0000
0000
0000
0000
,
0000
0000
0000
0000
,
0000
0000
0000
0000
,
0000
0000
0000
0000
,
0000
0000
0000
1001
0000
0001
0100
0010
,
0000
1000
0010
1000
,
0001
1000
0100
0010
,
0011
1001
0101
0110
,
1010
0110
0101
1001
,
1000
0100
1000
0001
1000
0010
1000
0001
,
1000
0001
0100
0001
0010
0001
1000
0001
,
1000
1010
0010
0110
0100
0101
0001
1001
,
1000
0000
1100
0000
0100
0000
0010
0000
0100
1000
0001
0100
0010
0000
1000
0000
,
0001
1000
0001
0010
0100
0010
0001
1000
0001
0010
0100
1000
0001
0010
0100
1000
0100
0010
0001
1000
0001
0100
0010
0100
,
0001
1000
0010
0100
0001
0100
0010
1000
0001
1000
0010
0100
0001
1000
0001
0010
0100
0010
0001
1000
0001
0010
0100
1000
,
0001
0010
0001
1000
0001
0100
0010
1000
0001
0100
0010
1000
0001
0100
0010
0100
0001
1000
0010
0100
0010
1000
0001
1000
,
0100
0010
0100
1000
0001
0010
0100
1000
0001
1000
0100
0010
0001
1000
0001
0100
0010
1000
0001
0100
0010
0100
0001
1000
,
0001
0010
0100
1000
0001
1000
0100
0010
0100
1000
0001
0010
0100
1000
0001
0010
0100
1000
0001
1000
0010
0100
0001
1000
,
0010
0100
0001
1000
0010
0100
0010
1000
0001
0100
0010
1000
0001
0100
0001
1000
0001
0010
0100
0010
0001
1000
0100
0010
,
0001
1000
0100
0010
0001
1000
0100
0010
0100
1000
0001
0010
0100
1000
0001
1000
0010
0100
0001
1000
0010
0100
0010
1000
,
0001
0000
0000
0000
0000
0000
0000
0000
1000
0000
0000
0001
1000
0000
0200
0000
,
0000
0310
0001
1000
0010
0200
0000
0302
,
0000
0203
0000
0320
0000
1030
0100
0020
,
0000
0030
0002
0000
0103
0020
0000
2030
,
0000
0000
3001
0020
0000
0230
0000
0320
,
0000
0130
1000
0001
0100
0020
0000
2030
,
0000
3020
0000
0230
0000
0301
0010
0200
,
0000
0300
2000
0000
3010
0200
0000
0302
,
0000
0003
1000
0200
0000
0320
0000
0032
,
0000
0203
0320
2030
,
3200
0000
0310
0002
0000
0203
0000
0000
,
0320
0000
2030
0000
3002
0000
0013
0100
,
0000
0010
0100
2000
0000
3010
0100
0002
,
0000
0003
1000
0000
0100
0010
0000
0012
,
0000
0000
1003
0000
1000
0200
0000
0300
,
1000
0010
0100
0001
1000
0010
0100
0010
1000
0001
1000
0100
0010
0001
0010
0100
1000
0001
1000
0100
0010
0001
0010
0100
,
1000
0001
1000
0010
0100
0001
1000
0010
0100
0010
1000
0001
0100
0010
1000
0001
0100
0010
0100
0001
1000
0001
0010
0100
,
0010
0001
1000
0100
0010
0100
1000
0001
0010
0001
1000
0100
1000
0001
0010
0100
1000
0001
1000
0100
0010
0100
1000
0001
,
1000
0010
0100
0001
0100
0010
1000
0001
0100
0010
0100
0001
1000
0010
0100
0001
1000
0010
0100
0010
1000
0001
1000
0100
,
0010
0100
1000
0001
0010
0100
0010
0001
1000
0100
1000
0001
0010
0100
1000
0001
1000
0100
0010
0001
0010
0100
1000
0001
,
1000
0010
0100
0001
0100
0010
1000
0001
0100
0010
0100
0001
1000
0010
0100
0010
1000
0001
0100
0010
1000
0001
1000
0100
,
0010
0100
1000
0001
0010
0100
0010
0001
1000
0100
0010
0001
1000
0100
0010
0100
1000
0001
1000
0100
0010
0001
1000
0100
,
1000
0001
0010
0100
1000
0001
1000
0010
0100
0001
0100
0010
1000
0001
1000
0010
0100
0001
1000
0001
0010
0100
1000
0001
,
1000
0010
0100
0001
1000
0100
0010
0001
0010
0100
1000
0001
0200
0000
0000
0000
,
0310
0000
1000
0010
1000
0100
0010
0001
1000
0010
1000
0001
0010
0100
1000
0001
,
0100
0000
0000
0110
0000
0000
0101
1001
,
0000
2222
0000
0000
0000
0000
0000
0000
,
0000
0003
0030
0300
3000
0000
0000
0000
0000
0000
0000
0000
0000
0000
0000
0000
;

//---------------dance-single - Aoreo----------------
#NOTES:
     dance-single:
     Aoreo:
     Easy:
     16:
     0.926,1.000,0.232,0.768,0.954,1012.000,43.000,142.000,0.000,1.000:


2010
0000
0001
0000
0001
0000
0001
0010
,
0010
0001
0001
3001
,
1002
0000
0100
0000
0100
0000
0100
1000
,
1000
1000
0100
0103
,
2010
0000
0001
0000
0001
0000
0001
0010
,
0010
0001
0001
3001
,
0201
0000
0010
0000
0010
0000
0310
0110
,
0100
0000
0001
0000
1000
0000
0100
0000
0010
0000
0001
1000
0001
0000
1000
0100
,
0010
0100
1000
0001
1000
0010
0100
0001
1000
0001
0010
0001
1000
0010
0100
0001
,
1000
0001
0010
0100
0010
0001
0100
0010
1000
0001
0010
0100
0010
0001
0100
0010
,
1000
0100
1000
0001
0100
0010
1000
0001
0010
0001
1000
0010
0100
0001
1000
0100
,
1000
0010
0100
0010
1000
0001
0010
0100
0010
0001
0100
0010
1000
0001
0010
0001
,
1000
0010
0100
0001
1000
0100
1000
0010
0100
0001
1000
0001
0010
0001
0100
0010
,
1000
0001
0010
0100
0010
0001
0100
0010
1000
0001
1000
0100
1000
0010
0100
0001
,
1000
0001
0010
0100
0010
0001
1000
0001
0100
0010
1000
0001
0010
0001
0100
0010
,
1000
0001
0010
0001
1000
0010
0100
0010
1000
0001
0010
0100
1000
0001
0100
0010
,
1000
0000
0000
0100
0000
0000
1000
0000
0000
0010
0000
0000
0100
0000
0000
0001
0000
0000
0010
0000
0000
0001
0000
0000
0100
0000
0000
0010
0000
0000
1000
0000
0000
0100
0000
0000
1000
0000
0000
0010
0000
0000
0100
0000
0001
0000
0100
0000
,
0010
1000
0001
0100
0010
0100
0001
1000
0001
0100
0010
0100
0001
1000
0100
1000
0001
0010
0100
0000
0000
0020
0000
0000
,
0000
0000
0001
0000
0001
0100
0000
0100
,
0000
0001
0001
0000
0100
0031
0000
2000
,
0000
0000
0010
0000
0001
0010
0000
3200
,
0000
0320
0032
2003
,
3020
0000
0100
0000
1030
0100
0010
0002
,
0000
1000
1000
0000
0103
0020
0000
2030
,
0000
0000
0000
0000
3002
0000
0013
0200
,
0000
0000
0300
2000
0000
3100
0010
0002
,
0000
0000
0010
0000
0010
1000
0000
1000
,
0000
0010
0010
0000
1000
0013
0000
2000
,
0000
0000
0100
0000
0100
0001
0000
3020
,
0000
0100
0230
0000
0002
0300
2003
0000
,
3200
0000
0010
0000
1300
0010
0100
0002
,
0000
1000
1000
0000
0013
0200
0000
2300
,
0000
0000
0000
0000
3002
0000
0103
0020
,
0000
0000
0000
0030
2000
0000
3200
0000
,
1300
0000
0000
0010
0110
0000
0000
0100
,
0000
0101
0000
0001
1001
0000
0000
1000
,
1100
0000
0000
0100
1100
1000
0001
0101
,
0000
0000
0100
0000
0010
0000
0100
0000
0001
0000
1000
0000
0100
0000
1000
0001
,
0100
0010
1000
0001
0100
0010
0100
0001
1000
0010
1000
0001
0100
0010
1000
0001
1000
0010
0100
0001
0100
0010
1000
0001
,
1000
0100
1000
0001
0010
0100
1000
0001
0010
0100
0010
0001
1000
0100
0010
0100
1000
0001
0010
0100
1000
0001
0010
0001
,
1000
0001
0100
0001
1000
0010
1000
0001
0100
0001
1000
0010
0100
0010
1000
0001
0100
0001
1000
0010
0100
0001
1000
0010
,
1000
0000
0000
0000
0000
0000
0000
0000
0001
0000
0000
1000
0001
0000
0020
0000
,
0000
0130
1000
0001
0100
0020
0000
2030
,
0000
3020
0000
0230
0000
0301
0010
0200
,
0000
0300
2000
0000
3010
0200
0000
0302
,
0000
0000
1003
0200
0000
0320
0000
0230
,
0000
0310
0001
1000
0010
0200
0000
0302
,
0000
0203
0000
0320
0000
1030
0100
0020
,
0000
0030
0002
0000
0103
0020
0000
2030
,
0000
3000
0001
0020
0000
0230
0000
2300
,
0000
3020
0230
0302
,
0023
0000
0130
2000
0000
3020
0000
0000
,
0230
0000
0302
0000
2003
0000
3100
0010
,
0000
0100
0010
0002
0000
0103
0010
2000
,
0000
3000
0001
0000
0010
0100
0000
2100
,
0000
0000
0000
0000
3001
0000
0000
0000
0001
0000
0100
0000
0001
0010
0100
1000
,
0002
0000
0000
0023
0000
0000
0230
0000
,
0000
0000
0000
0000
2300
0000
0000
3010
,
0120
0000
0000
2030
0000
0000
3200
0300
,
0110
0000
0010
0001
1000
0000
1100
0000
0100
0000
1000
0000
0001
0000
0100
0000
,
0001
0100
0010
1000
0001
1000
0010
0100
0010
1000
0001
0100
0010
1000
0001
0100
0010
1000
0001
1000
0100
0010
0001
1000
,
0100
0010
0001
1000
0100
0010
0100
1000
0001
0010
0100
1000
0001
0010
0001
1000
0001
0100
0010
0100
0001
1000
0010
0100
,
0001
1000
0010
0100
0001
1000
0010
0100
0010
1000
0001
0100
0010
1000
0001
1000
0100
0010
0001
1000
0100
0010
0100
1000
,
0001
0010
0100
1000
0001
0010
0100
1000
0001
1000
0010
0100
0001
0100
0010
1000
0001
0100
0001
1000
0010
0100
0010
1000
,
0001
0010
0100
1000
0000
0002
0000
0103
,
0010
0100
0001
0020
0000
0030
0100
1000
,
0001
0100
0010
0100
0001
1000
0001
0010
0100
0000
1000
0200
0000
0000
0000
0000
,
0000
0000
0000
0000
0000
0000
0000
0300
0000
0000
0010
0000
0001
0000
0200
0000
,
0000
0300
0010
2000
3000
0001
0010
0100
,
2000
0000
3002
0000
0103
0020
0000
0230
,
0000
0300
0002
0000
0000
0000
0000
0000
,
0003
1000
0100
0010
0001
0010
0100
1000
,
0000
0000
0001
0000
0100
0000
0010
0000
0100
0001
1000
0100
0010
0100
1000
0001
,
0100
0010
0100
0001
1000
0010
1000
0100
0020
0000
0000
0000
0031
0000
2000
0000
,
0000
0000
0000
3020
,
0230
0302
0023
0230
,
2300
3000
1000
0010
0000
1000
0100
0010
,
0002
0003
0001
0010
0000
0100
1000
0001
,
1000
0000
0100
0000
0010
0000
0001
0000
0100
0000
0010
0000
2000
0000
0000
0000
0000
0000
3001
0000
0000
0020
0000
0000
,
0000
0000
0000
0000
0030
0000
0000
0000
0001
1000
0001
1000
0010
0000
0100
0000
,
0000
0000
0000
0000
,
0000
0000
0000
0000
,
0000
0000
0000
0000
,
0000
0000
0000
0000
,
0000
0000
0000
0000
,
0000
0000
0000
0000
,
0000
0000
0000
0000
,
0000
0000
0000
1001
0000
0001
0100
0010
,
0000
1000
0010
1000
,
0001
1000
0100
0010
,
0011
1001
0101
0110
,
1010
0110
0101
1001
,
1000
0100
1000
0001
1000
0010
1000
0001
,
1000
0001
0100
0001
0010
0001
1000
0001
,
1000
1010
0010
0110
0100
0101
0001
1001
,
1000
0000
1100
0000
0100
0000
0010
0000
0100
1000
0001
0100
0010
0000
1000
0000
,
0001
0000
0000
0100
0110
0000
0000
0010
,
0000
1010
0000
1000
1001
0000
0000
0001
,
0011
0000
0000
0010
0110
0100
1000
1001
,
0000
0000
0001
0000
1000
0000
0100
0000
0010
0000
0001
0000
1000
0000
0010
0100
,
0001
0010
0100
1000
0001
1000
0100
0010
0100
1000
0001
0010
0100
1000
0001
0010
0100
1000
0001
1000
0010
0100
0001
1000
,
0010
0100
0001
1000
0010
0100
0010
1000
0001
0100
0010
1000
0001
0100
0001
1000
0001
0010
0100
0010
0001
1000
0100
0010
,
0001
1000
0100
0010
0001
1000
0100
0010
0100
1000
0001
0010
0100
1000
0001
1000
0010
0100
0001
1000
0010
0100
0010
1000
,
0001
0000
0000
0000
0000
0000
0000
0000
1000
0000
0000
0001
1000
0000
0200
0000
,
0000
0310
0001
1000
0010
0200
0000
0302
,
0000
0203
0000
0320
0000
1030
0100
0020
,
0000
0030
0002
0000
0103
0020
0000
2030
,
0000
0000
3001
0020
0000
0230
0000
0320
,
0000
0130
1000
0001
0100
0020
0000
2030
,
0000
3020
0000
0230
0000
0301
0010
0200
,
0000
0300
2000
0000
3010
0200
0000
0302
,
0000
0003
1000
0200
0000
0320
0000
0032
,
0000
0203
0320
2030
,
3200
0000
0310
0002
0000
0203
0000
0000
,
0320
0000
2030
0000
3002
0000
0013
0100
,
0000
0010
0100
2000
0000
3010
0100
0002
,
0000
0003
1000
0000
0100
0010
0000
0012
,
0000
0000
1003
0000
1000
0200
0000
0300
,
2000
0000
0000
3200
0000
0000
0320
0000
,
0000
0000
0000
0000
0032
0000
0000
0103
,
0210
0000
0000
0302
0000
0000
0023
0030
,
0110
0000
0100
1000
0001
0000
0011
0000
0010
0000
0001
0000
1000
0000
0001
0000
,
1000
0100
1000
0001
0010
0100
0010
0001
1000
0100
1000
0001
0010
0100
1000
0001
1000
0100
0010
0001
0010
0100
1000
0001
,
1000
0010
0100
0001
0100
0010
1000
0001
0100
0010
0100
0001
1000
0010
0100
0010
1000
0001
0100
0010
1000
0001
1000
0100
,
0010
0100
1000
0001
0010
0100
0010
0001
1000
0100
0010
0001
1000
0100
0010
0100
1000
0001
1000
0100
0010
0001
1000
0100
,
1000
0001
0010
0100
1000
0001
1000
0010
0100
0001
0100
0010
1000
0001
1000
0010
0100
0001
1000
0001
0010
0100
1000
0001
,
1000
0010
0100
0001
1000
0100
0010
0001
0010
0100
1000
0001
0200
0000
0000
0000
,
0310
0000
1000
0010
1000
0100
0010
0001
1000
0010
1000
0001
0010
0100
1000
0001
,
0100
0000
0000
0110
0000
0000
0101
1001
,
0000
2222
0000
0000
0000
0000
0000
0000
,
0000
0003
0030
0300
3000
0000
0000
0000
0000
0000
0000
0000
0000
0000
0000
0000
;

//---------------dance-single - Mad Matt----------------
#NOTES:
     dance-single:
     Mad Matt:
     Challenge:
     20:
     1.000,1.000,0.135,0.697,1.000,1391.000,25.000,129.000,0.000,1.000:

0102
0000
1000
0000
1000
0000
1000
0100
,
0100
1000
1000
1003
,
2001
0000
0010
0000
0010
0000
0010
0001
,
0001
0001
0010
3010
,
0102
0000
1000
0000
1000
0000
1000
0100
,
0100
1000
1000
1003
,
1020
0000
0100
0000
0100
0000
0130
0110
,
0010
0000
0000
0000
0000
0000
1000
0000
0000
0000
0000
0000
0001
0000
0000
0000
0000
0000
0010
0000
0000
0000
0000
0000
0100
0000
0000
0000
0000
0000
1000
0000
0000
0001
0000
0000
1000
0000
0000
0000
0000
0000
0001
0000
0010
0000
0001
0000
,
1000
0010
0100
0001
0010
0100
1000
0001
0010
0001
0100
0001
1000
0100
0010
0001
0100
0010
1000
0100
1000
0001
0100
0010
,
1000
0001
1000
0100
0010
0001
0100
0010
1000
0001
0010
0001
1000
0001
0100
0010
1000
0100
0010
0001
0100
0001
1000
0100
,
1000
0001
0100
0010
1000
0100
0010
0001
1000
0100
1000
0001
0010
0001
1000
0010
0100
0001
0010
0100
1000
0001
0010
0001
,
0100
0001
1000
0010
0100
0001
0010
0100
1000
0001
0100
0010
1000
0001
1000
0100
0010
0001
0100
0010
1000
0001
0010
0001
,
1000
0010
0100
0001
0010
0100
1000
0001
0010
0001
0100
0001
1000
0100
0010
0001
0100
0010
1000
0100
1000
0001
0100
0010
,
1000
0001
1000
0100
0010
0001
0100
0010
1000
0001
0010
0001
1000
0001
0100
0010
1000
0100
0010
0001
0100
0001
1000
0100
,
1000
0001
0100
0010
1000
0100
0010
0001
1000
0100
1000
0001
0010
0001
1000
0010
0100
0001
0010
0100
1000
0001
0010
0001
,
0100
0001
1000
0010
0100
0001
0010
0100
1000
0001
0100
0010
1000
0001
1000
0100
0010
0001
0100
0010
1000
0001
0010
0001
,
1000
0010
1000
0001
0010
0001
0100
0010
0100
0001
1000
0100
1000
0010
0100
0010
1000
0001
0010
0100
0010
0001
0100
0001
,
1000
0100
0010
0001
0100
0010
1000
0001
0010
0001
0100
0010
0100
0001
1000
0010
1000
0100
0010
0001
0100
0010
1000
0001
,
0020
0000
0001
0000
0001
0100
0000
0100
,
0000
0001
0001
0000
0100
0031
0000
2000
,
0000
0000
0010
0000
0001
0010
0000
3200
,
0000
0320
0032
2003
,
3020
0000
0100
0000
1030
0100
0010
0002
,
0000
1000
1000
0000
0103
0020
0000
2030
,
0000
0000
0000
0000
3002
0000
0013
0200
,
0000
0000
0300
2000
0000
3100
0010
0002
,
0000
0000
0010
0000
0010
1000
0000
1000
,
0000
0010
0010
0000
1000
0013
0000
2000
,
0000
0000
0100
0000
0100
0001
0000
3020
,
0000
0100
0230
0000
0002
0300
2003
0000
,
3200
0000
0010
0000
1300
0010
0100
0002
,
0000
1000
1000
0000
0013
0200
0000
2300
,
0000
0000
0000
0000
3002
0000
0103
0020
,
0000
0000
0000
0030
2000
0000
3200
0000
,
1300
0001
0010
0001
0100
0010
1000
0001
0010
0001
0100
0001
1000
0010
0100
0001
0010
0100
1000
0001
0100
0010
1000
0001
,
1000
0100
1000
0010
0100
0001
1000
0100
1000
0010
1000
0001
0100
0010
1000
0100
0010
0001
1000
0010
0100
0001
1000
0100
,
1000
0001
0100
0001
0010
0100
1000
0001
0100
0001
0010
0001
1000
0100
0010
0001
0100
0010
1000
0001
0010
0100
1000
0010
,
0100
0001
1000
0100
0010
0001
1000
0010
1000
0100
1000
0001
0010
0100
1000
0010
0100
0001
1000
0100
0010
0001
1000
0010
,
0100
0001
1000
0100
1000
0010
0100
0001
1000
0100
1000
0010
1000
0001
0100
0010
1000
0100
0010
0001
1000
0010
0100
0001
,
1000
0001
0010
0001
0100
0010
1000
0001
0010
0001
0100
0001
1000
0010
0100
0001
0010
0100
1000
0001
0100
0010
1000
0001
,
0010
0100
1000
0001
0100
0010
1000
0001
0010
0001
0100
0001
1000
0010
0100
0001
0010
0100
1000
0001
0100
0010
1000
0001
,
0010
0000
0000
0000
0000
0000
0000
0000
0001
0000
0000
1000
0001
0000
0020
0000
,
0000
0130
1000
0001
0100
0020
0000
2030
,
0000
3020
0000
0230
0000
0301
0010
0200
,
0000
0300
2000
0000
3010
0200
0000
0302
,
0000
0000
1003
0200
0000
0320
0000
0230
,
0000
0310
0001
1000
0010
0200
0000
0302
,
0000
0203
0000
0320
0000
1030
0100
0020
,
0000
0030
0002
0000
0103
0020
0000
2030
,
0000
3000
0001
0020
0000
0230
0000
2300
,
0000
3020
0230
0302
,
0023
0000
0130
2000
0000
3020
0000
0000
,
0230
0000
0302
0000
2003
0000
3100
0010
,
0000
0100
0010
0002
0000
0103
0010
2000
,
0000
3000
0001
0000
0010
0100
0000
2100
,
0000
0000
3001
0000
0001
0200
0000
0000
,
0301
1000
0100
1000
0001
0100
0001
0010
0001
1000
0010
0100
0001
0010
0100
1000
0001
0100
0010
1000
0001
0010
0001
0100
,
0001
1000
0100
1000
0001
0100
0001
0010
0001
1000
0010
0100
0001
0010
0100
1000
0001
0100
0010
1000
0001
0010
0001
1000
,
0100
1000
0010
1000
0001
0010
0001
0100
0001
1000
0100
0010
0001
0100
0010
1000
0001
0010
0100
1000
0001
0100
0001
0010
,
0001
1000
0010
1000
0001
0010
0001
0100
0001
1000
0100
0010
0001
0100
0010
1000
0001
0010
0100
1000
0010
0100
0001
1000
,
0001
0010
0001
1000
0010
1000
0100
1000
0001
0100
0010
1000
0100
0010
0001
1000
0010
0100
0001
1000
0100
1000
0010
1000
,
0001
0010
0001
1000
0010
1000
0100
1000
0001
0100
0010
1000
0100
0010
0001
1000
0010
0100
0001
1000
0100
1000
0001
0010
,
0001
0100
0001
1000
0100
1000
0010
1000
0001
0010
0100
1000
0010
0100
0001
1000
0100
0010
0001
1000
0010
1000
0100
1000
,
0001
0100
0001
1000
0100
1000
0010
1000
0001
0010
0100
1000
0010
0100
0001
1000
0100
0010
0001
1000
0010
1000
0001
1000
,
0100
0010
0001
1000
0000
0002
0000
0103
,
0010
0100
0001
0020
0000
0030
0100
1000
,
0001
0100
0010
0100
0001
1000
0001
0010
0100
0000
1000
0200
0000
0000
0000
0000
,
0000
0000
0000
0000
0000
0000
0000
0300
0000
0000
0010
0000
0001
0000
0200
0000
,
0000
0300
0010
2000
3000
0001
0010
0100
,
2000
0000
3002
0000
0103
0020
0000
0230
,
0000
0300
0002
0000
0000
0000
0000
0000
,
0003
1000
0100
0010
0001
0010
0100
1000
,
0000
0000
0001
0000
0100
0000
0010
0000
0100
0001
1000
0100
0010
0100
1000
0001
,
0100
0010
0100
0001
1000
0010
1000
0100
0020
0000
0000
0000
0031
0000
2000
0000
,
0000
0000
0000
3020
,
0230
0302
0023
0230
,
2300
3000
1000
0010
0000
1000
0100
0010
,
0002
0003
0001
0010
0000
0100
1000
0001
,
1000
0000
0100
0000
0010
0000
0001
0000
0100
0000
0010
0000
2000
0000
0000
0000
0000
0000
3001
0000
0000
0020
0000
0000
,
0000
0000
0000
0000
0030
0000
0000
0000
0001
1000
0001
1000
0010
0000
0100
0000
,
0000
0000
0000
0000
,
0000
0000
0000
0000
,
0000
0000
0000
0000
,
0000
0000
0000
0000
,
0000
0000
0000
0000
,
0000
0000
0000
0000
,
0000
0000
0000
0000
,
0000
0000
0000
1001
0000
0001
0100
0010
,
0000
1000
0010
1000
,
0001
1000
0100
0010
,
0011
1001
0101
0110
,
1010
0110
0101
1001
,
1000
0100
1000
0001
1000
0010
1000
0001
,
1000
0001
0100
0001
0010
0001
1000
0001
,
1000
1010
0010
0110
0100
0101
0001
1001
,
1000
0000
1100
0000
0100
0000
0010
0000
0100
1000
0001
0100
0010
0000
1000
0000
,
0001
1000
0100
1000
0010
0100
0001
1000
0100
1000
0010
1000
0001
0100
0010
1000
0100
0010
0001
1000
0010
0100
0001
1000
,
0001
0010
0001
0100
0010
1000
0001
0010
0001
0100
0001
1000
0010
0100
0001
0010
0100
1000
0001
0100
0010
1000
0001
0010
,
0001
1000
0010
1000
0100
0010
0001
1000
0010
1000
0100
1000
0001
0010
0100
1000
0010
0100
0001
1000
0100
0010
0001
0100
,
0010
1000
0001
0010
0100
1000
0001
0100
0001
0010
0001
1000
0100
0010
0001
0100
0010
1000
0001
0010
0100
1000
0001
0100
,
0010
1000
0001
0010
0001
0100
0010
1000
0001
0010
0001
0100
0001
1000
0010
0100
0001
0010
0100
1000
0001
0100
0010
1000
,
0001
1000
0100
1000
0010
0100
0001
1000
0100
1000
0010
1000
0001
0100
0010
1000
0100
0010
0001
1000
0010
0100
0001
1000
,
0100
0010
0001
1000
0010
0100
0001
1000
0100
1000
0010
1000
0001
0100
0010
1000
0100
0010
0001
1000
0010
0100
0001
1000
,
0100
0000
0000
0000
0000
0000
0000
0000
1000
0000
0000
0001
1000
0000
0200
0000
,
0000
0310
0001
1000
0010
0200
0000
0302
,
0000
0203
0000
0320
0000
1030
0100
0020
,
0000
0030
0002
0000
0103
0020
0000
2030
,
0000
0000
3001
0020
0000
0230
0000
0320
,
0000
0130
1000
0001
0100
0020
0000
2030
,
0000
3020
0000
0230
0000
0301
0010
0200
,
0000
0300
2000
0000
3010
0200
0000
0302
,
0000
0003
1000
0200
0000
0320
0000
0032
,
0000
0203
0320
2030
,
3200
0000
0310
0002
0000
0203
0000
0000
,
0320
0000
2030
0000
3002
0000
0013
0100
,
0000
0010
0100
2000
0000
3010
0100
0002
,
0000
0003
1000
0000
0100
0010
0000
0012
,
0000
0000
1003
0000
1000
0200
0000
0300
,
1000
0001
0010
0001
1000
0010
1000
0100
1000
0001
0100
0010
1000
0100
0010
0001
1000
0010
0100
0001
1000
0100
1000
0010
,
1000
0001
0010
0001
1000
0010
1000
0100
1000
0001
0100
0010
1000
0100
0010
0001
1000
0010
0100
0001
1000
0100
1000
0001
,
0010
0001
0100
0001
1000
0100
1000
0010
1000
0001
0010
0100
1000
0010
0100
0001
1000
0100
0010
0001
1000
0010
1000
0100
,
1000
0001
0100
0001
1000
0100
1000
0010
1000
0001
0010
0100
1000
0010
0100
0001
1000
0100
0010
0001
0100
0010
1000
0001
,
1000
0100
1000
0001
0100
0001
0010
0001
1000
0010
0100
0001
0010
0100
1000
0001
0100
0010
1000
0001
0010
0001
0100
0001
,
1000
0100
1000
0001
0100
0001
0010
0001
1000
0010
0100
0001
0010
0100
1000
0001
0100
0010
1000
0001
0010
0001
1000
0100
,
1000
0010
1000
0001
0010
0001
0100
0001
1000
0100
0010
0001
0100
0010
1000
0001
0010
0100
1000
0001
0100
0001
0010
0001
,
1000
0010
1000
0001
0010
0001
0100
0001
1000
0100
0010
0001
0100
0010
1000
0001
0010
0100
1000
0010
0100
0001
1000
0001
,
0010
0100
0010
0001
1000
0010
0100
0001
0010
0100
1000
0001
0200
0000
0000
0000
,
0310
0000
1000
0010
1000
0100
0010
0001
1000
0010
1000
0001
0010
0100
1000
0001
,
0100
0000
0000
0110
0000
0000
0101
1001
,
0000
2222
0000
0000
0000
0000
0000
0000
,
0000
0003
0030
0300
3000
0000
0000
0000
0000
0000
0000
0000
0000
0000
0000
0000
;

//---------------dance-single - Arvin----------------
#NOTES:
     dance-single:
     Arvin:
     Beginner:
     15:
     0.878,1.000,0.232,0.768,0.787,950.000,43.000,142.000,0.000,1.000:


2010
0000
0001
0000
0001
0000
0001
0010
,
0010
0001
0001
3001
,
1002
0000
0100
0000
0100
0000
0100
1000
,
1000
1000
0100
0103
,
2010
0000
0001
0000
0001
0000
0001
0010
,
0010
0001
0001
3001
,
0201
0000
0010
0000
0010
0000
0310
0110
,
0100
0000
0001
0000
1000
0000
0100
0000
0010
0000
0001
1000
0001
0000
1000
0100
,
0010
0100
1000
0001
1000
0010
0100
0001
1000
0001
0010
0001
1000
0010
0100
0001
,
1000
0001
0010
0100
0010
0001
0100
0010
1000
0001
0010
0100
0010
0001
0100
0010
,
1000
0100
1000
0001
0100
0010
1000
0001
0010
0001
1000
0010
0100
0001
1000
0100
,
1000
0010
0100
0010
1000
0001
0010
0100
0010
0001
0100
0010
1000
0001
0010
0001
,
1000
0010
0100
0001
1000
0100
1000
0010
0100
0001
1000
0001
0010
0001
0100
0010
,
1000
0001
0010
0100
0010
0001
0100
0010
1000
0001
1000
0100
1000
0010
0100
0001
,
1000
0001
0010
0100
0010
0001
1000
0001
0100
0010
1000
0001
0010
0001
0100
0010
,
1000
0001
0010
0001
1000
0010
0100
0010
1000
0001
0010
0100
1000
0001
0100
0010
,
1000
0000
0000
0100
0000
0000
1000
0000
0000
0010
0000
0000
0100
0000
0000
0001
0000
0000
0010
0000
0000
0001
0000
0000
0100
0000
0000
0010
0000
0000
1000
0000
0000
0100
0000
0000
1000
0000
0000
0010
0000
0000
0100
0000
0001
0000
1000
0000
,
0100
0010
0001
1000
0010
0100
0001
1000
0010
0100
0001
1000
0100
0010
0100
1000
0001
0010
0100
1000
0001
0020
0000
0000
,
0000
0000
0001
0000
0001
0100
0000
0100
,
0000
0001
0001
0000
0100
0031
0000
2000
,
0000
0000
0010
0000
0001
0010
0000
3200
,
0000
0320
0032
2003
,
3020
0000
0100
0000
1030
0100
0010
0002
,
0000
1000
1000
0000
0103
0020
0000
2030
,
0000
0000
0000
0000
3002
0000
0013
0200
,
0000
0000
0300
2000
0000
3100
0010
0002
,
0000
0000
0010
0000
0010
1000
0000
1000
,
0000
0010
0010
0000
1000
0013
0000
2000
,
0000
0000
0100
0000
0100
0001
0000
3020
,
0000
0100
0230
0000
0002
0300
2003
0000
,
3200
0000
0010
0000
1300
0010
0100
0002
,
0000
1000
1000
0000
0013
0200
0000
2300
,
0000
0000
0000
0000
3002
0000
0103
0020
,
0000
0000
0000
0030
2000
0000
3200
0000
,
1300
0000
0000
0010
0110
0000
0000
0100
,
0000
0101
0000
0001
1001
0000
0000
1000
,
1100
0000
0000
0100
1100
1000
0001
0101
,
0000
0000
0100
0000
0010
0000
0100
0000
0001
0000
1000
0000
0100
0000
1000
0001
,
1000
0100
0010
0001
1000
0010
0100
0001
1000
0100
1000
0001
0100
0010
0100
0001
,
1000
0010
0100
0010
1000
0100
1000
0001
0010
0100
1000
0001
0100
0010
1000
0100
,
1000
0001
0100
0010
1000
0001
0100
0010
1000
0001
0010
0100
1000
0001
0010
0100
1000
0001
0100
0010
1000
0100
0010
0100
,
1000
0000
0000
0000
0000
0000
0000
0000
0001
0000
0000
1000
0001
0000
0020
0000
,
0000
0130
1000
0001
0100
0020
0000
2030
,
0000
3020
0000
0230
0000
0301
0010
0200
,
0000
0300
2000
0000
3010
0200
0000
0302
,
0000
0000
1003
0200
0000
0320
0000
0230
,
0000
0310
0001
1000
0010
0200
0000
0302
,
0000
0203
0000
0320
0000
1030
0100
0020
,
0000
0030
0002
0000
0103
0020
0000
2030
,
0000
3000
0001
0020
0000
0230
0000
2300
,
0000
3020
0230
0302
,
0023
0000
0130
2000
0000
3020
0000
0000
,
0230
0000
0302
0000
2003
0000
3100
0010
,
0000
0100
0010
0002
0000
0103
0010
2000
,
0000
3000
0001
0000
0010
0100
0000
2100
,
0000
0000
0000
0000
3001
0000
0000
0000
0001
0000
0100
0000
0001
0010
0100
1000
,
0002
0000
0000
0023
0000
0000
0230
0000
,
0000
0000
0000
0000
2300
0000
0000
3010
,
0120
0000
0000
2030
0000
0000
3200
0300
,
0110
0000
0010
0001
1000
0000
1100
0000
0100
0000
1000
0000
0001
0000
0100
0000
,
0001
1000
0010
0100
0001
1000
0100
0010
0001
1000
0010
1000
0100
0010
0001
1000
,
0001
0100
0010
0100
0001
1000
0010
0100
0010
1000
0001
1000
0100
0010
0100
1000
0001
0100
0010
0100
0001
1000
0100
0010
,
0001
1000
0100
0010
0001
1000
0010
0100
0001
1000
0100
1000
0010
0100
0001
1000
,
0001
0010
0100
0010
0001
1000
0100
0010
0100
1000
0001
1000
0010
0100
0010
1000
0001
0010
0100
0010
0001
1000
0010
0100
,
0001
0010
0100
1000
0000
0002
0000
0103
,
0010
0100
0001
0020
0000
0030
0100
1000
,
0001
0100
0010
0100
0001
1000
0001
0010
0100
0000
1000
0200
0000
0000
0000
0000
,
0000
0000
0000
0000
0000
0000
0000
0300
0000
0000
0010
0000
0001
0000
0200
0000
,
0000
0300
0010
2000
3000
0001
0010
0100
,
2000
0000
3002
0000
0103
0020
0000
0230
,
0000
0300
0002
0000
0000
0000
0000
0000
,
0003
1000
0100
0010
0001
0010
0100
1000
,
0000
0000
0001
0000
0100
0000
0010
0000
0100
0001
1000
0100
0010
0100
1000
0001
,
0100
0010
0100
0001
1000
0010
1000
0100
0020
0000
0000
0000
0031
0000
2000
0000
,
0000
0000
0000
3020
,
0230
0302
0023
0230
,
2300
3000
1000
0010
0000
1000
0100
0010
,
0002
0003
0001
0010
0000
0100
1000
0001
,
1000
0000
0100
0000
0010
0000
0001
0000
0100
0000
0010
0000
2000
0000
0000
0000
0000
0000
3001
0000
0000
0020
0000
0000
,
0000
0000
0000
0000
0030
0000
0000
0000
0001
1000
0001
1000
0010
0000
0100
0000
,
0000
0000
0000
0000
,
0000
0000
0000
0000
,
0000
0000
0000
0000
,
0000
0000
0000
0000
,
0000
0000
0000
0000
,
0000
0000
0000
0000
,
0000
0000
0000
0000
,
0000
0000
0000
1001
0000
0001
0100
0010
,
0000
1000
0010
1000
,
0001
1000
0100
0010
,
0011
1001
0101
0110
,
1010
0110
0101
1001
,
1000
0100
1000
0001
1000
0010
1000
0001
,
1000
0001
0100
0001
0010
0001
1000
0001
,
1000
1010
0010
0110
0100
0101
0001
1001
,
1000
0000
1100
0000
0100
0000
0010
0000
0100
1000
0001
0100
0010
0000
1000
0000
,
0001
0000
0000
0100
0110
0000
0000
0010
,
0000
1010
0000
1000
1001
0000
0000
0001
,
0011
0000
0000
0010
0110
0100
1000
1001
,
0000
0000
0001
0000
1000
0000
0100
0000
0010
0000
0001
0000
1000
0000
0010
0100
,
0001
0010
0100
1000
0001
0100
0010
1000
0001
0010
0001
1000
0010
0100
0010
1000
,
0001
0100
0010
0100
0001
0010
0001
1000
0100
0010
0001
1000
0010
0100
0001
0010
,
0001
1000
0010
0100
0001
1000
0010
0100
0001
1000
0100
0010
0001
1000
0100
0010
0001
1000
0010
0100
0001
0010
0100
0010
,
0001
0000
0000
0000
0000
0000
0000
0000
1000
0000
0000
0001
1000
0000
0200
0000
,
0000
0310
0001
1000
0010
0200
0000
0302
,
0000
0203
0000
0320
0000
1030
0100
0020
,
0000
0030
0002
0000
0103
0020
0000
2030
,
0000
0000
3001
0020
0000
0230
0000
0320
,
0000
0130
1000
0001
0100
0020
0000
2030
,
0000
3020
0000
0230
0000
0301
0010
0200
,
0000
0300
2000
0000
3010
0200
0000
0302
,
0000
0003
1000
0200
0000
0320
0000
0032
,
0000
0203
0320
2030
,
3200
0000
0310
0002
0000
0203
0000
0000
,
0320
0000
2030
0000
3002
0000
0013
0100
,
0000
0010
0100
2000
0000
3010
0100
0002
,
0000
0003
1000
0000
0100
0010
0000
0012
,
0000
0000
1003
0000
1000
0200
0000
0300
,
2000
0000
0000
3200
0000
0000
0320
0000
,
0000
0000
0000
0000
0032
0000
0000
0103
,
0210
0000
0000
0302
0000
0000
0023
0030
,
0110
0000
0100
1000
0001
0000
0011
0000
0010
0000
0001
0000
1000
0000
0001
0000
,
1000
0001
0100
0010
1000
0001
0010
0100
1000
0001
0100
0001
0010
0100
1000
0001
,
1000
0010
0100
0010
1000
0001
0100
0010
0100
0001
1000
0001
0010
0100
0010
0001
1000
0010
0100
0010
1000
0001
0010
0100
,
1000
0001
0010
0100
1000
0001
0100
0010
1000
0001
0010
0001
0100
0010
1000
0001
,
1000
0100
0010
0100
1000
0001
0010
0100
0010
0001
1000
0001
0100
0010
0100
0001
1000
0100
0010
0100
1000
0001
0100
0010
,
1000
0010
0100
0001
1000
0100
0010
0001
0010
0100
1000
0001
0200
0000
0000
0000
,
0310
0000
1000
0010
1000
0100
0010
0001
1000
0010
1000
0001
0010
0100
1000
0001
,
0100
0000
0000
0110
0000
0000
0101
1001
,
0000
2222
0000
0000
0000
0000
0000
0000
,
0000
0003
0030
0300
3000
0000
0000
0000
0000
0000
0000
0000
0000
0000
0000
0000
;
