#TITLE:Final Destination;
#SUBTITLE:;
#ARTIST:Renard;
#TITLETRANSLIT:;
#SUBTITLETRANSLIT:;
#ARTISTTRANSLIT:;
#CREDIT:;
#BANNER:../bn.png;
#BACKGROUND:../veyron.png;
#LYRICSPATH:;
#CDTITLE:;
#MUSIC:final.ogg.ogg;
#OFFSET:0.000;
#SAMPLESTART:57.452;
#SAMPLELENGTH:17.890;
#SELECTABLE:YES;
#BPMS:0.000=217.000;
#STOPS:;
#BGCHANGES:;
// cache tags:
#FIRSTBEAT:40.000;
#LASTBEAT:373.000;
#SONGFILENAME:Songs/Cirque du Veyron/Zaia - Final Destination/final.sm;
#HASMUSIC:1;
#HASBANNER:1;
#MUSICLENGTH:108.373;
// end cache tags

//---------------dance-single - Zaia----------------
#NOTES:
     dance-single:
     Zaia:
     Challenge:
     16:
     1.000,1.000,0.148,0.111,1.000,855.000,16.000,12.000,0.000,0.000:
0000
0000
0000
0000
,
0000
0000
0000
0000
,
0000
0000
0000
0000
,
0000
0000
0000
0000
,
0000
0000
0000
0000
,
0000
0000
0000
0000
,
0000
0000
0000
0000
,
0000
0000
0000
0000
,
0000
0000
0000
0000
,
0000
0000
0000
0000
,
1100
1001
0101
0110
,
0101
0000
1001
0000
1100
0000
0110
0010
,
0011
0001
0010
0001
1000
0001
0010
0100
,
1000
0010
1000
0000
0001
0100
0001
0000
1000
0001
0010
0000
0100
1000
0001
0000
,
0100
0000
0001
0000
0010
0000
0001
0000
0100
0000
0010
0000
1000
0000
0100
0010
,
0001
0000
1000
0000
0010
0000
0100
0000
0010
0000
1000
0000
0100
0010
0001
1000
,
0001
0101
1001
1001
,
2020
3030
0000
0000
0000
0000
0000
0000
2020
3030
0000
0000
0000
0000
0000
0000
1000
0000
0000
0000
0100
0000
0000
0000
0010
0000
0000
0000
0100
0000
0000
0000
,
1000
0001
0010
0100
0010
0001
1000
0100
1000
0001
0010
0001
1000
0100
0010
0001
,
0100
0010
1000
0001
0100
0010
1000
0010
0100
0001
1000
0010
0100
0010
0100
0001
,
0010
0100
1000
0001
0010
0100
0010
0001
1000
0100
1000
0001
1000
0100
0010
0001
,
0100
0010
1000
0001
0100
0010
1000
0010
0100
0001
1000
0010
1000
0001
0100
0010
,
1000
0100
1000
0001
0010
0100
1000
0001
1000
0100
0010
0001
0010
0001
1000
0100
,
0010
0001
0100
0010
1000
0010
0100
0001
1000
0010
0100
0001
1000
0001
0100
0010
,
1000
0100
0010
0100
1000
0001
0010
0100
0010
0100
1000
0001
0010
0100
1000
0010
,
0100
0001
1000
0010
0100
0001
0100
0010
1000
0001
0100
0010
1000
0001
0100
0010
,
1000
0000
0000
0000
,
0000
0000
0000
0000
,
1000
0001
0010
0002
0000
0103
0010
0200
,
0000
0310
1000
0020
0000
0130
0001
2000
,
0000
3100
0010
0002
0000
0103
0010
2000
,
0000
3001
1000
0002
0000
1003
0100
0010
,
1001
0000
0001
0100
0010
0000
0000
0000
,
2010
0000
3100
0000
,
0010
0000
0100
0010
0001
0000
1000
0010
,
1000
0000
1000
0010
0100
0100
0001
0001
,
1000
0100
0010
0001
1000
0010
0100
0001
1000
0100
0010
0100
1000
0000
0001
0000
,
1000
0100
0010
0000
0100
1000
0001
0000
0100
0010
1000
0000
0010
0000
0100
0000
,
0001
1000
0100
0010
0001
0000
0100
0000
0000
0000
0001
1000
0001
0000
0100
0000
,
0010
0000
1000
0100
0010
0000
0001
0000
0000
0000
0100
0010
1000
0000
0010
0000
,
0100
0001
0010
0100
1000
0010
0100
0001
0100
0010
1000
0001
1000
0000
0001
0000
,
1000
0010
0100
0000
0001
0100
0010
0000
1000
0001
0010
0000
0001
0000
0100
0000
,
0010
1000
0001
1000
0010
0000
0100
0000
0000
0000
0001
0100
0010
0000
1000
0000
,
0100
0000
0010
0001
0100
0000
0010
0000
0000
0000
1000
0100
0010
0000
0001
0000
,
1000
0100
0010
0001
1000
0000
0001
0000
0100
0000
0010
0000
0100
0000
0001
0000
,
1000
0010
0100
0001
1000
0000
0100
0000
0010
0000
0100
0000
1000
0000
0010
0000
,
0100
0001
1000
0001
0100
0000
0010
0000
1000
0000
0001
0000
0010
0000
0100
0000
,
1000
0001
0010
0100
0010
0000
0001
0000
1000
0000
0010
0000
0100
0000
0001
0000
,
1000
0001
0100
0010
1000
0000
0001
0000
0010
0000
0100
0000
1000
0000
0001
0000
,
0100
0010
1000
0001
0010
0000
0100
0000
1000
0000
0010
0000
1000
0000
0100
0000
,
0010
0001
1000
0001
0010
0000
0100
0000
1000
0000
0100
0000
0010
0000
0100
0000
,
1000
0001
0010
0001
1000
0000
0100
0000
1000
0000
0001
0000
0100
0000
0010
0000
,
1000
0001
1000
0010
1000
0001
0100
0001
1000
0100
0010
0100
1000
0001
0010
0001
,
1000
0010
0100
0010
0100
0001
1000
0100
1000
0001
1000
0100
0010
0001
0100
0010
,
1000
0010
0100
0001
0100
0010
1000
0001
0010
0100
0010
0001
1000
0100
1000
0001
,
0100
0010
1000
0001
0100
0010
0100
0010
1000
0001
0100
0001
0100
0010
1000
0001
,
1000
0100
0010
0100
1000
0001
0010
0001
1000
0100
1000
0010
0100
0001
1000
0100
,
1000
0001
1000
0010
0100
0001
1000
0001
0100
0010
1000
0001
0010
0100
0010
0001
,
0100
0010
1000
0001
0010
0001
1000
0010
0100
0010
1000
0001
1000
0001
0010
0100
,
1000
0001
0010
0001
0010
0100
1000
0001
1000
0001
1000
0100
0010
0001
1000
0100
,
1000
0001
1000
0100
1000
0001
0010
0001
1000
0010
0100
0010
1000
0001
0100
0001
,
1000
0100
0010
0100
0010
0001
1000
0010
1000
0001
1000
0010
0100
0001
0010
0100
,
1000
0100
0010
0001
0010
0100
1000
0001
0100
0010
0100
0001
1000
0010
1000
0001
,
0010
0100
1000
0001
0010
0100
0010
0100
1000
0001
0010
0001
0010
0100
1000
0001
,
1000
0010
0100
0010
1000
0001
0100
0001
1000
0010
1000
0100
0010
0001
1000
0010
,
1000
0001
1000
0100
0010
0001
1000
0001
0010
0100
1000
0001
0100
0010
0100
0001
,
0010
0100
1000
0001
0100
0001
1000
0100
0010
0100
1000
0001
1000
0001
0100
0010
,
1000
0001
0100
0001
0100
0010
1000
0001
1000
0001
1000
0010
0100
0001
1000
0010
,
1000
0000
0001
0000
1000
0010
1000
0001
,
0010
0000
0001
0000
0100
0010
0100
0001
,
1000
0000
0100
0000
1000
0100
1000
0010
,
1000
0000
0010
0000
0100
0001
0100
0010
,
1000
0000
0001
0000
0010
0001
1000
0010
,
0100
0000
0001
0000
0010
0100
1000
0001
,
0010
0000
0001
0000
1000
0010
1000
0001
,
1000
0000
0001
0000
0010
0100
0010
0100
,
1000
0001
0010
0100
0010
0001
1000
0010
0100
0010
1000
0001
0010
0001
0010
0100
,
1000
0001
0100
0010
0100
0001
0010
0100
1000
0001
0100
0010
0100
0001
1000
0100
,
1000
0001
0010
0001
0100
0010
1000
0001
0010
0001
1000
0001
0100
0010
1000
0001
,
0010
0100
1000
0100
0010
0001
1000
0010
0100
0001
0100
0010
1000
0001
0010
0100
,
1000
0001
0100
0010
1000
0001
0010
0001
1000
0010
1000
0100
0010
0001
1000
0010
,
0100
0010
0100
0001
1000
0100
0010
0001
0010
0100
1000
0001
0100
0001
0100
0010
,
1000
0001
0010
0100
0010
0001
1000
0100
1000
0001
0100
0001
1000
0010
0100
0001
,
1000
0100
0010
0001
1000
0100
1000
0001
1000
0010
0100
0001
1000
0100
1000
0001
,
0100
0000
0000
0000
,
0000
0000
0000
0000
,
0000
0000
0000
0000
,
0000
0001
0000
0000
0000
0000
0000
0000
0000
0000
0000
0000
0000
0000
0000
0000
0000
0000
0000
0000
0000
0000
0000
0000
0000
0000
0000
0000
0000
0000
0000
0000
0000
0000
0000
0000
0000
0000
0000
0000
0000
0000
0000
0000
0000
0000
0000
0000
0000
0000
0000
0000
0000
0000
0000
0000
0000
0000
0000
0000
0000
0000
0000
0000
0000
0000
0000
1000
0000
0000
0000
0000
0000
0000
0000
0000
0000
0000
0000
0000
0000
0000
0000
0000
0000
0000
0000
0000
0000
0000
0000
0000
0000
0000
0000
0000
0000
0000
0000
0000
0000
0000
0000
0000
0000
0000
0000
0000
0000
0000
0000
0000
0000
0000
0000
0000
0000
0000
0000
0000
0000
0000
0000
0000
0000
0000
0000
0000
0000
0000
0000
0000
0000
0010
0000
0000
0000
0000
0000
0000
0000
0000
0000
0000
0000
0000
0000
0000
0000
0000
0000
0000
0000
0000
0000
0000
0000
0000
0000
0000
0000
0000
0000
0000
0000
0000
0000
0000
0000
0000
0000
0000
0000
0000
0000
0000
0000
0000
0000
0000
0000
0000
0000
0000
0000
0000
0000
0000
0000
0000
0000
0000
,
0000
0000
0000
0000
0000
0000
0000
0100
0000
0000
0000
0000
0000
0000
0000
0000
0000
0000
0000
0000
0000
0000
0000
0000
0000
0000
0000
0000
0000
0000
0000
0000
0000
0000
0000
0000
0000
0000
0000
0000
0000
0000
0001
0000
0000
0000
0000
0000
0000
0000
0000
0000
0000
0000
0000
0000
0000
0100
0000
0000
0000
0000
0000
0000
0000
0000
0000
0000
0000
0000
0000
0000
0000
0000
0000
0001
0000
0000
0000
0000
0000
0000
0000
0000
0000
0000
0000
0000
0000
0000
0000
0000
0000
0000
0000
0000
0000
0000
0000
0000
0000
0000
0000
0000
0000
0000
0000
0000
0000
0000
0000
0000
0000
0000
0000
0000
0000
0000
0000
0000
0000
0000
0000
0000
0000
0000
0000
0000
0000
0000
0000
0000
0000
0000
0000
0000
0000
0000
0000
1000
0000
0000
0000
0000
0000
0000
0000
0000
0000
0000
0000
0000
0000
0000
0000
0000
0000
0000
0000
0000
0000
0000
0000
0000
0000
0000
0000
0000
0000
0000
0000
0000
0000
0000
0000
0000
0000
0000
0000
0000
0000
0000
0000
0000
0000
0000
0000
0000
0000
0000
0000
0000
,
0000
0000
0000
0000
0000
0000
0000
0000
0000
0000
0000
0000
0000
0000
0000
0000
0000
0000
0000
0000
0000
0000
0100
0000
0000
0000
0000
0000
0000
0000
0000
0000
0000
0000
0000
0000
0000
0000
0000
0000
0000
0000
0000
0000
0000
0000
0000
0000
0000
0000
0000
0000
0000
0000
0000
0000
0000
0000
0000
0000
0000
0000
0000
0000
0000
0000
0000
0000
0000
0000
0000
0000
0000
0000
0000
0000
0000
0000
0000
0000
0000
0000
0000
0000
0000
0000
0000
0000
0000
0000
0000
1000
0000
0000
0000
0000
0000
0000
0000
0000
0000
0000
0000
0000
0000
0000
0000
0000
0000
0000
0000
0000
0000
0000
0000
0000
0000
0000
0000
0000
0000
0000
0000
0000
0000
0000
0000
0100
0000
0000
0000
0000
0000
0000
0000
0000
0000
0000
0000
0000
0000
0000
0010
0000
0000
0000
0000
0000
0000
0000
0000
0000
0000
0000
0000
0000
0000
0001
0000
0000
0000
0000
0000
0000
0000
0000
0000
0000
0000
0000
0000
0000
0000
0000
0000
0000
0000
0000
0000
0000
0000
0000
0000
0000
0000
0000
0000
0000
0000
0000
0000
0000
,
0000
0000
0000
0000
0000
0000
0000
0000
0000
0000
0000
0000
0000
0000
0000
0000
0000
0000
0000
0000
0000
0000
0000
0000
0000
0000
0000
0000
0000
0000
0000
0000
0000
0000
0000
0000
0000
0000
0000
0000
0010
0000
0000
0000
0000
0000
0000
0000
0000
0000
0000
0000
0000
0000
0000
0000
0000
0000
0000
0000
0000
0000
0000
0000
0000
0000
0000
0000
0000
0000
0000
0000
0000
0000
0000
0000
0000
0000
0000
0000
0000
0000
0000
0000
0000
0000
0000
0000
0000
0000
0000
0000
0000
0000
0000
0000
0000
0000
0000
0000
0000
0000
0000
0000
0000
0000
0000
0000
0001
0000
0000
0000
0000
0000
0000
0000
0000
0000
0000
0000
0000
0000
0000
0000
0000
0000
0000
0000
0000
0000
0000
0000
0000
0000
0000
0000
0000
0000
0000
0000
0000
0000
0000
0000
0000
0000
0000
0000
0000
0000
0000
0000
0000
0000
0000
0000
0000
0000
0000
0000
0000
0000
0000
0000
0000
0000
0000
0000
0000
0000
0000
0000
0000
0000
0000
0000
0000
0000
0000
0000
0000
0100
0000
0000
0000
0000
0000
0000
0000
0000
0000
0000
,
0000
0000
0000
0000
0000
0000
0000
0000
0000
0000
0000
0000
0000
0000
0000
0000
0000
0000
0000
0000
0000
0000
0000
0000
0000
0000
0000
0000
0000
0000
0000
0000
0000
0000
0000
0000
0000
0000
0000
0000
0000
0000
0000
0000
0000
0000
0000
0000
0000
0000
0000
0000
0000
0000
0000
0000
0000
0000
0000
0000
0000
0000
0000
0000
0000
0000
0000
0000
0000
0000
0010
0000
0000
0000
0000
0000
0000
0000
0000
0000
0000
0000
0000
0000
0000
0000
0000
0000
0000
0000
0000
0000
0000
0000
0000
0000
0000
0000
0000
0000
0000
0000
0000
0000
0000
0000
0000
0000
0000
0000
0000
0000
0000
0000
0000
0000
0000
0000
0000
0000
0000
0000
0000
0000
0000
0000
0000
0000
0000
0000
0000
0000
0000
0000
0000
0000
0000
0000
0000
0000
0000
0000
0000
0000
0000
0000
0000
0000
0000
0000
0000
0000
0000
0000
0000
0000
0000
1000
0000
0000
0000
0000
0000
0000
0000
0000
0000
0000
0000
0000
0000
0000
0000
0000
0000
0000
0000
0000
0000
0000
0000
0000
0000
0000
0000
0000
0000
0000
0000
0000
0000
0000
,
0000
0000
0000
0000
0000
0000
0000
0000
0000
0000
0000
0000
0000
0000
0000
0000
0000
0000
0000
0000
0000
0000
0000
0000
0000
0000
0000
0000
0000
0000
0000
0000
0000
0000
0000
0000
0000
0000
0000
0000
0000
0000
0000
0000
0000
0000
0000
0000
0000
0000
0000
0000
0001
0000
0000
0000
0000
0000
0000
0000
0000
0000
0000
0000
0000
0000
0000
0000
0000
0000
0000
0000
0000
0000
0000
0000
0000
0000
0000
0000
0000
0000
0000
0000
0000
0000
0000
0000
0000
0000
0000
0000
0000
0000
0000
0000
0000
0000
0000
0000
0000
0000
0100
0000
0000
0000
0000
0000
0000
0000
0000
0000
0000
0000
0000
0000
0000
0000
0000
0000
0000
0000
0000
0000
0000
0000
0000
0000
0000
0000
0000
0000
0000
0000
0000
0000
0000
0000
0000
0000
0000
0000
0000
0000
0010
0000
0000
0000
0000
0000
0000
0000
0000
0000
0000
0000
0000
0000
0000
0000
0000
0000
0000
0000
0000
0000
0000
0000
0000
0000
0000
0000
0000
0000
0000
0000
0000
0000
0000
0000
0000
0000
0000
0000
0000
0000
0000
0000
0000
0000
0000
0000
,
1000
0001
0000
0000
;
