#TITLE:Tu Te Las Trae;
#SUBTITLE:;
#ARTIST:Voltio ft. Mucha Gente;
#TITLETRANSLIT:;
#SUBTITLETRANSLIT:;
#ARTISTTRANSLIT:;
#CREDIT:;
#BANNER:banner.JPG;
#BACKGROUND:;
#LYRICSPATH:;
#CDTITLE:!tizaTitle.png;
#MUSIC:5.Tu Te Las Trae (Official Remix).ogg;
#OFFSET:-0.060;
#SAMPLESTART:206.001;
#SAMPLELENGTH:13.480;
#SELECTABLE:YES;
#BPMS:0.000=120.000;
#STOPS:71.000=0.500
,78.250=0.400
,117.750=1.620
,446.000=0.500
,503.500=1.000
;
#BGCHANGES:;
// cache tags:
#FIRSTBEAT:16.500;
#LASTBEAT:579.750;
#SONGFILENAME:Songs/Reggaeton and more/Tu Te Las Trae/tutelastrae.sm;
#HASMUSIC:1;
#HASBANNER:1;
#MUSICLENGTH:295.272;
// end cache tags

//---------------dance-single - ----------------
#NOTES:
     dance-single:
     :
     Challenge:
     11:
     0.698,0.736,0.610,0.095,0.730,1205.000,180.000,28.000,0.000,35.000:

0000
0000
0000
0000
,
0000
0000
0000
0000
,
0000
0000
0000
0000
,
0000
0000
0000
0000
,
0000
1000
0100
0010
0100
1000
1001
0000
,
0000
0001
0100
0010
1000
0100
1001
0000
,
0000
0000
1000
0100
0010
0100
1000
0010
0000
0100
0001
0000
0010
0000
0100
0000
,
0000
0000
0001
0100
0010
1000
0010
0100
0000
0001
0010
0000
0100
0000
1000
0000
,
0000
0000
1001
0000
1000
0010
0100
0001
0100
0010
1000
0000
0100
0000
0010
0000
,
0001
1000
0001
0000
1000
0000
0010
1000
0100
0001
0100
0000
1000
0000
0000
1001
,
0000
0000
0000
0000
1001
0000
1000
0100
0010
0000
0001
0100
0010
0100
0001
0000
,
1000
0100
1000
0000
0010
0100
0010
0000
0100
0001
0100
0000
0001
1000
0000
0000
,
0000
0000
1001
0000
0001
0100
0010
0100
0001
0010
0100
0000
1100
0000
1000
0100
,
0010
0100
1000
0000
1010
0000
1000
0010
0100
0001
0010
0000
0110
0000
0000
1001
,
0000
0000
0000
0000
0110
0000
0010
1000
0100
0000
0100
1000
0010
0100
0001
0000
,
0001
0100
0010
0000
0010
1000
0001
0000
0001
1000
0100
0000
0100
0010
0000
0010
,
0001
0010
0100
1000
0010
0100
0001
0100
0000
0010
1000
0000
1000
0000
1000
0100
,
0000
0010
0001
0010
0100
1000
0010
0100
0000
0100
0010
0000
1000
0100
0010
0001
,
0010
0000
0001
0100
0000
0100
0010
0000
1010
0000
1000
0100
0000
0010
0000
0001
,
1000
0000
0010
0100
0000
0001
0010
0000
0100
1000
0100
1000
0001
1000
0000
0001
,
1000
0100
0001
1000
0010
0001
0010
0100
1000
0010
0100
0010
1000
0100
0000
0010
,
0001
1000
0000
0100
1000
0001
0000
0010
1000
0001
0000
0010
1000
0001
0010
0100
,
1000
0001
0100
0010
0000
1000
0001
0000
1000
0100
0010
0100
1000
0010
0100
0001
,
0100
0010
1000
0001
0010
0100
1000
0100
0010
0001
0000
0011
0000
0110
0000
1100
,
0000
0000
0000
1010
0000
0110
0000
0101
0000
0000
0000
0001
0000
0010
0000
0100
,
0000
1000
0000
0010
0000
0100
0000
0001
0000
0000
0000
0000
0000
0000
0000
0000
,
0000
0000
0000
0000
0000
1001
0000
0000
0000
0000
0000
1000
0100
0010
0001
0010
,
0100
0000
1000
0010
0000
0100
0000
0001
0000
0000
0000
0011
0000
1100
0000
1001
,
0000
0000
0000
1010
0000
0101
0000
0110
0000
0000
0000
0001
0000
1000
0000
0100
,
0000
0010
0000
0100
0000
1000
0000
0010
1000
0000
1000
0000
1000
0000
1000
0000
,
1000
0000
1000
0000
0001
0010
0001
0010
0001
0010
0001
0010
0000
0001
0100
0000
,
0010
1000
0010
0100
0000
0100
0001
0000
0001
0010
0100
1000
0001
0000
1001
0000
,
0000
1000
0100
1000
0010
0000
0100
0000
0101
0000
0000
0000
1101
0000
0000
0000
,
0000
0000
1000
0100
1000
0000
0110
0000
0000
0000
0001
0100
0010
0001
0010
0100
,
0001
0010
0100
1000
0001
1000
0001
0010
0100
0000
1001
0000
0000
0000
1001
0000
,
1000
0010
0100
0001
0010
0100
0010
0000
0001
0000
1000
0000
1001
0000
0000
0000
,
1000
0010
1000
0010
1000
0000
0100
0010
0001
0000
0100
0000
1010
0000
0000
1000
,
0100
0000
0100
0010
0000
0001
0000
0000
1001
0000
0001
0100
0010
0100
0001
0010
,
0100
0010
0001
1000
0001
1000
0001
0010
0100
0010
0100
0010
0002
0000
0000
0000
,
2000
0000
0000
0000
0010
0000
3003
0000
0000
1000
0000
0010
1000
0000
0100
0000
,
0010
0000
0100
0000
1001
0000
0000
0000
0000
0000
1000
0100
0010
0000
0001
0000
,
0100
0000
1000
0000
0100
0000
0000
0000
0000
0000
0001
0010
1000
0000
0001
0000
,
0100
1000
1001
0000
1000
0010
0200
0000
,
0002
0000
0000
0000
1000
0000
0303
0000
0000
0110
0000
0010
1000
0000
0100
0000
,
0010
0000
0001
0000
0110
0000
1001
0000
0000
0110
0000
0000
1001
0000
0110
0000
,
1001
0000
0110
0000
1001
0000
0000
0000
0000
0000
1000
0100
0010
0000
0001
0000
,
0100
0000
0010
0000
1000
0000
0000
0000
0000
0000
1000
0010
1000
0000
1001
0000
,
0001
0100
0001
0010
0001
0100
0001
0000
1001
0000
1000
0010
1000
0100
1000
0000
,
0110
0000
0010
1000
0100
1000
0010
0000
0110
0000
0101
0000
1001
0000
1100
0000
,
0110
0000
0010
0001
0100
0000
0100
0001
1000
0010
0100
0000
0100
0001
0100
0000
,
0010
1000
0010
0000
0100
0010
0100
0000
0100
0001
0000
0000
1001
0000
1000
0010
,
0100
0001
0010
0100
0010
0100
0010
0000
1100
0000
0011
0000
1000
0100
0010
0000
,
0101
0000
1010
0000
1000
0001
1000
0000
1100
0000
1100
0000
0110
0000
0110
0000
,
0011
0000
0011
0010
0001
0000
0001
0100
0010
1000
0001
0000
1000
0100
0010
0000
,
1000
0100
0010
0000
1000
0100
0010
0000
1000
0100
0000
0000
2000
0000
0000
0002
,
0000
3003
1000
0001
0010
0000
0010
0001
0000
0000
0002
0000
0200
0000
0010
0000
,
0303
0000
1000
0000
1100
0000
0100
0010
0001
0000
0011
0000
0002
0000
2000
0000
,
0000
3003
1000
0000
0110
0000
0001
0100
0000
0010
1000
0000
1100
0000
0011
0000
,
0000
0000
0001
0000
0100
0000
0010
1000
0000
0100
0010
0000
1001
0000
0000
0000
,
1000
0010
0100
0000
0000
0000
1001
0000
1000
0010
2000
0000
0200
0000
0001
0000
,
0000
3300
1100
0000
0110
0000
0010
0001
1000
0000
1100
0000
2002
0000
0010
0000
,
3003
0000
1000
0000
0010
0000
0100
0001
0000
0001
0010
0000
1100
0000
1001
0000
,
0000
0000
0101
0000
0010
0000
1000
0100
0000
0100
0010
0000
1001
0000
1000
0010
,
0001
0000
0010
1000
0000
0000
0100
0010
0001
0000
0001
0100
0000
0000
0010
0000
,
1010
0000
1000
0100
0010
0000
0010
0100
1000
0000
0100
0000
0000
0000
0010
0001
,
0100
0000
0101
0000
0000
0000
0101
0100
0001
0000
0010
0100
0000
0000
0000
0000
,
1010
0000
0100
0001
0010
0000
0010
0100
0000
0000
0000
0000
2002
0000
0000
0000
,
0000
0000
0003
3020
0032
2000
3003
1001
,
0000
2000
3200
0302
2000
0010
3003
0000
,
0000
0000
0000
1101
,
0000
1011
0000
0000
1001
0000
1001
0000
,
0000
0000
0000
0000
1000
0010
0100
0010
1000
0100
0000
0010
0001
0000
0000
0000
,
0000
0000
1110
0000
0000
0111
0000
1001
,
0000
0110
0000
0000
0000
0000
1110
0000
,
0010
0000
1011
0000
0000
0000
1011
0000
0010
0000
0000
0000
1000
0100
1000
0100
,
1000
0100
1000
0010
0100
0001
0010
0001
0000
0000
0000
0000
0000
1000
0010
0100
,
0001
0010
0100
0010
0001
1000
0000
0001
0000
0000
0000
1000
0010
0100
0001
0010
,
0100
0010
0001
1000
0100
0010
0100
1000
0010
0100
0010
1000
0100
0010
0001
0010
,
0100
0000
1000
0010
0100
0000
0001
0000
1001
0000
0000
0000
0000
0000
0000
0000
,
1000
0000
1000
0010
0100
0010
0000
1000
0000
0100
0000
0000
1000
0010
0100
0001
,
1000
0100
0010
0001
0010
0000
0100
1000
0001
1000
0001
0000
1000
0001
0100
0010
,
0100
0001
0010
0100
1000
0100
0010
0001
0000
0000
1000
0100
0001
0100
1000
0010
,
0100
0001
0010
0100
1000
0000
0001
0000
1001
0000
0000
0000
0000
0000
1000
0100
,
0010
0001
0010
0100
1000
0000
0001
0000
1000
0000
0000
0000
0000
0000
1000
0010
,
0100
0001
0010
0100
1000
0000
0001
0000
1001
0000
0000
0000
0000
1000
0010
0100
,
0001
0010
0100
1000
0100
0000
0010
0000
0011
0000
0000
0000
1000
0100
1000
0010
,
0100
0001
0010
0001
0100
0000
0010
0000
1010
0000
1001
0001
0100
0010
0100
0001
,
0010
0100
1000
0100
0010
0001
0100
0010
1000
0100
0000
0100
1000
0000
0001
0100
,
0010
0000
1000
0000
0100
0000
0010
0000
0001
0000
1000
0100
0010
0001
1000
0100
,
0010
0001
0010
0100
0000
1000
0010
0000
0101
0000
0000
0000
1001
0000
0000
0000
,
0000
0000
0000
0000
0000
0000
0000
0000
1100
1000
0000
0100
1100
0000
0100
0000
,
0010
0001
0000
0100
0000
0010
1000
0000
1001
0000
0000
0000
0000
0000
1000
0100
,
0001
0000
1000
0010
0001
0000
0001
1000
0000
0000
1001
0000
1000
0010
0100
0000
,
0001
0100
0010
0100
0001
0010
0000
1001
0000
0000
0000
0000
1001
0000
0000
0000
,
0000
0000
1000
0010
0100
0000
0100
0001
0000
0000
0000
0000
1001
0000
0000
0000
,
0000
0000
0000
1100
0000
1000
0010
0000
0100
0001
0000
0000
1000
0010
0100
0001
,
0100
0010
1000
0000
0001
0010
0100
1000
0100
0010
0000
0000
1001
0000
0001
0010
,
0100
0000
1000
0010
0000
0100
0001
0000
0001
1000
0000
0000
1100
0000
1000
0100
,
0001
0000
1000
0010
0000
0001
1000
0000
0010
0100
0000
0000
1100
0000
1000
0100
,
0010
0000
0001
0100
0000
0010
1000
0000
0100
0010
0000
0000
0101
0000
0001
0100
,
0010
0000
1000
0100
0000
0010
0001
0000
1000
0001
0000
0000
0110
0000
1000
0001
,
1000
0000
0001
1000
0000
1000
0001
0000
0010
0100
0000
0000
0000
0000
1000
0000
,
0100
0001
0100
1000
0010
0001
0110
0000
,
1001
1000
0100
0001
1000
0010
0000
0001
,
0000
0000
0000
0000
1100
0011
0000
0101
,
0000
1010
0000
1001
0000
0110
0000
1001
,
1000
0010
0100
0001
0101
1000
1100
0000
,
0011
0110
1100
1001
0101
1001
0000
0110
,
0000
0000
0000
0000
2000
0200
0000
0010
,
0000
0300
0002
0000
0000
0000
0010
0000
0000
0000
0100
0000
3003
0000
1001
0000
,
0110
0000
1000
0100
0010
0100
1000
0000
0101
0000
0001
0100
0010
0100
0001
0000
,
1001
0000
1000
0010
0000
0100
0001
0000
1001
0000
1000
0000
0100
1000
0010
0100
,
0000
0001
0100
0000
1010
0000
1000
0100
0000
0010
0001
1000
0001
0100
0010
1000
,
0000
1000
0001
0000
1000
0100
0010
0001
1000
0000
0001
0000
1000
0100
0010
0100
,
1000
0001
0100
0010
0100
0001
0010
0100
0010
0001
1000
0000
1001
0000
0001
0100
,
0000
0010
1000
0100
0010
0000
0000
0000
0000
0000
1001
0000
1000
0010
0100
0001
,
1000
0100
0010
0000
0001
0000
0000
0000
0000
0000
1100
0000
1000
0010
0100
0001
,
0010
0100
0010
0000
1001
0000
0000
0000
0000
0000
1000
0000
0010
0100
0001
0100
,
0010
1000
0100
0000
0110
0000
0011
0000
0001
0100
0010
0000
1000
0000
0100
0000
,
1000
0001
1000
0000
1010
0000
0110
0000
0101
0000
1001
0000
1100
0000
1000
0010
,
0100
0000
0100
0010
1000
0100
0010
0000
0001
0100
0001
0000
0100
0001
0100
0000
,
0001
1000
0001
0000
1000
0001
0000
0000
2000
0000
0000
0002
0000
0000
0010
0000
,
3003
1111
0000
1110
,
0000
1101
0000
1011
,
0000
1111
0000
0111
,
0000
0000
1001
0000
1000
0100
0010
0001
,
1000
0000
0001
0000
0000
1000
0000
0000
0100
0000
0010
0000
0000
0000
0000
0000
0000
0000
0000
0000
0000
0000
0000
0000
,
1111
1111
0000
1110
,
0000
0111
0000
1011
,
0000
1101
0000
1110
,
0000
0111
0000
1011
,
0000
1101
0000
1111
,
0000
0000
0000
0000
0000
0000
0000
0000
1100
0000
0010
0000
0001
0100
0001
0000
,
1001
0000
1000
0100
1000
0000
0001
0100
0001
0000
0100
0001
0100
0000
0010
1000
,
0010
0000
1000
0100
0010
0000
0001
0100
0010
0000
0010
0100
0001
0000
0010
0100
,
1000
0000
1000
0010
0001
0000
0001
0010
1000
0000
1000
0100
0001
0000
0001
0100
,
1000
0000
1000
0010
0100
0000
0001
0010
0100
1000
0100
0010
0100
1000
0010
0100
,
0010
0000
0000
0000
0000
0000
1100
0010
0101
1001
0000
0000
,
0000
0000
1000
0000
0010
0000
0000
0000
0100
0000
0000
0001
0000
0000
0010
0000
,
0000
0000
0100
0000
1000
0000
0000
0000
1001
0000
0000
0001
0000
0000
1000
0000
,
0000
0000
0010
0000
0100
0000
0000
0000
1000
0100
0010
0001
0010
0100
1000
0001
,
0000
0000
0000
1001
,
0000
0000
1000
0000
0010
0000
0000
0000
0100
0000
0000
0001
0000
0000
1000
0100
,
0010
0000
0001
0000
1001
0000
0000
0000
1100
0000
0000
0010
0000
0000
0001
0100
,
0010
0000
1001
0000
0100
0000
0000
0000
1000
0010
0100
0001
1000
0100
1000
0010
;
