#TITLE:When Demons Awake;
#SUBTITLE:;
#ARTIST:Rhapsody;
#TITLETRANSLIT:;
#SUBTITLETRANSLIT:;
#ARTISTTRANSLIT:;
#CREDIT:;
#BANNER:demons-BN.jpg;
#BACKGROUND:demons-BG.jpg;
#LYRICSPATH:;
#CDTITLE:metzger-cdtitle.png;
#MUSIC:rhapsody - When Demons Awake.mp3;
#OFFSET:-0.495;
#SAMPLESTART:142.400;
#SAMPLELENGTH:22.000;
#SELECTABLE:YES;
#BPMS:0.000=150.000,92.000=180.000,344.000=178.800,408.000=180.000;
#STOPS:;
#BGCHANGES:;
// cache tags:
#FIRSTBEAT:0.000;
#LASTBEAT:719.000;
#SONGFILENAME:Songs/Hard Songs Megapack Volume 9/When Demons Awake/rhapsody - When Demons Awake.sm;
#HASMUSIC:1;
#HASBANNER:1;
#MUSICLENGTH:254.257;
// end cache tags

//---------------dance-single - Blank----------------
#NOTES:
     dance-single:
     Blank:
     Challenge:
     14:
     1.000,1.000,1.000,0.936,1.000,1992.000,559.000,238.000,120.000,314.000:
0200
0302
0023
2030
3200
0302
0023
2030
,
3200
0302
0023
2030
3200
0302
0023
2030
,
3200
0302
0023
2030
3200
0302
0023
2030
,
3200
0302
0023
2030
3200
0302
0023
2030
,
3200
0302
0023
2030
3200
0302
0023
2030
,
3200
0000
0302
0000
0023
0000
2030
0000
3200
0000
0302
0003
2221
0000
0000
0330
,
0122
0000
0000
0000
0M00
0000
0000
3030
M220
0000
0000
0000
M000
0000
0000
0033
,
20M2
0000
0000
0000
00M0
0000
0000
0303
022M
0000
0000
0000
0001
0000
0000
3300
,
1202
0000
0000
0000
M000
0000
0000
0330
2M20
0000
0000
0000
0M00
0000
0000
0033
,
02M2
0000
0000
0000
00M0
0000
0000
3003
202M
0000
0000
0000
0001
0000
0000
3330
,
2212
0000
0000
0000
00M0
0000
0000
3003
M022
0000
0000
0000
M000
0000
0000
0330
,
2M20
0000
0000
0000
0M00
0000
0000
0033
022M
0000
0000
0000
0001
0000
0000
3300
,
1202
0000
0000
0000
M000
0000
0000
0330
22M0
0000
0000
0000
00M0
0000
0000
0300
,
0220
0000
0000
0000
0000
0000
0000
0000
0000
0000
0000
3333
2221
0000
0000
0330
,
0122
0000
0000
0000
0M00
0000
0000
3030
M220
0000
0000
0000
M000
0000
0000
0033
,
20M2
0000
0000
0000
00M0
0000
0000
0303
022M
0000
0000
0000
0001
0000
0000
3300
,
1202
0000
0000
0000
M000
0000
0000
0330
2M20
0000
0000
0000
0M00
0000
0000
0033
,
02M2
0000
0000
0000
00M0
0000
0000
3003
202M
0000
0000
0000
0001
0000
0000
3330
,
2212
0000
0000
0000
00M0
0000
0000
3003
M022
0000
0000
0000
M000
0000
0000
0330
,
2M20
0000
0000
0000
0M00
0000
0000
0033
022M
0000
0000
0000
0001
0000
0000
3300
,
1202
0000
0000
0000
M000
0000
0000
0330
22M0
0000
0000
0000
00M0
0000
0000
0300
,
0220
0000
0000
0000
,
0000
0000
0000
0000
0000
0000
0000
3333
1100
0011
0100
0010
1100
0011
1100
0011
,
1100
1000
1000
1000
1000
1000
1000
1000
1000
1000
1000
1000
1000
1000
1000
1000
,
1111
0010
0010
0010
0010
0010
0010
0010
0010
0010
0010
0010
0010
0010
0010
0010
,
1111
0000
0001
0000
0001
0000
0001
0000
0001
0000
0001
0000
0001
0000
0001
0000
0001
0000
0001
0000
0001
0010
0001
0000
0001
0000
0001
0000
0001
0000
0001
0000
,
1221
0001
0001
0001
0001
0001
0001
0331
2201
0001
0001
0001
0001
0001
0001
3301
,
2021
0001
0001
0001
0001
0001
0001
3031
0221
0001
0001
0001
0001
0001
0001
0331
,
1111
0100
0100
0100
0100
0100
0100
0100
0100
0100
0100
0100
0100
0100
0100
0100
,
1111
0010
0010
0010
0010
0010
0010
0010
0010
0010
0010
0010
0010
0010
0010
0010
,
1111
0000
1000
0000
1000
0000
1000
0000
1000
0000
1000
0000
1000
0000
1000
0000
1000
0000
1000
0000
1000
0100
1000
0000
1000
0000
1000
0000
1000
0000
1000
0000
,
1122
1000
1000
1000
1000
1000
1000
1033
1202
1000
1000
1000
1000
1000
1000
1303
,
1022
1000
1000
1000
1000
1000
1000
1033
1220
1000
1000
1000
1000
1000
1000
1330
,
1101
0010
0101
1000
0100
0010
0101
1000
0100
0010
1001
0100
0010
0001
1100
0001
,
0100
0001
1010
0100
0001
0010
0101
1000
0100
0010
0101
1000
0100
0010
1001
0100
,
0011
0110
1100
0011
0110
1100
0011
0110
1100
0110
0011
1100
0110
0011
1100
0110
,
2111
0000
0100
0000
0100
0000
0100
3000
1210
0000
0010
0000
0010
0000
0010
0300
,
0121
0000
0001
0000
0001
0000
0001
0030
1102
0000
1000
0000
1000
0000
1000
0003
,
1011
0100
1010
0001
0010
0100
1001
0100
0010
0001
0110
1000
0100
0010
0101
0010
,
0001
0010
1100
0010
0001
1000
0101
1000
0100
0010
1001
0100
0010
0001
1010
0100
,
0011
0110
1100
0110
0011
0110
1100
0110
0011
0110
1100
0110
0011
0110
1001
0110
,
2111
0000
0100
0000
0100
0000
0100
3000
1210
0000
0010
0000
0010
0000
0010
0300
,
0121
0000
0001
0000
0001
0000
0001
0030
1102
0000
1000
0000
1000
0000
1000
0003
,
2101
0000
0100
0000
0100
0000
0100
3000
1210
0000
0010
0000
0010
0000
0010
0300
,
0121
0000
0001
0000
0001
0000
0001
0030
1102
0000
1000
0000
1000
0000
1000
0003
,
1101
1011
1110
0111
,
1101
0111
1011
1111
,
1001
0010
0100
1000
0001
0010
0100
0010
1001
0100
0010
0001
1000
0100
0010
0100
,
1001
0100
0010
0100
0010
0100
0010
0100
2222
0000
0000
0000
0000
0000
0000
0000
,
0000
0000
0000
0000
0000
0000
0000
3333
1011
0100
1010
0001
0010
0100
1010
0001
,
0010
0100
1010
0001
0010
0100
1010
0100
0010
0001
0110
1000
0100
0010
1001
0100
,
0010
0001
1100
0010
0001
1000
0110
0001
1000
0100
0011
1000
0100
0010
1001
0010
,
0100
1000
0011
0100
1000
0001
0110
1000
0101
0010
0100
0010
0001
1000
0101
0010
,
0100
1000
0100
0010
1001
0100
0010
0001
0110
1000
0101
0010
0100
1000
0101
0010
,
0100
1000
0101
0010
0100
1000
0101
0010
0100
1000
0101
0010
1000
0100
0011
1000
,
0100
0010
1001
0010
0100
1000
0011
0100
1000
0001
0110
1000
0100
0001
1010
0100
,
0010
0001
1100
0010
0001
1000
0110
0001
1010
0100
0010
0001
1000
0100
0011
0100
,
1000
0001
0010
0100
1001
0010
0100
1000
0011
0100
1010
0001
0010
0100
1010
0001
,
0010
0100
1010
0100
0001
1000
0110
0001
0010
0100
1010
0100
0010
0001
0110
1000
,
0001
0010
1100
0010
0001
1000
0110
0001
0010
1000
0110
0001
0100
1000
0110
0001
,
1000
0100
0011
0100
1000
0001
0110
1000
0101
0010
1000
0100
0010
0001
1100
0010
,
0001
0100
1000
0100
1010
0001
0010
0100
1001
0100
0011
0100
1000
0100
0011
0100
,
1000
0100
0011
0100
1000
0100
0011
1000
0100
0010
1001
0010
0100
1000
0101
0010
,
0100
1000
0110
0001
1000
0100
1010
0001
0010
0100
1001
0100
0010
0001
1100
0010
,
0001
1000
0110
0001
1000
0100
0011
0100
1010
0001
0010
0100
0010
0001
1100
0010
,
0101
1000
0100
0010
1001
0100
0011
0100
1001
0010
0100
1000
0001
0010
1100
0010
,
0101
0010
1000
0100
0011
0100
1000
0001
0010
0100
1000
0001
0010
0100
1000
0001
,
0010
0100
0001
0010
0100
1000
0010
0100
1000
0001
0010
0100
1000
0010
0100
1000
,
0022
0000
0000
0000
0000
0000
0000
0000
0000
0000
0000
0000
0000
0000
0000
0033
,
1100
0001
1010
0001
0010
0100
1010
0001
0010
0100
1010
0001
0010
0100
1010
0100
,
0010
0001
0110
1000
0100
0010
1001
0100
0010
0001
1100
0010
0001
1000
0110
0001
,
1000
0100
0011
1000
0100
0010
1001
0010
0100
1000
0011
0100
1000
0001
0110
1000
,
0101
0010
0100
0010
0001
1000
0101
0010
0100
1000
0100
0010
1001
0100
0010
0001
,
0110
1000
0101
0010
0100
1000
0101
0010
0100
1000
0101
0010
0100
1000
0101
0010
,
0100
1000
0101
0010
1000
0100
0011
1000
0100
0010
1001
0010
0100
1000
0011
0100
,
1000
0001
0110
1000
0100
0001
1010
0100
0010
0001
1100
0010
0001
1000
0110
0001
,
1010
0100
0010
0001
1000
0100
0011
0100
1000
0001
0010
0100
1001
0010
0100
1000
,
0011
0100
1010
0001
0010
0100
1010
0001
0010
0100
1010
0100
0001
1000
0110
0001
,
0010
0100
1010
0100
0010
0001
0110
1000
0001
0010
1100
0010
0001
1000
0110
0001
,
0010
1000
0110
0001
0100
1000
0110
0001
1000
0100
0011
0100
1000
0001
0110
1000
,
0101
0010
1000
0100
0010
0001
1100
0010
0001
0100
1000
0100
1010
0001
0010
0100
,
1001
0100
0011
0100
1000
0100
0011
0100
1000
0100
0011
0100
1000
0100
0011
1000
,
0100
0010
1001
0010
0100
1000
0101
0010
0100
1000
0110
0001
1000
0100
1010
0001
,
0010
0100
1001
0100
0010
0001
1100
0010
0001
1000
0110
0001
1000
0100
0011
0100
,
1010
0001
0010
0100
0010
0001
1100
0010
0001
1000
0100
0010
1001
0100
0010
0100
,
1001
0010
0100
1000
0001
0010
1100
0010
0001
0010
1000
0010
0101
0010
1001
0100
,
2M22
0000
0000
0000
0M00
0000
0000
0000
0M00
0000
0000
0003
0M02
0000
0000
0000
,
0203
0000
0000
0000
000M
3330
0000
0000
222M
0000
0000
0000
000M
0000
0000
0000
,
0002
3000
M000
0000
M000
0330
2MM0
0000
,
02M0
0000
00M0
0000
00M0
0000
00M0
3303
,
22M2
0000
0000
0000
00M0
0000
0000
0000
00M0
0300
0000
0000
0M20
0000
0000
0000
,
0233
0000
0000
0000
000M
0000
0000
0000
00M2
0000
0000
0000
00M0
0000
0000
3000
,
1020
0000
0000
0000
M000
0000
0000
0300
2M00
0000
0000
0000
0M00
0000
0000
0003
,
020M
000M
000M
333M
,
2212
0000
0000
0000
00M0
0000
0000
0000
00M0
0000
0000
3303
22M2
0000
0000
0000
,
3020
0000
0000
0000
M000
0000
0000
0000
2300
0000
0000
0000
0M00
0000
0000
0003
,
0201
0000
0000
0000
000M
0000
0000
3000
200M
0000
0000
0000
000M
0000
0000
0000
,
0032
0000
0000
0000
00M0
0000
0000
0003
002M
0000
0000
0000
000M
0000
0000
3330
,
2222
0000
0000
0000
0000
0000
0000
0000
0000
0000
0000
3333
2222
0000
0000
3333
,
2222
0000
0000
0000
0000
3333
2222
0000
0000
0000
3333
2222
0000
0000
0000
3333
,
2222
0000
0000
0000
0000
0000
0000
0000
0000
0000
0000
0000
0000
0000
0000
0330
,
0220
0000
0000
0000
0000
0000
3003
0330
,
1001
0100
0010
0001
1100
0010
0001
1000
0100
0010
0001
1000
0110
0001
1000
0100
,
0010
0001
0010
0100
1001
0010
0100
1000
0001
0010
0100
1000
0011
0100
1000
0001
,
0010
0100
0010
0001
1100
0010
0001
1000
0100
0001
0010
0100
1001
0100
0010
0001
,
1000
0100
0010
0001
1100
0010
0001
0010
0100
1000
0100
0010
1001
0100
0010
0001
,
1010
0001
0010
0100
1001
0100
0010
0001
1000
0100
0010
0001
1010
0100
0010
0001
,
1000
0100
0010
0001
1010
0100
0010
0001
0010
0100
0010
0001
1100
0010
0001
1000
,
0100
0010
0001
1000
0110
0001
1000
0100
0010
0001
0010
0100
1001
0010
0100
1000
,
0001
0010
0100
1000
0011
0100
1000
0001
0010
0100
0010
0001
1100
0010
0001
1000
,
0110
0001
0010
0100
1001
0100
0010
0001
1000
0100
0010
0001
1100
0010
0001
0010
,
0100
1000
0100
0010
1100
0010
0001
1000
0100
0010
0001
1000
0110
0001
1000
0100
,
0010
0001
0010
0100
1001
0010
0100
1000
0001
0010
0100
1000
0011
0100
1000
0001
,
0010
0100
0010
0001
1100
0010
0001
1000
0100
0001
0010
0100
1001
0100
0010
0001
,
1010
0100
0010
0001
1100
0010
0001
0010
0100
1000
0100
0010
1100
0010
0001
1000
,
0100
0010
0001
1000
0110
0001
1000
0100
0010
0001
0010
0100
1001
0010
0100
1000
,
0101
0010
0100
1000
0011
0100
1000
0001
0010
0100
0010
0001
1100
0010
0001
1000
,
0011
1100
0011
1100
0011
1100
0011
0000
1100
0011
1100
0011
1100
0011
1100
0011
,
1100
1000
1000
1000
1000
1000
1000
1000
1000
1000
1000
1000
1000
1000
1000
1000
,
1111
0010
0010
0010
0010
0010
0010
0010
0010
0010
0010
0010
0010
0010
0010
0010
,
1111
0000
0001
0000
0001
0000
0001
0000
0001
0000
0001
0000
0001
0000
0001
0000
0001
0000
0001
0000
0001
0010
0001
0000
0001
0000
0001
0000
0001
0000
0001
0000
,
1221
0001
0001
0001
0001
0001
0001
0331
2201
0001
0001
0001
0001
0001
0001
3301
,
2021
0001
0001
0001
0001
0001
0001
3031
0221
0001
0001
0001
0001
0001
0001
0331
,
1111
0100
0100
0100
0100
0100
0100
0100
0100
0100
0100
0100
0100
0100
0100
0100
,
1111
0010
0010
0010
0010
0010
0010
0010
0010
0010
0010
0010
0010
0010
0010
0010
,
1111
0000
1000
0000
1000
0000
1000
0000
1000
0000
1000
0000
1000
0000
1000
0000
1000
0000
1000
0000
1000
0100
1000
0000
1000
0000
1000
0000
1000
0000
1000
0000
,
1221
1000
1000
1000
1000
1000
1000
1330
1202
1000
1000
1000
1000
1000
1000
1303
,
1022
1000
1000
1000
1000
1000
1000
1033
1220
1000
1000
1000
1000
1000
1000
1330
,
1101
0010
0101
1000
0100
0010
0101
1000
0100
0010
1001
0100
0010
0001
1100
0001
,
0100
0001
1010
0100
0001
0010
0101
1000
0100
0010
0101
1000
0100
0010
1001
0100
,
0011
0110
1100
0011
0110
1100
0011
0110
1100
0110
0011
1100
0110
0011
1100
0110
,
2111
0000
0100
0000
0100
0000
0100
3000
1210
0000
0010
0000
0010
0000
0010
0300
,
0121
0000
0001
0000
0001
0000
0001
0030
1102
0000
1000
0000
1000
0000
1000
0003
,
1011
0100
1010
0001
0010
0100
1001
0100
0010
0001
0110
1000
0100
0010
0101
0010
,
0001
0010
1100
0010
0001
1000
0101
1000
0100
0010
1001
0100
0010
0001
1010
0100
,
0011
0110
1100
0110
0011
0110
1100
0110
0011
0110
1100
0110
0011
0110
1001
0110
,
2111
0000
0100
0000
0100
0000
0100
3000
1210
0000
0010
0000
0010
0000
0010
0300
,
0121
0000
0001
0000
0001
0000
0001
0030
1102
0000
1000
0000
1000
0000
1000
0003
,
2111
0000
0100
0000
0100
0000
0100
3000
1210
0000
0010
0000
0010
0000
0010
0300
,
0121
0000
0001
0000
0001
0000
0001
0030
1102
0000
1000
0000
1000
0000
1000
0003
,
1101
1011
1110
0111
,
1101
0111
1011
1111
,
1001
0010
0100
1000
0001
0010
0100
0010
1001
0100
0010
0001
1000
0100
0010
0100
,
1001
0100
0010
0100
0010
0001
0010
0100
1022
0100
1000
0100
1000
0100
1000
0100
,
1000
0100
2000
0000
0030
0000
0000
3000
1010
0113
1010
0100
0010
0100
1001
0100
,
0010
0100
1001
0100
0010
0100
1001
0100
0011
1100
0011
0100
0010
0001
1100
0010
,
0001
0010
0101
0010
1100
0010
1100
0010
0101
1010
0101
1000
0011
1100
0011
1100
,
0011
1100
0011
1100
0011
1100
0011
1100
0011
0100
1010
0100
0011
1000
0110
0001
,
1010
0001
0110
1000
0011
1000
0110
0001
1010
0100
0011
0100
1010
0100
0011
0100
,
0001
0010
1100
0010
0001
0010
0101
1000
0110
1001
0110
0001
0100
1000
0101
0010
,
0100
1000
0101
0010
0100
1000
0110
0001
1100
0011
1100
0010
0101
1010
0101
1010
,
0101
1010
0101
1010
0101
1010
0101
1010
0101
0010
1100
0010
0101
0010
1100
0010
,
0101
0010
1001
0100
0011
1100
0011
1100
0011
0100
0001
0010
0101
1000
0001
0010
,
0100
0010
1000
0100
0011
0100
1000
0010
0100
0010
0001
1000
0101
0010
0001
0010
,
0100
0010
0001
0010
0101
1000
0001
0010
0100
1000
0100
0010
1100
0010
0001
0010
,
0100
0010
0001
0010
1100
0010
1000
0100
0001
0010
0100
1000
0101
0010
0100
0010
,
1000
0100
0010
0100
1001
0010
1000
0100
1011
0100
0001
0010
0101
1000
0001
0010
,
0100
0010
0001
0100
1010
0100
1000
0010
0100
0010
0001
1000
0101
0010
0001
0010
,
0100
0010
0001
1000
0110
1000
0001
0010
0100
1000
0100
0010
0101
1000
0001
0010
,
0100
0010
0001
0010
1100
0010
0001
0010
0100
0000
1000
0000
0001
0000
0010
0000
,
0100
0010
0001
1000
0112
0000
0000
0000
,
1100
0000
1110
0000
,
1013
0000
0011
0000
,
1100
0000
0100
0100
,
0110
0000
1011
0000
,
1101
0000
1110
0000
,
0111
0000
1011
0000
,
1101
0000
1110
0100
,
1101
0000
0100
0010
11M1
0001
1M11
0001
,
0001
0001
M111
0001
1M11
0001
M111
0001
,
0001
0001
0001
0001
11M1
0001
M111
0001
,
0001
0001
M111
0001
11M1
M111
1M11
0001
,
0001
0001
0001
0001
M111
11M1
M111
0001
,
0001
0001
1M11
0001
11M1
0001
M111
0001
,
0001
0001
0001
0001
11M1
0001
1M11
0001
,
0001
0001
M111
0001
11M1
M111
1M11
0001
,
11M1
M111
1M11
0001
M111
0001
11M1
0001
,
0001
0001
M111
0001
1M11
0001
11M1
0001
,
0001
0001
0001
0001
11M1
0001
1M11
0001
,
0001
1M11
M111
0001
11M1
M111
11M1
0000
;
