#TITLE:Sepia;
#SUBTITLE:;
#ARTIST:Shiki/-45;
#TITLETRANSLIT:;
#SUBTITLETRANSLIT:;
#ARTISTTRANSLIT:;
#CREDIT:;
#BANNER:sepia-bn.PNG;
#BACKGROUND:sepia-bg.png;
#LYRICSPATH:;
#CDTITLE:!clueless-cdtitle.png;
#MUSIC:shiki-sepia.mp3;
#OFFSET:-0.310;
#SAMPLESTART:49.880;
#SAMPLELENGTH:12.000;
#SELECTABLE:YES;
#BPMS:0.000=142.000,122.000=142.000;
#STOPS:;
#BGCHANGES:;
// cache tags:
#FIRSTBEAT:0.500;
#LASTBEAT:293.000;
#SONGFILENAME:Songs/Keys of Flames/Sepia (cluelessmorgan)/sepia.sm;
#HASMUSIC:1;
#HASBANNER:1;
#MUSICLENGTH:135.061;
// end cache tags

//---------------dance-single - ----------------
#NOTES:
     dance-single:
     :
     Hard:
     10:
     0.780,0.895,0.681,0.000,0.774,645.000,92.000,0.000,0.000,0.000:  // measure 1
0000
0000
0010
0100
1000
0000
0100
0000
0010
0000
0001
0000
0000
0000
0000
0000
,  // measure 2
0100
0000
1010
0100
0010
0001
0000
1000
,  // measure 3
0000
0010
1100
0100
0011
0001
0000
0000
,  // measure 4
0000
1010
0000
0101
,  // measure 5
0000
0000
0100
0010
0001
0000
0010
0000
0100
0000
1000
0000
0000
0000
0000
0000
,  // measure 6
0010
0000
0101
0010
0100
1000
0000
0001
,  // measure 7
0000
0100
0011
0010
0100
1000
0000
0000
,  // measure 8
0000
0000
0000
0000
,  // measure 9
0000
0000
0000
0000
,  // measure 10
0000
0000
0010
0100
1000
0000
0001
0000
1010
0000
0100
0000
0001
0000
1000
0000
,  // measure 11
0101
0000
1000
0000
0110
0000
0001
0000
1100
0000
0001
0000
0110
1000
0101
1000
,  // measure 12
0011
1100
1001
0100
1010
0001
1000
0010
,  // measure 13
0101
0000
1000
0100
0010
0000
0001
0000
1100
0000
1000
0100
0010
0000
1000
0000
,  // measure 14
0011
0000
0100
0010
0001
0000
0100
0000
1010
0000
0100
0000
0001
0000
1000
0000
,  // measure 15
0101
0000
0010
0000
1100
0000
1000
0000
0011
0000
1000
0000
0110
1000
0101
0010
,  // measure 16
1100
1001
0110
0001
1010
0100
0001
1000
,  // measure 17
0101
0000
1000
0000
0100
0000
0010
0000
1100
0000
0001
0000
0110
1000
0100
1000
,  // measure 18
0011
0000
0010
0100
1000
0000
0001
0000
1010
0000
0100
0000
0001
0000
1000
0000
,  // measure 19
0101
0000
1000
0000
0110
0000
0001
0000
1100
0000
0001
0000
1010
0100
1001
0100
,  // measure 20
0011
1100
1001
0100
1010
0001
1000
0010
,  // measure 21
0101
0000
1000
0100
0010
0000
0001
0000
1100
0000
1000
0100
0010
0000
0001
0000
,  // measure 22
0011
0000
0100
0010
0001
0000
0100
0000
1010
0000
0001
0000
1000
0000
0010
0000
,  // measure 23
0101
0000
1000
0000
0110
0000
0001
0000
1100
0000
0001
0000
1010
0100
1001
0100
,  // measure 24
0011
1010
1001
0100
1010
0001
0100
0010
,  // measure 25
0101
0000
0000
0000
0000
0000
1000
0000
0000
0000
0000
0000
0110
0000
0000
0000
0000
0000
1000
0000
0000
0001
0000
0000
1000
0000
0000
0001
0000
0000
1000
0000
0000
0001
0000
0000
1000
0000
0001
0000
1000
0000
0001
0000
0000
1000
0000
0000
,  // measure 26
0001
0000
1000
0000
0001
0000
0010
0000
0000
0100
0000
0000
1000
0000
0000
0000
0000
0000
0000
0000
0000
0000
0000
0000
0000
0000
0000
0000
0000
0000
0000
0000
0000
0000
0000
0000
0000
0000
0000
0000
0000
0000
0000
0000
0000
0000
0000
0000
,  // measure 27
0010
0000
0100
0000
0000
0000
0000
0001
,  // measure 28
0000
1000
0100
0000
0010
0000
0000
0000
,  // measure 29
0000
0000
0000
0000
,  // measure 30
0000
0000
0010
0100
1000
0000
0000
0000
0000
0000
0000
0000
0000
0000
0000
0000
,  // measure 31
0010
0000
0100
0000
0000
0000
0000
1000
,  // measure 32
0000
0100
0010
0000
0001
0000
0000
0000
,  // measure 33
0000
0000
0000
0000
,  // measure 34
0000
0000
0000
0000
1000
0100
0010
0000
0001
1000
0000
1000
0010
0000
0010
0100
,  // measure 35
0000
0100
0001
0000
1000
0100
0010
0000
0001
1000
0000
0010
0000
0000
0100
0000
,  // measure 36
0000
0001
0000
0000
1000
0100
0010
0000
0001
1000
0000
1000
0010
0000
0010
0100
,  // measure 37
0000
0100
0001
0000
1000
0100
0010
0000
0001
0000
1000
0010
0000
0100
0001
0000
,  // measure 38
0110
1000
0001
0000
0100
0010
0100
0010
0100
0010
0100
0010
0100
0010
0100
0010
,  // measure 39
0100
0010
0100
0010
0100
0010
0100
0010
0100
0010
0100
0010
0100
0010
0100
0010
,  // measure 40
0100
0010
0100
0010
0100
0010
0100
0010
0100
0010
0100
0010
0100
0010
0100
0010
,  // measure 41
0100
0010
0100
0010
0101
0000
0001
0000
0000
0000
0001
0000
0100
0000
1001
0100
,  // measure 42
0010
0100
1001
0100
0011
0000
1000
0100
1000
0010
1000
0001
1000
0010
1000
0100
,  // measure 43
1000
0000
0000
0010
0000
0000
1000
0000
0000
0001
0000
0000
1000
0000
0000
0010
0000
0000
1000
0000
0000
0100
0000
0000
1000
0000
0000
0010
0000
0000
1000
0000
0000
0001
0000
0000
1000
0000
0000
0000
0000
0000
1000
0000
0010
0000
1000
0000
,  // measure 44
0100
0000
0000
0000
0000
0000
0010
0000
0000
0000
0000
0000
0001
0000
0000
0010
0000
0000
0001
0000
0000
0100
0000
0000
0001
0000
0000
1000
0000
0000
0001
0000
0000
0100
0000
0000
0001
0000
0000
0000
0000
0000
0001
0000
0010
0000
0001
0000
,  // measure 45
0000
0000
0000
0000
0000
0000
1000
0000
0000
0000
0000
0000
0010
0000
0000
0000
0100
0000
0000
0000
0010
0000
0000
0000
1000
0000
0000
0000
0000
0000
0010
0000
0000
0100
0000
0000
0000
0000
0000
0010
0000
0000
1000
0000
0000
0010
0000
0000
,  // measure 46
0001
0000
0010
0000
0100
0000
1000
0000
0100
0000
0010
0000
0001
0000
0000
0000
0000
0000
0100
0000
0000
1000
0000
0000
0100
0000
0000
0010
0000
0000
0100
0000
0000
0001
0000
0000
0100
0000
0000
0010
0000
0000
0100
0000
0000
1000
0000
0000
,  // measure 47
0100
0000
0000
0010
0000
0000
0100
0000
0000
0001
0000
0000
0100
0000
0000
0010
0000
0000
0100
0000
0000
1000
0000
0000
0100
0000
0000
0010
0000
0000
0100
0000
0000
0001
0000
0000
0100
0000
0000
0000
0000
0000
0010
0000
0100
0000
1000
0000
,  // measure 48
0100
0000
0000
0000
0000
0000
0001
0000
0000
0000
0000
0000
0010
0000
0000
0001
0000
0000
0010
0000
0000
0100
0000
0000
0010
0000
0000
1000
0000
0000
0010
0000
0000
0100
0000
0000
0010
0000
0000
0000
0000
0000
0001
0000
0010
0000
0100
0000
,  // measure 49
0000
0000
0000
0000
0000
0000
0010
0000
0000
0000
0000
0000
0100
0000
0000
0000
0001
0000
0000
0000
0100
0000
0000
0000
0010
0000
0000
0000
0000
0000
1000
0000
0000
0010
0000
0000
0000
0000
0000
0100
0000
0000
0001
0000
0000
0100
0000
0000
,  // measure 50
1000
0000
0100
0000
0010
0000
0001
0000
0010
0000
0100
0000
1000
0000
0000
0000
0000
0000
1000
0000
0000
0100
0000
0000
1000
0000
0000
0010
0000
0000
1000
0000
0000
0001
0000
0000
1000
0000
0000
0010
0000
0000
1000
0000
0000
0100
0000
0000
,  // measure 51
1000
0000
0000
0010
0000
0000
1000
0000
0000
0001
0000
0000
1000
0000
0000
0010
0000
0000
1000
0000
0000
0100
0000
0000
1000
0000
0000
0010
0000
0000
1000
0000
0000
0001
0000
0000
1000
0000
0000
0000
0000
0000
1000
0000
0010
0000
1000
0000
,  // measure 52
0100
0000
0000
0000
0000
0000
0010
0000
0000
0000
0000
0000
0001
0000
0000
0010
0000
0000
0001
0000
0000
0100
0000
0000
0001
0000
0000
1000
0000
0000
0001
0000
0000
0100
0000
0000
0001
0000
0000
0000
0000
0000
0001
0000
0010
0000
0001
0000
,  // measure 53
0000
0000
0000
0000
0000
0000
1000
0000
0000
0000
0000
0000
0010
0000
0000
0000
0100
0000
0000
0000
0010
0000
0000
0000
1000
0000
0000
0000
0000
0000
0010
0000
0000
0100
0000
0000
0000
0000
0000
0010
0000
0000
1000
0000
0000
0010
0000
0000
,  // measure 54
0001
0000
0010
0000
0100
0000
1000
0000
0100
0000
0010
0000
0001
0000
0000
0000
0000
0000
0100
0000
0000
1000
0000
0000
0100
0000
0000
0010
0000
0000
0100
0000
0000
0001
0000
0000
0100
0000
0000
0010
0000
0000
0100
0000
0000
1000
0000
0000
,  // measure 55
0100
0000
0000
0010
0000
0000
0100
0000
0000
0001
0000
0000
0100
0000
0000
0010
0000
0000
0100
0000
0000
1000
0000
0000
0100
0000
0000
0010
0000
0000
0100
0000
0000
0001
0000
0000
0100
0000
0000
0000
0000
0000
0010
0000
0100
0000
1000
0000
,  // measure 56
0100
0000
0000
0000
0000
0000
0001
0000
0000
0000
0000
0000
0010
0000
0000
0001
0000
0000
0010
0000
0000
0100
0000
0000
0010
0000
0000
1000
0000
0000
0010
0000
0000
0100
0000
0000
0010
0000
0000
0000
0000
0000
0001
0000
0010
0000
0100
0000
,  // measure 57
0000
0000
0000
0000
0000
0000
0010
0000
0000
0000
0000
0000
0100
0000
0000
0000
0001
0000
0000
0000
0100
0000
0000
0000
0010
0000
0000
0000
0000
0000
1000
0000
0000
0010
0000
0000
0000
0000
0000
0100
0000
0000
0001
0000
0000
0100
0000
0000
,  // measure 58
1000
0000
0100
0000
0010
0000
0100
0000
0000
0010
0000
0000
1001
0000
0000
0000
0000
0000
0000
0000
0000
0000
0000
0000
0000
0000
0000
0000
0000
0000
0000
0000
0000
0000
0000
0000
0000
0000
0000
0000
0000
0000
0000
0000
0000
0000
0000
0000
,  // measure 59
0100
0000
0010
0000
0000
0000
0000
1000
,  // measure 60
0000
0100
0010
0000
0001
0000
0000
0000
,  // measure 61
0000
0000
0000
0000
,  // measure 62
0000
0000
0100
0010
0001
0000
0000
0000
0000
0000
0000
0000
0000
0000
0000
0000
,  // measure 63
0100
0000
0010
0000
0000
0000
0000
0001
,  // measure 64
0000
0010
0100
0000
1000
0000
0000
0000
,  // measure 65
0000
0000
0000
0000
0000
0000
0000
0000
0000
0000
0000
0000
0001
0000
0000
0000
0000
0000
1000
0000
0000
0001
0000
0000
1000
0000
0000
0001
0000
0000
1000
0000
0000
0001
0000
0000
1000
0000
0001
0000
1000
0000
0001
0000
0000
1000
0000
0000
,  // measure 66
0001
0000
1000
0000
0001
0000
0010
0000
0000
0100
0000
0000
1000
0000
0000
0000
0000
0000
0001
0000
0000
0000
0000
0000
1010
0000
0000
0000
0000
0000
0001
0000
0000
0000
0000
0000
1000
0000
0000
0000
0000
0000
0010
0000
0000
0000
0000
0000
,  // measure 67
0101
0000
1000
0000
0110
0000
0001
0000
1100
0000
0010
0000
1001
0010
0101
1000
,  // measure 68
0011
0110
1001
0100
1010
0001
1000
0010
,  // measure 69
0101
0000
1000
0000
0100
0000
0010
0000
1100
0000
0001
0000
1010
0001
0100
1000
,  // measure 70
0011
0000
0010
0100
1000
0000
0001
0000
1010
0000
0001
0000
1000
0000
0010
0000
,  // measure 71
0101
0000
1000
0000
0110
0000
0001
0000
1100
0000
0001
0000
0110
0001
1010
0100
,  // measure 72
0011
0101
1001
0100
1010
0001
1000
0010
,  // measure 73
0101
0000
1000
0000
0010
0100
0010
0000
0010
0000
0010
0100
1000
0010
0100
0010
,  // measure 74
0101
0010
0100
0010
1100
0000
0000
0000
0000
0000
0000
0000
0000
0000
0000
0000
;
