#TITLE:Thing Called Love;
#SUBTITLE:Culture Code Remix;
#ARTIST:Above & Beyond;
#TITLETRANSLIT:;
#SUBTITLETRANSLIT:;
#ARTISTTRANSLIT:;
#CREDIT:;
#BANNER:../Wubstream - ban.png;
#BACKGROUND:../Wubstream - bg.png;
#LYRICSPATH:;
#CDTITLE:;
#MUSIC:Above & Beyond - Thing Called Love (Culture Code Remix).ogg;
#OFFSET:-0.349;
#SAMPLESTART:29.436;
#SAMPLELENGTH:12.000;
#SELECTABLE:YES;
#BPMS:0.000=140.000;
#STOPS:;
#BGCHANGES:;
// cache tags:
#FIRSTBEAT:12.000;
#LASTBEAT:451.833;
#SONGFILENAME:Songs/Wubstream/Thing Called Love - [Rynker]/thing called love.sm;
#HASMUSIC:1;
#HASBANNER:1;
#MUSICLENGTH:197.535;
// end cache tags

//---------------dance-single - Rynker----------------
#NOTES:
     dance-single:
     Rynker:
     Challenge:
     16:
     1.000,1.000,0.025,0.010,1.000,1376.000,5.000,2.000,0.000,0.000:

0000
0000
0000
0000
,
0000
0000
0000
0000
,
0000
0000
0000
0000
,
1000
1000
1000
1000
,
0001
0001
0001
0001
,
0100
0100
0100
0100
,
0010
0010
0010
0010
,
1000
1000
1000
1000
,
0001
0001
0001
0001
,
0010
0010
0010
0010
,
0100
0100
0100
0100
,
1000
1000
1000
1000
,
0001
0001
0001
0001
,
0100
0001
0100
0010
1000
0001
0010
0100
0010
0001
0100
0010
1000
0100
0010
0100
,
1000
0001
0100
0010
0100
0001
1000
0100
0010
0001
1000
0001
1000
0010
0100
0001
,
0100
0001
0100
0001
1000
0100
0010
0001
0010
0001
0010
0001
1000
0010
0100
0001
,
0100
0001
0100
0001
1000
0010
0100
0001
1000
0100
0010
0001
1000
0000
0000
0000
,
0001
0100
0010
1000
0001
0100
0010
1000
0001
0100
0010
1000
0001
0010
0100
1000
0100
0010
0001
1000
0001
0010
0100
0010
,
0001
1000
0010
0100
0001
1000
0010
0100
0001
1000
0010
0100
0001
1000
0100
0010
0001
0010
0100
1000
0001
1000
0001
0100
,
0010
1000
0100
0010
0001
0010
0100
1000
0010
0100
0001
1000
0001
0100
0010
1000
0100
0010
0001
1000
0001
1000
0001
1000
,
0100
0010
0001
1000
0010
0100
0001
1000
0001
1000
0001
1000
0100
0010
0001
1000
0001
0100
0010
1000
0001
1000
0010
1000
,
0100
0010
0001
1000
0100
0010
0001
1000
0100
0010
0001
1000
0010
0100
0010
1000
0001
1000
0010
0100
0010
1000
0001
0100
,
0001
1000
0100
0010
0001
1000
0100
0010
0001
1000
0100
0010
0001
1000
0010
0100
0010
1000
0001
1000
0010
0100
0010
1000
,
0001
0100
0010
1000
0100
0010
0001
0010
0100
1000
0010
0100
0001
1000
0100
0010
0001
1000
0001
1000
0001
1000
0100
0010
,
0001
0100
0001
0100
0010
1000
0001
0100
0001
1000
0100
1000
0100
0010
0100
1000
0001
0010
0001
1000
0001
1000
0010
1000
,
0001
0100
0010
1000
0001
0100
0010
1000
0001
0100
0010
1000
0001
1000
0001
0010
0100
0010
0001
1000
0001
0010
0100
0010
,
0001
1000
0010
0100
0001
1000
0010
0100
0001
1000
0001
0010
0100
0010
0001
1000
0001
1000
0100
0010
0001
1000
0001
0100
,
0010
1000
0100
0010
0001
0010
0100
1000
0010
0100
0001
1000
0001
0100
0010
1000
0100
0010
0001
1000
0001
1000
0001
1000
,
0100
0010
0001
1000
0010
0100
0001
1000
0001
1000
0001
1000
0100
0010
0001
1000
0001
0100
0010
1000
0001
1000
0010
1000
,
0100
0010
0001
1000
0100
0010
0001
1000
0100
0010
0001
1000
0010
0100
0010
1000
0001
1000
0010
0100
0010
1000
0001
0100
,
0001
1000
0100
0010
0001
1000
0100
0010
0001
1000
0100
0010
0001
1000
0010
0100
0010
1000
0001
1000
0010
0100
0010
1000
,
0001
0000
0000
0000
,
0000
0000
0000
0000
,
1001
0000
1001
0000
1000
0010
0100
0001
,
1000
0000
0001
0000
1000
0100
0010
0001
,
1000
0001
0100
0010
0100
0001
1000
0100
0010
0001
0100
0010
0100
0001
1000
0001
1000
0001
0100
0010
1000
0001
0100
0010
,
1000
0001
1000
0001
1000
0001
0010
0100
1000
0001
0010
0100
1000
0100
0010
0001
1000
0001
0100
0010
0100
0001
1000
0001
,
0100
0000
0001
0000
0100
0010
1000
0001
,
1000
0000
0001
0000
1000
0100
0010
0001
,
1000
0001
0010
0100
1000
0010
0100
0001
1000
0010
1000
0100
0020
0000
0000
0000
0000
0000
0031
0000
1000
0000
0001
0000
,
0100
0010
0100
0001
1000
0001
0100
0010
0100
0001
1000
0100
0010
0001
1000
0100
0010
0001
1000
0010
0100
0010
1000
0001
,
0100
0000
0001
0000
0100
0010
1000
0100
,
0010
0000
0100
0000
0010
0001
1000
0010
,
0100
0001
0010
0100
1000
0100
0010
0001
0100
0010
1000
0100
0010
0001
1000
0001
1000
0001
0100
0010
1000
0001
0100
0010
,
1000
0001
1000
0001
1000
0001
0010
0100
1000
0001
0010
0100
1000
0001
1000
0001
1000
0001
0100
0010
0100
0010
0100
0001
,
1000
0000
0001
0000
1000
0010
0100
0001
,
0010
0000
0100
0000
0010
0001
0100
0010
,
1000
0000
0000
0000
,
0000
0000
0000
0000
,
0000
0000
0000
0000
,
0000
0000
0000
0000
,
0000
0000
0000
0000
,
1000
0100
1000
0010
0100
0001
0010
0100
,
1000
0001
0100
0010
0100
0001
1000
0100
,
0010
0001
1000
0001
0100
0010
0100
0001
,
1000
0100
0010
0001
1000
0001
0100
0010
,
0100
0010
1000
0001
0100
0010
0100
0001
,
1000
0001
0010
0100
0010
0001
1000
0100
,
0010
0001
1000
0001
0100
0010
0100
0001
,
1000
0100
0010
0001
1000
0001
0100
0010
,
0100
0001
1000
0100
0010
0001
0010
0100
,
1000
0001
0100
0010
0100
0001
1000
0010
,
0100
0001
0010
0100
1000
0100
0010
0001
,
1000
0001
0100
0010
0100
0001
1000
0100
,
0010
0001
0010
0100
1000
0001
0100
0001
,
1001
1000
0100
0010
0001
0010
0100
1000
,
0001
0100
0010
0100
0001
0010
0100
1000
,
0100
0010
0001
1000
0001
0100
0010
0100
,
0001
1000
0100
0010
0001
0010
0100
1000
,
0001
0100
0010
0100
0001
1000
0010
0100
,
0001
1000
0010
0100
0001
0010
0100
1000
,
0100
0010
0001
0100
0010
1000
0100
1000
,
0001
0010
0001
1000
0010
0100
0001
0010
,
0100
0010
0001
0100
0010
1000
0100
0010
,
0001
0010
0100
1000
0001
0100
0010
0100
,
0001
1000
0100
0010
0001
1000
0001
0100
,
0010
0100
0001
1000
0100
0010
0001
1000
,
0001
0100
0010
0100
0001
1000
0100
0010
,
0001
1000
0001
0100
0010
0100
0001
1000
,
0100
0010
0001
0010
0100
1000
0001
0100
,
0010
0100
0001
1000
0100
0010
0001
0000
,
1000
0010
0100
0001
1000
0010
0100
0001
1000
0010
0100
0001
1000
0001
1000
0100
0010
0100
1000
0001
1000
0100
0010
0100
,
1000
0001
0100
0010
1000
0001
0100
0010
1000
0001
1000
0010
0100
0001
1000
0100
1000
0001
0010
0100
1000
0001
1000
0010
,
0100
0001
0010
0100
1000
0100
0010
0001
0100
0010
1000
0001
1000
0010
0100
0001
0010
0100
1000
0001
1000
0001
1000
0001
,
0010
0100
1000
0001
0100
0010
1000
0001
1000
0001
1000
0001
0010
0100
1000
0001
1000
0010
0100
0001
1000
0001
0100
0001
,
0010
0100
1000
0001
0010
0100
1000
0001
0010
0100
1000
0001
0100
0010
0100
0001
1000
0001
0100
0010
0100
0001
1000
0010
,
1000
0001
0010
0100
1000
0001
0010
0100
1000
0001
0010
0100
1000
0001
0100
0010
0100
0001
1000
0001
0100
0010
0100
0001
,
1000
0010
0100
0001
0010
0100
1000
0100
0010
0001
0100
0010
1000
0001
0010
0100
1000
0001
0100
0010
1000
0001
0010
0001
,
1000
0100
1000
0100
1000
0001
1000
0100
1000
0001
0100
0001
1000
0001
0100
0001
0100
0010
1000
0001
1000
0001
0100
0001
,
1000
0010
0100
0001
1000
0010
0100
0001
1000
0010
0100
0001
1000
0001
1000
0100
0010
0100
1000
0001
1000
0100
0010
0100
,
1000
0001
0100
0010
1000
0001
0100
0010
1000
0001
1000
0100
0010
0100
1000
0001
1000
0001
0010
0100
1000
0001
1000
0010
,
0100
0001
0010
0100
1000
0100
0010
0001
0100
0010
1000
0001
1000
0010
0100
0001
0010
0100
1000
0001
1000
0001
1000
0001
,
0010
0100
1000
0001
0100
0010
1000
0001
1000
0001
1000
0001
0010
0100
1000
0001
1000
0010
0100
0001
1000
0001
0100
0001
,
0010
0100
1000
0001
0010
0100
1000
0001
0010
0100
1000
0001
0100
0010
0100
0001
1000
0001
0100
0010
0100
0001
1000
0010
,
1000
0001
0010
0100
1000
0001
0010
0100
1000
0001
0010
0100
1000
0001
0100
0010
0100
0001
1000
0001
0100
0010
0100
0001
,
1000
0000
0000
0000
,
0000
0000
0000
0000
,
1001
0000
1001
0000
0001
0100
0010
1000
,
0001
0000
1000
0000
0001
0010
0100
1000
,
0001
1000
0010
0100
0010
1000
0001
0010
0100
1000
0010
0100
0010
1000
0001
1000
0001
1000
0010
0100
0001
1000
0010
0100
,
0001
1000
0001
1000
0001
1000
0100
0010
0001
1000
0100
0010
0001
0010
0100
1000
0001
1000
0010
0100
0010
1000
0001
1000
,
0010
0000
1000
0000
0010
0100
0001
1000
,
0001
0000
1000
0000
0001
0010
0100
1000
,
0001
1000
0100
0010
0001
0100
0010
1000
0001
0100
0001
0010
0200
0000
0000
0000
0000
0000
1300
0000
0001
0000
1000
0000
,
0010
0100
0010
1000
0001
1000
0010
0100
0010
1000
0001
0010
0100
1000
0001
0010
0100
1000
0001
0100
0010
0100
0001
1000
,
0010
0000
1000
0000
0010
0100
0001
0010
,
0100
0000
0010
0000
0100
1000
0001
0100
,
0010
1000
0100
0010
0001
0010
0100
1000
0010
0100
0001
0010
0100
1000
0001
1000
0001
1000
0010
0100
0001
1000
0010
0100
,
0001
1000
0001
1000
0001
1000
0100
0010
0001
1000
0100
0010
0001
1000
0001
1000
0001
1000
0010
0100
0010
0100
0010
1000
,
0001
0000
1000
0000
0001
0100
0010
1000
,
0100
0000
0010
0000
0100
1000
0010
0100
,
0001
0000
0000
0000
;

//---------------dance-single - Rynker----------------
#NOTES:
     dance-single:
     Rynker:
     Hard:
     14:
     0.751,1.000,0.025,0.228,0.939,988.000,5.000,45.000,1.000,0.000:







0000
0000
0000
0000
,
0000
0000
0000
0000
,
0000
0000
0000
0000
,
1000
1000
1000
1000
,
0001
0001
0001
0001
,
0100
0100
0100
0100
,
0010
0010
0010
0010
,
1000
1000
1000
1000
,
0001
0001
0001
0001
,
0010
0010
0010
0010
,
0100
0100
0100
0100
,
1000
1000
1000
1000
,
0001
0001
0001
0001
,
0100
0001
0100
0010
1000
0001
0010
0100
0010
0001
0100
0010
1000
0100
0010
0100
,
1000
0001
0100
0010
0100
0001
1000
0100
0010
0001
1000
0001
1000
0010
0100
0001
,
0100
0001
0100
0001
1000
0100
0010
0001
0010
0001
0010
0001
1000
0010
0100
0001
,
0100
0001
0100
0001
1000
0010
0100
0001
1000
0100
0010
0001
1000
0000
0000
0000
,
0001
0100
0010
1000
0001
0100
0010
1000
0001
0100
0010
1000
0002
0000
0000
0000
0000
0000
0000
0000
0000
0000
0000
0003
,
1000
0100
0010
0001
1000
0100
0010
0001
1000
0100
0010
0001
2000
0000
0000
0000
0000
0000
0000
0000
0000
0000
0000
0000
,
3001
0010
0100
1000
0001
0010
0100
1000
0010
0100
0001
0100
0010
0000
0100
0000
0001
0000
0020
0000
0000
0000
0000
0000
,
0130
0000
1000
0000
0010
0000
0200
0000
0000
0000
0300
0000
0010
0000
0100
0000
0001
0000
0020
0000
0000
0030
0100
0000
,
1000
0100
1000
0001
0010
0100
1000
0001
0010
0100
1000
0001
0200
0000
0000
0000
0000
0000
0000
0000
0000
0000
0000
0300
,
0001
1000
0100
0010
0001
1000
0100
0010
0001
1000
0100
0010
0002
0000
0000
0000
0000
0000
0000
0000
0000
0000
0000
0000
,
1003
0100
0010
0001
0100
0010
1000
0001
0100
0001
1000
0100
1000
0000
0010
0000
0100
0000
0001
0000
0000
0000
0000
0000
,
1000
0001
1000
0001
0100
0001
1000
0010
1000
0001
0010
0001
1000
0100
1000
0001
1000
0100
0010
0001
1000
0001
0100
0001
,
1000
0010
0100
0001
1000
0010
0100
0001
1000
0010
0100
0001
2000
0000
0000
0000
0000
0000
0000
0000
0000
0000
0000
0000
,
3001
0010
0100
1000
0001
1000
0010
0100
0001
0100
0010
1000
0002
0000
0000
0000
0000
0000
0000
0000
0000
0000
0000
0000
,
1003
0100
0010
0001
0100
0010
1000
0001
0010
0001
1000
0100
1000
0000
0100
0000
0010
0000
0002
0000
0000
0000
0000
0000
,
0013
0001
1000
0020
0000
0000
0130
0001
1000
0100
0000
0010
,
0001
0100
0001
1000
0100
0010
0001
1000
0100
0010
0001
1000
0020
0000
0000
0000
0000
0000
0000
0000
0000
0000
0000
0000
,
1030
0001
0010
0100
1000
0001
0010
0100
1000
0001
0010
0100
2000
0000
0000
0000
0000
0000
0000
0000
0000
0000
0000
0000
,
3001
0000
0000
0000
,
0000
0000
0000
0000
,
1001
0000
1001
0000
0001
0100
0010
1000
,
0001
0000
1000
0000
0001
0010
0100
1000
,
0001
1000
0010
0100
0010
1000
0001
0010
0100
1000
0010
0100
0002
0000
0000
0000
0000
0000
1003
0000
0100
0000
0010
0000
,
0002
0000
0000
1003
0100
0010
0002
0000
0000
2003
0000
0000
,
3010
0000
1000
0000
0010
0100
0001
1000
,
0001
0000
1000
0000
0001
0010
0100
1000
,
0001
1000
0100
0010
0001
0100
0010
1000
0001
0100
0001
0010
0200
0000
0000
0000
0000
0000
1300
0000
0001
0000
1000
0000
,
0010
0100
0010
1000
0001
1000
0010
0100
0010
1000
0001
0010
0100
1000
0001
0010
0100
1000
0001
0100
0010
0100
0001
1000
,
0010
0000
1000
0000
0010
0100
0001
0010
,
0100
0000
0010
0000
0100
1000
0001
0100
,
0010
1000
0100
0010
0001
0010
0100
1000
0010
0100
0001
0010
0200
0000
0000
0000
0000
0000
1300
0000
0001
0000
0100
0000
,
0020
0000
0000
1030
0100
0010
0002
0000
0000
2003
0000
0000
,
3001
0000
1000
0000
0001
0100
0010
1000
,
0100
0000
0010
0000
0100
1000
0010
0100
,
0001
0000
0000
0000
,
0000
0000
0000
0000
,
0000
0000
0000
0000
,
0000
0000
0000
0000
,
0000
0000
0000
0000
,
0001
0010
0001
0100
0010
1000
0100
0010
,
0001
1000
0010
0100
0010
1000
0001
0010
,
0100
1000
0001
1000
0010
0100
0010
1000
,
0001
0010
0100
1000
0001
1000
0010
0100
,
0010
0100
0001
1000
0010
0100
0010
1000
,
0001
1000
0100
0010
0100
1000
0001
0010
,
0100
1000
0001
1000
0010
0100
0010
1000
,
0001
0010
0100
1000
0001
1000
0010
0100
,
0010
1000
0001
0010
0100
1000
0100
0010
,
0001
1000
0010
0100
0010
1000
0001
0100
,
0010
1000
0100
0010
0001
0010
0100
1000
,
0001
1000
0010
0100
0010
1000
0001
0010
,
0100
1000
0100
0010
0001
1000
0010
1000
,
1001
0001
0010
0100
1000
0100
0010
0001
,
1000
0010
0100
0010
1000
0100
0010
0001
,
0010
0100
1000
0001
1000
0010
0100
0010
,
1000
0001
0010
0100
1000
0100
0010
0001
,
1000
0010
0100
0010
1000
0001
0100
0010
,
1000
0001
0100
0010
1000
0100
0010
0001
,
0010
0100
1000
0010
0100
0001
0010
0001
,
1000
0100
1000
0001
0100
0010
1000
0100
,
0010
0100
1000
0010
0100
0001
0010
0100
,
1000
0100
0010
0001
1000
0010
0100
0010
,
1000
0001
0010
0100
1000
0001
1000
0010
,
0100
0010
1000
0001
0010
0100
1000
0001
,
1000
0010
0100
0010
1000
0001
0010
0100
,
1000
0001
1000
0010
0100
0010
1000
0001
,
0010
0100
1000
0100
0010
0001
1000
0010
,
0100
0010
1000
0001
0010
0100
1000
0000
,
0001
0100
0010
1000
0001
0100
0010
1000
0001
0100
0010
1000
0002
0000
0000
0000
0000
0000
0000
0000
0000
0000
0000
0003
,
1000
0100
0010
0001
1000
0100
0010
0001
1000
0100
0010
0001
2000
0000
0000
0000
0000
0000
0000
0000
0000
0000
0000
0000
,
3001
0010
0100
1000
0001
0010
0100
1000
0010
0100
0001
0100
0010
0000
0100
0000
0001
0000
0020
0000
0000
0000
0000
0000
,
0130
0000
1000
0000
0010
0000
0200
0000
0000
0000
0300
0000
0010
0000
0100
0000
0001
0000
0020
0000
0000
0030
0100
0000
,
1000
0100
1000
0001
0010
0100
1000
0001
0010
0100
1000
0001
0200
0000
0000
0000
0000
0000
0000
0000
0000
0000
0000
0300
,
0001
1000
0100
0010
0001
1000
0100
0010
0001
1000
0100
0010
0002
0000
0000
0000
0000
0000
0000
0000
0000
0000
0000
0000
,
1003
0100
0010
0001
0100
0010
1000
0001
0100
0001
1000
0100
1000
0000
0010
0000
0100
0000
0001
0000
0000
0000
0000
0000
,
1000
0001
1000
0001
0100
0001
1000
0010
1000
0001
0010
0001
1000
0100
1000
0001
1000
0100
0010
0001
1000
0001
0100
0001
,
1000
0010
0100
0001
1000
0010
0100
0001
1000
0010
0100
0001
2000
0000
0000
0000
0000
0000
0000
0000
0000
0000
0000
0000
,
3001
0010
0100
1000
0001
1000
0010
0100
0001
0100
0010
1000
0002
0000
0000
0000
0000
0000
0000
0000
0000
0000
0000
0000
,
1003
0100
0010
0001
0100
0010
1000
0001
0010
0001
1000
0100
1000
0000
0100
0000
0010
0000
0002
0000
0000
0000
0000
0000
,
0013
0001
1000
0020
0000
0000
0130
0001
1000
0200
0000
0310
,
0001
0100
0001
1000
0100
0010
0001
1000
0100
0010
0001
1000
0020
0000
0000
0000
0000
0000
0000
0000
0000
0000
0000
0000
,
1030
0001
0010
0100
1000
0001
0010
0100
1000
0001
0010
0100
2000
0000
0000
0000
0000
0000
0000
0000
0000
0000
0000
0000
,
3001
0000
0000
0000
,
0000
0000
0000
0000
,
1001
0000
1001
0000
0001
0100
0010
1000
,
0001
0000
1000
0000
0001
0010
0100
1000
,
0001
1000
0010
0100
0010
1000
0001
0010
0100
1000
0010
0100
0002
0000
0000
0000
0000
0000
1003
0000
0100
0000
0010
0000
,
0002
0000
0000
1003
0100
0010
0002
0000
0000
2003
0000
0000
,
3010
0000
1000
0000
0010
0100
0001
1000
,
0001
0000
1000
0000
0001
0010
0100
1000
,
0001
1000
0100
0010
0001
0100
0010
1000
0001
0100
0001
0010
0200
0000
0000
0000
0000
0000
1300
0000
0001
0000
1000
0000
,
0010
0100
0010
1000
0001
1000
0010
0100
0010
1000
0001
0010
0100
1000
0001
0010
0100
1000
0001
0100
0010
0100
0001
1000
,
0010
0000
1000
0000
0010
0100
0001
0010
,
0100
0000
0010
0000
0100
1000
0001
0100
,
0010
1000
0100
0010
0001
0010
0100
1000
0010
0100
0001
0010
0200
0000
0000
0000
0000
0000
1300
0000
0001
0000
0100
0000
,
0020
0000
0000
1030
0100
0010
0002
0000
0000
2003
0000
0000
,
3001
0000
1000
0000
0001
0100
0010
1000
,
0100
0000
0010
0000
0100
1000
0010
0100
,
0001
0000
0000
0000
,
0000
0000
0000
0000
0000
0000
0000
0000
0000
0000
0000
0000
0000
0000
0000
0000
0000
0000
0000
0000
0000
0000
0000
M000
;

//---------------dance-single - Rynker----------------
#NOTES:
     dance-single:
     Rynker:
     Medium:
     11:
     0.646,0.944,0.025,0.223,0.575,844.000,5.000,44.000,1.000,0.000:



0000
0000
0000
0000
,
0000
0000
0000
0000
,
0000
0000
0000
0000
,
1000
1000
1000
1000
,
0001
0001
0001
0001
,
0100
0100
0100
0100
,
0010
0010
0010
0010
,
1000
1000
1000
1000
,
0001
0001
0001
0001
,
0010
0010
0010
0010
,
0100
0100
0100
0100
,
1000
1000
1000
1000
,
0001
0001
0001
0001
,
0100
0001
0100
0010
1000
0001
0010
0100
0010
0001
0100
0010
1000
0100
0010
0100
,
1000
0001
0100
0010
0100
0001
1000
0100
0010
0001
1000
0001
1000
0010
0100
0001
,
0100
0001
0100
0001
1000
0100
0010
0001
0010
0001
0010
0001
1000
0010
0100
0001
,
0100
0001
0100
0001
1000
0010
0100
0001
1000
0100
0010
0001
1000
0000
0000
0000
,
0001
0000
0000
0100
0000
0000
0010
0000
0000
1000
0000
0000
0001
0000
0000
0010
0000
0000
0100
0000
0000
1000
0000
0000
0002
0000
0000
0000
0000
0000
0000
0000
0000
0000
0000
0000
0000
0000
0000
0000
0000
0000
0000
0000
0000
0000
0003
0000
,
1000
0100
0010
0001
1000
0010
0100
0001
2000
0000
0000
0000
0000
0000
0000
0000
,
3001
0000
0000
0100
0000
0000
0010
0000
0000
1000
0000
0000
0100
0000
0000
1000
0000
0000
0010
0000
0000
0100
0000
0000
0001
0000
0000
0000
0100
0000
0000
0000
0001
0000
0000
0000
0020
0000
0000
0000
0000
0000
0000
0000
0000
0000
0000
0000
,
0130
0000
1000
0000
0010
0000
0200
0000
0000
0000
0300
0000
0010
0000
0100
0000
0001
0000
0020
0000
0000
0030
0100
0000
,
1000
0000
0000
0100
0000
0000
0010
0000
0000
0001
0000
0000
1000
0000
0000
0010
0000
0000
0100
0000
0000
0001
0000
0000
0200
0000
0000
0000
0000
0000
0000
0000
0000
0000
0000
0000
0000
0000
0000
0000
0000
0000
0000
0000
0000
0000
0300
0000
,
0001
1000
0100
0010
0001
1000
0010
0100
0002
0000
0000
0000
0000
0000
0000
0000
,
1003
0000
0000
0100
0000
0000
0010
0000
0000
0001
0000
0000
1000
0000
0000
0010
0000
0000
0100
0000
0000
0001
0000
0000
1000
0000
0000
0000
0010
0000
0000
0000
0100
0000
0000
0000
0001
0000
0000
0000
0000
0000
0000
0000
0000
0000
0000
0000
,
1000
0100
1000
0001
0100
0001
0010
0001
0100
0010
0100
0001
0010
0100
1000
0001
,
0100
0010
1000
0001
0010
0100
1000
0001
2000
0000
0000
0000
0000
0000
0000
0000
,
3001
0100
0010
1000
0001
0010
0100
1000
0002
0000
0000
0000
0000
0000
0000
0000
,
1003
0000
0000
0100
0000
0000
0010
0000
0000
0001
0000
0000
0100
0000
0000
0010
0000
0000
1000
0000
0000
0100
0000
0000
1000
0000
0000
0000
0100
0000
0000
0000
0010
0000
0000
0000
0002
0000
0000
0000
0000
0000
0000
0000
0000
0000
0000
0000
,
0013
0001
1000
0020
0000
0000
0130
0001
1000
0100
0000
0010
,
0001
1000
0100
0010
0001
1000
0010
0100
0020
0000
0000
0000
0000
0000
0000
0000
,
1030
0001
0100
0010
1000
0001
0010
0100
2000
0000
0000
0000
0000
0000
0000
0000
,
3001
0000
0000
0000
,
0000
0000
0000
0000
,
1001
0000
1001
0000
0001
0100
0010
1000
,
0001
0000
1000
0000
0001
0010
0100
1000
,
0001
0000
0000
0100
0000
0000
0010
0000
0000
1000
0000
0000
0001
0000
0000
0010
0000
0000
0100
0000
0000
1000
0000
0000
0002
0000
0000
0000
0000
0000
0000
0000
0000
0000
0000
0000
1003
0000
0000
0000
0100
0000
0000
0000
0010
0000
0000
0000
,
0002
0000
0000
1003
0100
0010
0002
0000
0000
2003
0000
0000
,
3010
0000
1000
0000
0010
0100
0001
1000
,
0001
0000
1000
0000
0001
0010
0100
1000
,
0001
0000
0000
0100
0000
0000
0010
0000
0000
1000
0000
0000
0001
0000
0000
0010
0000
0000
0100
0000
0000
1000
0000
0000
0200
0000
0000
0000
0000
0000
0000
0000
0000
0000
0000
0000
1300
0000
0000
0000
0001
0000
0000
0000
1000
0000
0000
0000
,
0001
0100
0010
0100
0001
1000
0100
0010
0100
1000
0001
0100
0010
0100
0001
1000
,
0001
0000
1000
0000
0010
0100
0001
0010
,
0100
0000
0010
0000
0100
1000
0001
0100
,
0001
0000
0000
1000
0000
0000
0100
0000
0000
1000
0000
0000
0001
0000
0000
0010
0000
0000
0100
0000
0000
1000
0000
0000
0200
0000
0000
0000
0000
0000
0000
0000
0000
0000
0000
0000
1300
0000
0000
0000
0001
0000
0000
0000
0100
0000
0000
0000
,
0020
0000
0000
1030
0100
0010
0002
0000
0000
2003
0000
0000
,
3001
0000
1000
0000
0001
0100
0010
1000
,
0100
0000
0010
0000
0100
1000
0010
0100
,
0001
0000
0000
0000
,
0000
0000
0000
0000
,
0000
0000
0000
0000
,
0000
0000
0000
0000
,
0000
0000
0000
0000
,
0001
0010
0001
0100
0010
1000
0100
0010
,
0001
1000
0010
0100
0010
1000
0001
0010
,
0100
1000
0001
1000
0010
0100
0010
1000
,
0001
0010
0100
1000
0001
1000
0010
0100
,
0010
0100
0001
1000
0010
0100
0010
1000
,
0001
1000
0100
0010
0100
1000
0001
0010
,
0100
1000
0001
1000
0010
0100
0010
1000
,
0001
0010
0100
1000
0001
1000
0010
0100
,
0010
1000
0001
0010
0100
1000
0100
0010
,
0001
1000
0010
0100
0010
1000
0001
0100
,
0010
1000
0100
0010
0001
0010
0100
1000
,
0001
1000
0010
0100
0010
1000
0001
0010
,
0100
1000
0100
0010
0001
1000
0010
1000
,
1001
0001
0010
0100
1000
0100
0010
0001
,
1000
0010
0100
0010
1000
0100
0010
0001
,
0010
0100
1000
0001
1000
0010
0100
0010
,
1000
0001
0010
0100
1000
0100
0010
0001
,
1000
0010
0100
0010
1000
0001
0100
0010
,
1000
0001
0100
0010
1000
0100
0010
0001
,
0010
0100
1000
0010
0100
0001
0010
0001
,
1000
0100
1000
0001
0100
0010
1000
0100
,
0010
0100
1000
0010
0100
0001
0010
0100
,
1000
0100
0010
0001
1000
0010
0100
0010
,
1000
0001
0010
0100
1000
0001
1000
0010
,
0100
0010
1000
0001
0010
0100
1000
0001
,
1000
0010
0100
0010
1000
0001
0010
0100
,
1000
0001
1000
0010
0100
0010
1000
0001
,
0010
0100
1000
0100
0010
0001
1000
0010
,
0100
0010
1000
0001
0010
0100
1000
0000
,
0001
0000
0000
0100
0000
0000
0010
0000
0000
1000
0000
0000
0001
0000
0000
0010
0000
0000
0100
0000
0000
1000
0000
0000
0002
0000
0000
0000
0000
0000
0000
0000
0000
0000
0000
0000
0000
0000
0000
0000
0000
0000
0000
0000
0000
0000
0003
0000
,
1000
0100
0010
0001
1000
0010
0100
0001
2000
0000
0000
0000
0000
0000
0000
0000
,
3001
0000
0000
0100
0000
0000
0010
0000
0000
1000
0000
0000
0100
0000
0000
1000
0000
0000
0010
0000
0000
0100
0000
0000
0001
0000
0000
0000
0100
0000
0000
0000
0001
0000
0000
0000
0020
0000
0000
0000
0000
0000
0000
0000
0000
0000
0000
0000
,
0130
0000
1000
0000
0010
0000
0200
0000
0000
0000
0300
0000
0010
0000
0100
0000
0001
0000
0020
0000
0000
0030
0100
0000
,
1000
0000
0000
0100
0000
0000
0010
0000
0000
0001
0000
0000
1000
0000
0000
0010
0000
0000
0100
0000
0000
0001
0000
0000
0200
0000
0000
0000
0000
0000
0000
0000
0000
0000
0000
0000
0000
0000
0000
0000
0000
0000
0000
0000
0000
0000
0300
0000
,
0001
1000
0100
0010
0001
1000
0010
0100
0002
0000
0000
0000
0000
0000
0000
0000
,
1003
0000
0000
0100
0000
0000
0010
0000
0000
0001
0000
0000
0100
0000
0000
0010
0000
0000
1000
0000
0000
0100
0000
0000
0010
0000
0000
0000
0001
0000
0000
0000
1000
0000
0000
0000
0001
0000
0000
0000
0000
0000
0000
0000
0000
0000
0000
0000
,
1000
0100
0010
0001
1000
0100
1000
0001
0100
0001
1000
0100
1000
0001
0100
0001
,
0010
0100
1000
0001
0100
0010
1000
0001
2000
0000
0000
0000
0000
0000
0000
0000
,
3001
0100
0010
1000
0001
0010
0100
1000
0002
0000
0000
0000
0000
0000
0000
0000
,
1003
0000
0000
0100
0000
0000
0010
0000
0000
0001
0000
0000
1000
0000
0000
0010
0000
0000
0100
0000
0000
0001
0000
0000
1000
0000
0000
0000
0100
0000
0000
0000
0010
0000
0000
0000
0002
0000
0000
0000
0000
0000
0000
0000
0000
0000
0000
0000
,
0013
0001
1000
0020
0000
0000
0130
0001
1000
0100
0000
0010
,
0001
1000
0100
0010
0001
1000
0010
0100
0020
0000
0000
0000
0000
0000
0000
0000
,
1030
0001
0100
0010
1000
0001
0010
0100
2000
0000
0000
0000
0000
0000
0000
0000
,
3001
0000
0000
0000
,
0000
0000
0000
0000
,
1001
0000
1001
0000
0001
0100
0010
1000
,
0001
0000
1000
0000
0001
0010
0100
1000
,
0001
0000
0000
0100
0000
0000
0010
0000
0000
1000
0000
0000
0001
0000
0000
0010
0000
0000
0100
0000
0000
1000
0000
0000
0002
0000
0000
0000
0000
0000
0000
0000
0000
0000
0000
0000
1003
0000
0000
0000
0100
0000
0000
0000
0010
0000
0000
0000
,
0002
0000
0000
1003
0100
0010
0002
0000
0000
2003
0000
0000
,
3010
0000
1000
0000
0010
0100
0001
1000
,
0001
0000
1000
0000
0001
0010
0100
1000
,
0001
0000
0000
0100
0000
0000
0010
0000
0000
1000
0000
0000
0001
0000
0000
0010
0000
0000
0100
0000
0000
1000
0000
0000
0200
0000
0000
0000
0000
0000
0000
0000
0000
0000
0000
0000
1300
0000
0000
0000
0001
0000
0000
0000
1000
0000
0000
0000
,
0001
0100
0010
0100
0001
1000
0100
0010
0100
1000
0001
0100
0010
0100
0001
1000
,
0010
0000
1000
0000
0010
0100
0001
0010
,
0100
0000
0010
0000
0100
1000
0001
0100
,
0001
0000
0000
1000
0000
0000
0100
0000
0000
0010
0000
0000
0001
0000
0000
1000
0000
0000
0001
0000
0000
0100
0000
0000
0020
0000
0000
0000
0000
0000
0000
0000
0000
0000
0000
0000
1030
0000
0000
0000
0001
0000
0000
0000
0100
0000
0000
0000
,
0020
0000
0000
1030
0001
0100
0020
0000
0000
2030
0000
0000
,
3001
0000
1000
0000
0001
0100
0010
1000
,
0100
0000
0010
0000
0100
1000
0010
0100
,
0001
0000
0000
0000
,
0000
0000
0000
0000
0000
0000
0000
0000
0000
0000
0000
0000
0000
0000
0000
0000
0000
0000
0000
0000
0000
0000
0000
M000
;
