#TITLE:Cry of the Brave;
#SUBTITLE:Sonic Firestorm;
#ARTIST:Dragonforce;
#TITLETRANSLIT:;
#SUBTITLETRANSLIT:;
#ARTISTTRANSLIT:;
#CREDIT:;
#BANNER:cryofthebrave-bn.png;
#BACKGROUND:cryofthebrave-bg.png;
#LYRICSPATH:;
#CDTITLE:cdtitle.PNG;
#MUSIC:Dragonforce - Cry of the Brave.mp3;
#OFFSET:-2.995;
#SAMPLESTART:6.960;
#SAMPLELENGTH:15.000;
#SELECTABLE:YES;
#BPMS:0.000=215.000,616.000=107.500,680.000=215.000;
#STOPS:;
#BGCHANGES:;
// cache tags:
#FIRSTBEAT:4.000;
#LASTBEAT:1152.000;
#SONGFILENAME:Songs/CMDKDF Pack/Cry Of The Brave (Zaghurim)/Cry of the Brave.sm;
#HASMUSIC:1;
#HASBANNER:1;
#MUSICLENGTH:346.070;
// end cache tags

//---------------dance-single - ----------------
#NOTES:
     dance-single:
     :
     Hard:
     14:
     1.000,1.000,1.000,0.150,1.000,3093.000,736.000,52.000,0.000,5.000:

0000
0000
0000
0000
,
1001
0110
1010
0101
1001
0110
1100
0011
,
1001
0110
1010
0110
0101
1010
0011
0000
,
0110
1001
1010
0101
0110
1010
0110
1001
,
1010
0110
1010
0101
1010
0101
1100
0011
,
0110
1001
0110
1010
1001
0110
1010
0110
,
0101
1010
0110
1001
0110
1001
0110
0000
,
1010
0101
1010
0110
0101
0110
1010
0101
,
1000
0010
0100
0010
1000
0001
0100
0010
0100
0001
0010
0001
1000
0100
1000
0010
,
0101
0000
0100
0010
0100
0010
0101
0000
1000
0010
1000
0100
1000
0010
1000
0010
,
0101
0000
0001
0010
0001
0010
0101
0000
0010
0100
0010
0100
0010
0100
0010
0100
,
1010
0000
1000
0100
1000
0100
1010
0000
1000
0010
1000
0010
1000
0010
1000
0010
,
0101
0000
0100
0010
0100
0010
0101
0000
1000
0100
0010
0001
0010
0100
1000
0100
,
0011
0000
1000
0100
1000
0100
0011
0000
1000
0010
0100
0001
1000
0010
0100
0001
,
1010
0000
0100
0010
0100
0010
1001
0000
0010
0100
0010
1000
0010
0100
0010
0100
,
1001
0100
0010
0001
1000
0001
0010
0100
1000
0001
1000
0010
1000
0001
0100
0010
,
1000
0001
0100
0010
0100
0001
1000
0100
0020
0000
0000
0000
0000
0000
0030
0000
,
1001
0100
0010
0001
1000
0100
0010
0001
1000
0010
0100
0010
1000
0001
1000
0100
,
0010
0001
0010
0100
1000
0100
0010
0001
1100
0000
0000
0000
0000
0000
0000
0000
,
1001
0000
0110
0000
0001
0010
0001
0000
1001
0000
0110
0000
1000
0100
1000
0000
,
1001
0000
0110
0000
1000
0001
0100
0000
1001
0000
1100
0000
0100
0001
0100
0000
,
0110
0000
1001
0000
0010
0100
0001
0000
0110
0000
1100
0000
0001
1000
0010
0000
,
1001
0000
0110
0000
0100
0001
0010
0000
0101
0000
1010
0000
0100
0010
1000
0000
,
0110
0000
1001
0000
0010
0100
0001
0000
1001
0000
0110
0000
0001
0010
0100
0000
,
1010
0000
0101
0000
0010
0100
0001
0000
0110
0000
1001
0000
0100
0010
0001
0000
,
0101
0000
1010
0000
0001
1000
0100
0000
1001
0000
0110
0000
0001
0100
0010
0000
,
0001
0100
0010
0100
0001
1000
0010
0100
0010
1000
0100
1000
0001
0010
0001
0100
,
0011
0000
0001
1000
0001
1000
0001
1000
0001
1000
0001
1000
0001
1000
0001
1000
,
0011
0000
0010
1000
0010
1000
0011
0000
1000
0001
1000
0001
1000
0001
1000
0001
,
1100
0000
0010
1000
0010
1000
0010
1000
0010
1000
0010
1000
0010
1000
0010
1000
,
0101
0000
0001
1000
0001
1000
0011
0000
0100
0001
1000
0010
1000
0001
0100
0001
,
1010
0000
0100
0001
0100
0001
0100
0001
0100
0001
0100
0001
0100
0001
0100
0001
,
1100
0000
0001
1000
0001
1000
0110
0000
1000
0001
1000
0001
1000
0001
1000
0001
,
0110
0000
0110
0000
0010
0100
0010
0000
1001
0000
0110
0000
1000
0001
1000
0000
,
0001
0010
0100
1000
0100
0010
0001
0100
0001
0010
0100
1000
0100
0010
0001
0000
,
1001
1000
1001
0001
0011
0010
0110
0100
,
1100
1000
1010
0010
0110
0100
0110
0010
,
0011
0001
0011
0010
1010
1000
1001
0001
,
1001
0010
0100
0010
0100
0010
0100
0010
1001
0000
0000
0000
0000
0000
0000
0000
,
1000
0010
1000
0010
1000
0010
1000
0010
0100
0010
0100
0010
0100
0010
0100
0010
,
0100
1000
0100
1000
0100
1000
0100
1000
0100
0001
0100
0001
0100
0001
0100
0001
,
1000
0100
0010
0001
0100
0001
0010
1000
0100
0010
0001
1000
0001
0100
0001
1000
,
0220
0000
0000
0000
0000
0330
0000
0000
,
1010
0000
0101
0000
0100
0001
0100
0000
1010
0000
0101
0000
0010
0001
0100
0000
,
1010
0000
0101
0000
1000
0010
0100
0000
1010
0000
1100
0000
0100
0001
0010
0000
,
0101
0000
1010
0000
0001
0100
0010
0000
0101
0000
1100
0000
0010
1000
0010
0000
,
1001
0000
0101
0000
1000
0010
0100
0000
0110
0000
1001
0000
0100
0001
0100
0000
,
0101
0000
1010
0000
0001
0100
0010
0000
1010
0000
0101
0000
0010
0001
0010
0000
,
1001
0000
0110
0000
0001
0100
0010
0000
0101
0000
1010
0000
0100
0001
0010
0000
,
0110
0000
1001
0000
0010
0001
0100
0000
1010
0000
0101
0000
0010
0100
0010
0000
,
1000
0100
0010
0001
0100
0010
0100
0001
0010
0100
1000
0010
0100
0010
1000
0001
,
0110
0000
1001
0000
0100
0001
0100
0000
0110
0000
1001
0000
1000
0001
0010
0000
,
0110
0000
1001
0000
0010
0100
0001
0000
0110
0000
1010
0000
1000
0001
0010
0000
,
1001
0000
0110
0000
0001
1000
0100
0000
1001
0000
1010
0000
0100
0010
0100
0000
,
1001
0000
0110
0000
0010
0100
0010
0000
1100
0000
0011
0000
1000
0001
1000
0000
,
1001
0000
0110
0000
0001
1000
0001
0000
0110
0000
1001
0000
0100
0001
0100
0000
,
0011
0000
1100
0000
0001
1000
0010
0000
1001
0000
0110
0000
1000
0001
0010
0000
,
1000
0100
1000
0010
0100
0010
1000
0100
1000
0001
0010
0001
0100
0010
0100
0001
,
0010
0001
1000
0001
1000
0010
0100
0010
1000
0001
1000
0001
1000
0001
1000
0001
,
0110
0000
1010
0000
0100
0010
0100
0000
1010
0000
0101
0000
0100
0001
0100
0000
,
1010
0000
0101
0000
0010
0001
0010
0000
1001
0000
0110
0000
1000
0001
1000
0000
,
0101
0000
1010
0000
0001
0100
0010
0000
0101
0000
1100
0000
0010
1000
0010
0000
,
0110
0000
0101
0000
1000
0010
0100
0000
0110
0000
1001
0000
0100
0001
0100
0000
,
0101
0000
1010
0000
0001
0100
0001
0000
1010
0000
0101
0000
0010
0001
0010
0000
,
1001
0000
0110
0000
1000
0100
1000
0000
0101
0000
1010
0000
0100
0001
1000
0000
,
0110
0000
1001
0000
0010
1000
0010
0000
1001
0000
0101
0000
0001
0010
0001
0000
,
0001
0010
0100
0010
0100
1000
0010
1000
0010
1000
0100
0010
0100
0010
0001
0010
,
1001
0000
0101
0000
1000
0100
1000
0000
0110
0000
1001
0000
1000
0001
1000
0000
,
0110
0000
1001
0000
0100
0001
0100
0000
0011
0000
1100
0000
0010
0001
0010
0000
,
1001
0000
0110
0000
0001
1000
0100
0000
1001
0000
1010
0000
0100
0010
0100
0000
,
1100
0000
1001
0000
0010
0100
1000
0000
1100
0000
0011
0000
1000
0001
1000
0000
,
1001
0000
0110
0000
0001
1000
0001
0000
0110
0000
1001
0000
0100
0001
0100
0000
,
0011
0000
1100
0000
0010
1000
0010
0000
1001
0000
0110
0000
1000
0001
0010
0000
,
1100
0000
0011
0000
0100
0010
0100
0000
0011
0000
1001
0000
0010
1000
0010
0000
,
1000
0010
0100
0010
1000
0001
0100
0010
0100
0001
0010
0001
1000
0010
1000
0010
,
0101
1010
0110
1001
0101
1010
1100
1010
,
0101
0011
0101
1001
0110
0000
0000
0000
,
1100
0000
0000
0000
0101
0110
0011
0011
,
1010
0011
1010
0101
0011
0011
1001
1010
,
1100
1010
1100
0000
0011
1100
1010
1100
,
0101
0101
0011
0011
1010
1100
0101
0110
,
0110
1001
0022
0033
1001
0110
1010
0101
,
0110
0101
1100
0011
0101
1001
1001
0011
,
1001
1001
1010
0000
1001
1100
1001
1100
,
1010
0000
0011
0000
0110
0000
1100
0000
1000
0100
0010
0001
0100
0010
1000
0100
,
0010
0001
0100
0010
0002
0000
0000
0000
1013
0000
0101
0000
1010
0000
0101
0000
,
0110
1001
1010
0011
0101
0011
0110
0101
,
1100
0011
0011
0000
0110
1001
0101
0101
,
1100
0000
1100
0000
0110
0000
1010
0000
1000
0001
1000
0010
0100
0010
1000
0001
,
1000
0010
0100
0010
0200
0000
0300
0000
1001
0000
1001
0000
0011
0000
1001
0000
,
1001
0011
0110
0011
1001
0110
0011
0110
,
1100
0000
0011
0000
1100
0000
0000
0000
1000
0100
0010
0001
0100
0010
0100
0010
,
1000
0100
0010
0001
0100
0010
0100
0010
1000
0100
0010
0001
1000
0001
1000
0001
,
1000
0100
0010
0001
1000
0001
1000
0001
1010
0100
0010
0001
0010
0100
1000
0001
,
1000
0100
0010
0001
0010
0100
1000
0001
1000
0100
0010
0001
0010
0100
1000
0100
,
0011
0000
0000
0000
0000
0000
0000
0000
1010
0000
0101
0000
0100
0010
0100
0000
,
1010
0000
0101
0000
0100
0001
0100
0000
1010
0000
0101
0000
0010
0001
0010
0000
,
1001
0000
0110
0000
1000
0001
1000
0000
0101
0000
1010
0000
0001
0100
0010
0000
,
0101
0000
1100
0000
0010
1000
0010
0000
0110
0000
0101
0000
1000
0010
0100
0000
,
0110
0000
1001
0000
0100
0001
0100
0000
0101
0000
1010
0000
0001
0100
0001
0000
,
1010
0000
0101
0000
0010
0001
0010
0000
1001
0000
0110
0000
1000
0100
1000
0000
,
0101
0000
1010
0000
0100
0001
1000
0000
0110
0000
1001
0000
0010
1000
0010
0000
,
1001
0000
0101
0000
1000
0100
1000
0000
0001
1000
0001
1000
0001
1000
0001
1000
,
0010
0100
0010
0100
0010
0100
0010
0100
1001
0000
1000
0010
1000
0010
1000
0010
,
1000
0010
1000
0010
1000
0010
1000
0010
1001
0000
0001
0010
0001
0010
1001
0000
,
0010
1000
0010
1000
0010
1000
0010
1000
0110
0000
0100
0010
0100
0010
0100
0010
,
0100
0010
0100
0010
0100
0010
0100
0010
1001
0000
1000
0010
1000
0010
1001
0000
,
0100
1000
0010
0001
0010
1000
0100
1000
0011
0000
0100
1000
0100
1000
0100
1000
,
0100
1000
0100
1000
0100
1000
0100
1000
0110
0000
1000
0010
1000
0010
0101
0000
,
0010
1000
0010
1000
0010
1000
0010
1000
0101
0000
0110
0000
1000
0001
1000
0000
,
0110
0000
1001
0000
0100
0010
0100
0000
0001
0010
0001
0100
0010
0100
0001
0010
,
0100
1000
0010
0100
0010
1000
0100
1000
0011
0000
0001
0000
0011
0000
0010
0000
,
0110
0010
0011
0001
1001
1000
1010
0010
,
0110
0100
0101
0001
1001
1000
1010
0010
,
0110
0000
0100
0000
0101
0000
0001
0000
1000
0100
0010
0100
0001
0010
0100
0010
,
1001
0000
0000
0000
0000
0000
0000
0000
1000
0001
1000
0001
1000
0001
1000
0001
,
0100
0001
0100
0001
0100
0001
0100
0001
0010
1000
0010
1000
0010
1000
0010
1000
,
0100
0010
0100
0010
0100
0010
0100
0010
0001
0010
0100
1000
0010
0100
0001
0010
,
0100
1000
0010
0100
0001
0010
0100
1000
0220
0000
0000
0000
0000
0000
0000
0000
,
0000
0000
0000
0000
0330
0000
0000
0000
0110
0000
1001
0000
1000
0100
1000
0000
,
0110
0000
1001
0000
1000
0001
1000
0000
0110
0000
1001
0000
0100
0001
0100
0000
,
0011
0000
1100
0000
0010
0001
0010
0000
1001
0000
0110
0000
0001
1000
0100
0000
,
1001
0000
1010
0000
0100
0010
0100
0000
1100
0000
1001
0000
0010
0100
1000
0000
,
1100
0000
0011
0000
1000
0001
1000
0000
1001
0000
0110
0000
0001
1000
0001
0000
,
0110
0000
1001
0000
0100
0001
0100
0000
0011
0000
1100
0000
0010
1000
0010
0000
,
1001
0000
0110
0000
1000
0001
0010
0000
1100
0000
0011
0000
0100
0010
0100
0000
,
0011
0000
1001
0000
0010
1000
0010
0000
0100
1000
0001
1000
0100
0010
0001
1000
,
0001
0010
1000
0010
0100
0001
0100
1000
0110
0000
1001
0000
0001
0010
0001
0000
,
0110
0000
1001
0000
0001
1000
0001
0000
0110
0000
1001
0000
0010
1000
0010
0000
,
1100
0000
0011
0000
0100
1000
0100
0000
1001
0000
0110
0000
1000
0001
0010
0000
,
1001
0000
0101
0000
0010
0100
0010
0000
0011
0000
1001
0000
0100
0010
0001
0000
,
0011
0000
1100
0000
0001
1000
0001
0000
1001
0000
0110
0000
1000
0001
1000
0000
,
0110
0000
1001
0000
0010
1000
0010
0000
1100
0000
0011
0000
0100
0001
0100
0000
,
1001
0000
0110
0000
0001
1000
0001
0000
0010
0100
0010
0100
0010
0100
0010
0100
,
0010
0100
0010
0100
0010
0100
0010
0100
0010
0100
0010
0100
0010
0100
0010
0100
,
0001
0010
0001
1000
0100
1000
0010
0100
1001
0000
1001
0000
1000
0100
1000
0000
,
0110
0000
1001
0000
1000
0001
1000
0000
0110
0000
1001
0000
0100
0001
0100
0000
,
0011
0000
1100
0000
0010
0001
0010
0000
1001
0000
0110
0000
0001
1000
0100
0000
,
1001
0000
1010
0000
0100
0010
0100
0000
1100
0000
1001
0000
0010
0100
1000
0000
,
1100
0000
0011
0000
1000
0001
1000
0000
1001
0000
0110
0000
0001
1000
0001
0000
,
0110
0000
1001
0000
0100
0001
0100
0000
0011
0000
1100
0000
0010
1000
0010
0000
,
1001
0000
0110
0000
1000
0001
0010
0000
1100
0000
0011
0000
0100
0010
0100
0000
,
0011
0000
1001
0000
0010
1000
0010
0000
0100
1000
0001
1000
0100
0010
0001
1000
,
0001
0010
1000
0010
0100
0001
0100
1000
0011
0000
1100
0000
1000
0001
1000
0000
,
0011
0000
1100
0000
1000
0100
1000
0000
0011
0000
1100
0000
0001
0100
0001
0000
,
0110
0000
1001
0000
0010
0100
0010
0000
1100
0000
0011
0000
0100
1000
0001
0000
,
1100
0000
1010
0000
0001
0010
0001
0000
1001
0000
1100
0000
0010
0001
1000
0000
,
1001
0000
0110
0000
1000
0100
1000
0000
1100
0000
0011
0000
0100
1000
0100
0000
,
0011
0000
1100
0000
0001
0100
0001
0000
0110
0000
1001
0000
0010
1000
0010
0000
,
1100
0000
0011
0000
1000
0100
0010
0000
1001
0000
0110
0000
0001
0010
0001
0000
,
0110
0000
1100
0000
0010
1000
0010
0000
0001
1000
0100
1000
0001
1000
0100
1000
,
0100
0010
0001
0010
0100
0010
0100
1000
0110
0000
1001
0000
1010
0000
1100
0000
,
1010
1001
0101
0011
0101
1001
0110
1001
,
0110
0000
1001
0000
,
0110
0000
0000
0000
0000
0000
0000
0000
0020
0000
0000
0000
0000
0000
0000
0030
0020
0000
0000
0000
0000
0000
0000
0000
0230
0000
0000
0000
0000
0000
0000
0000
,
0302
0000
0000
0000
,
0113
0000
0000
0000
0000
0000
0000
0000
0200
0000
0000
0000
0000
0000
0000
0300
0200
0000
0000
0000
0000
0000
0000
0000
2300
0000
0000
0000
0000
0000
0000
0000
,
3002
0000
0000
0000
,
0113
0000
0000
0000
0000
0000
0000
0000
0020
0000
0000
0000
0000
0000
0000
0030
0020
0000
0000
0000
0000
0000
0000
0000
0230
0000
0000
0000
0000
0000
0000
0000
,
0302
0000
0000
0000
,
0113
0000
0000
0000
0000
0000
0000
0000
0200
0000
0000
0000
0000
0000
0000
0300
0200
0000
0000
0000
0000
0000
0000
0000
2300
0000
0000
0000
0000
0000
0000
0000
,
3011
0100
0010
1001
0000
0100
0001
1000
0110
0001
1000
0110
0001
1000
0010
0100
,
1001
1000
0100
0010
0001
1000
0100
0010
0001
1000
0100
0010
0001
1000
0100
0010
,
1001
0010
1000
0010
0001
0010
1000
0010
0001
0010
1000
0010
0001
0010
1000
0010
,
0101
0000
0001
0001
0101
0000
0010
0010
0110
0000
1000
1000
1100
0000
0001
0001
,
1001
0000
0010
0010
0110
0000
0100
0100
0110
0000
0010
0010
0110
0000
1000
1000
,
1100
0010
0001
0010
0100
1000
0100
0010
0001
1000
0100
0010
0001
1000
0100
0010
,
1001
0100
1010
0000
0101
1000
0010
0100
0001
1000
0010
0100
0001
1000
0010
0100
,
1001
0000
0001
0001
1001
0000
1001
0000
0000
0001
0001
0000
0001
0000
0001
0001
,
0001
0000
0001
0001
0010
0010
0010
0010
0100
0100
0100
0100
1000
1000
1000
1000
,
1002
0000
0000
0000
0000
0000
1003
0100
,
0010
0000
0000
0001
0000
0000
0010
0000
,
0001
0000
0010
0000
0001
0000
1000
0000
0000
0010
0000
0000
0100
0000
0000
1000
0000
0000
1000
0000
0000
1000
0000
0000
,
0020
0000
0000
0000
0000
0000
0000
0030
,
0001
0010
0100
0010
0000
0010
0000
0100
,
0001
0010
0100
0010
0000
0010
0000
0100
,
0001
0010
0100
0010
0100
1000
0001
0010
0100
0010
0100
1000
,
0001
0010
0001
0100
0010
0100
0001
0010
0001
0100
0010
0100
0020
0000
0000
0000
,
1030
0100
0010
1000
0001
0100
0010
1000
0001
0100
0010
0001
1000
0100
1000
0001
,
0010
0001
0010
0100
1000
0010
0100
0010
1000
0001
0100
0010
1000
0001
0100
0001
,
1000
0010
0100
0001
0100
0010
1000
0010
0100
0001
0100
0010
0100
1000
0100
0010
,
0002
0003
0100
1000
0002
0003
0010
1000
0020
0030
0100
1000
0020
0000
0000
0000
,
0031
1000
0010
0100
0001
1000
0010
0100
0001
1000
0010
0100
0001
1000
0010
0100
,
1000
0100
0010
0001
0100
0010
0100
0001
0010
0100
1000
0010
0100
0010
1000
0001
,
1000
0100
0010
0001
0010
0100
1000
0001
1000
0100
0010
0001
0010
0100
1000
0001
,
1000
0001
0100
0010
0100
0001
1000
0010
0100
0010
1000
0001
0100
0010
0100
0010
,
1000
0001
1000
0010
1000
0100
1000
0010
1000
0001
1000
0010
1000
0100
1000
0010
,
1000
0001
1000
0010
1000
0100
1000
0010
1000
0001
1000
0010
1000
0100
1000
0010
,
0001
1000
0001
0100
0001
1000
0001
0100
0001
1000
0001
0100
0001
1000
0001
0100
,
0001
1000
0100
0002
0000
0000
0000
0000
,
0013
1000
0010
0001
0000
0010
1000
0010
,
0001
0000
0010
1000
0001
0000
0010
0000
0000
0000
0100
0000
1000
0100
0010
0000
,
0001
1000
0100
0010
0100
1000
0001
1000
0100
0010
0100
1000
0100
0000
0010
0000
,
0100
1000
0100
1000
0010
1000
0100
1000
0100
0010
0001
0010
0100
1000
0100
0010
,
0001
0001
1000
0001
0000
1000
0002
0003
,
0010
0010
0100
0010
0000
0100
0002
0003
,
0010
0010
1000
0010
0000
1000
0100
0001
,
0010
0000
0100
0010
0100
0000
0010
0000
0010
0000
0100
0000
0000
0000
0000
0000
,
1000
0100
0010
1000
0100
0010
1000
0001
0010
0100
0001
0010
0100
0001
1000
0010
,
0100
0001
1000
0010
0100
0001
1000
0010
0100
0001
0100
0010
1000
0010
0100
0001
,
0100
1000
0001
0100
0010
1000
0001
0100
0010
1000
0001
0100
0010
1000
0100
0010
,
0001
1000
0001
1000
0010
1000
0001
1000
0010
1000
0001
1000
0001
1000
0100
0010
,
0001
0010
0001
0100
0010
0100
0001
0010
0001
0100
0010
0100
0001
1000
0001
0100
,
0010
0100
0001
1000
0001
0100
0010
0100
0001
0010
0100
1000
0001
0010
0100
1000
,
0010
0100
0010
1000
0100
1000
0001
0010
0001
1000
0100
1000
0001
0010
0001
0100
,
0010
0200
0000
0000
0000
0000
0000
0000
0301
0010
0001
0010
0001
0010
0001
0010
,
0100
0010
0100
0001
0100
0010
0100
0001
1000
0100
1000
0001
1000
0100
1000
0001
,
0010
0100
1000
0001
0010
0100
1000
0100
0010
0001
0100
0010
0100
0001
1000
0100
,
0010
0100
0010
1000
0010
0100
0001
0100
0010
0100
0001
0010
0100
1000
0100
0010
,
0001
1000
0001
1000
0001
1000
0001
1000
0001
0100
0001
0100
0001
0100
0001
0100
,
0001
0000
0110
0000
0001
1000
0001
0000
1010
0000
0101
0000
1000
0010
1000
0000
,
0110
0000
1001
0000
0100
0010
0100
0000
0101
0000
1010
0000
0010
1000
0010
0000
,
1001
0000
0110
0000
1000
0001
1000
0000
0101
0000
1010
0000
1000
0010
1000
0000
,
0011
0000
1100
0000
0001
1000
0001
0000
0110
0000
1001
0000
0100
0010
0100
0000
,
0001
1000
0001
0100
0010
0100
0001
1000
0001
0100
0010
0100
0001
0010
0100
1000
,
0001
0010
0100
1000
0010
1000
0010
1000
0001
0000
0001
0000
0010
0100
0010
0000
,
0001
1000
0001
0000
0100
0010
0100
0010
0001
0000
0010
0000
0100
0010
1000
0000
,
0001
0010
0100
1000
0001
0010
0100
1000
0001
0010
0100
1000
0001
0010
0100
1000
,
0002
0000
0000
0000
0000
0000
2003
3200
,
0320
0000
0000
0000
0000
0000
0032
0000
0000
0000
0000
0000
0023
0000
0000
0030
,
0100
0002
0000
0003
0000
0000
0010
0200
0000
0300
0000
0000
1000
0000
0000
0000
,
0020
0000
0000
0000
,
0230
0000
0000
0000
0000
0000
2300
3200
,
0320
0000
0000
0032
0000
0000
0023
0000
,
0031
1000
0001
1000
0001
1000
0001
1000
0001
1000
0001
1000
0001
1000
0001
1000
,
0001
1000
0001
1000
0001
1000
0001
1000
0001
0010
0100
1000
0001
0010
0100
1000
,
0110
0000
1001
0000
0100
0010
0100
0000
0101
0000
1010
0000
0010
1000
0010
0000
,
1100
0000
0011
0000
0001
0010
0001
0000
1010
0000
0101
0000
1000
0100
1000
0000
,
0110
0000
1001
0000
0100
0010
0100
0000
1001
0000
0110
0000
1000
0010
1000
0000
,
0110
0000
1001
0000
0100
0010
0100
0000
1001
0000
0110
0000
0001
1000
0010
0000
,
1100
0000
0011
0000
0100
0001
1000
0000
0101
0000
0011
0000
0100
0010
0100
0000
,
1001
0000
0011
0000
0100
0010
0100
0000
1001
0000
1010
0000
0100
0010
0100
0000
,
1010
0000
0101
0000
0010
1000
0010
0000
1100
0000
0011
0000
1000
0001
1000
0000
,
0001
0000
0010
0000
0100
0000
1000
0000
0000
0100
0000
0000
0001
0000
0010
0000
0100
0000
1000
0000
0000
0100
0000
0000
0001
0000
0010
0000
0100
0000
1000
0000
0000
0100
0000
0000
0001
0000
0000
0010
0000
0000
0100
0000
0000
1000
0000
0000
,
0101
0000
0100
0010
0100
0010
0100
0010
0100
0010
0100
0010
0100
0010
0100
0010
,
0101
0000
0001
0010
0001
0010
0101
0000
0010
0100
0010
0100
0010
0100
0010
0100
,
1010
0000
1000
0010
1000
0010
1000
0010
1000
0010
1000
0010
1000
0010
1000
0010
,
0101
0000
0100
0010
0100
0010
0101
0000
1000
0100
0010
0001
0010
0100
1000
0100
,
0011
0000
1000
0100
1000
0100
1000
0100
1000
0100
1000
0100
1000
0100
1000
0100
,
1010
0000
0100
0010
0100
0010
1001
0000
0010
0100
0010
0100
0010
0100
0010
0100
,
1001
0000
0110
0000
0100
0010
0100
0000
1001
0000
0110
0000
0001
1000
0001
0000
,
1000
0100
0010
0001
0010
0100
1000
0010
1000
0100
0010
0001
0010
0100
1000
0000
,
1001
1000
1010
0010
0110
0100
1100
1000
,
1001
0001
0101
0100
0110
0010
1010
1000
,
1001
0001
0101
0100
0110
0010
0011
0001
,
0010
0100
0010
0100
0010
0100
0010
0100
1001
0000
0000
0000
0000
0000
0000
0000
,
1000
0010
1000
0010
1000
0010
1000
0010
0100
0010
0100
0010
0100
0010
0100
0010
,
0100
1000
0100
1000
0100
1000
0100
1000
0100
0001
0100
0001
0100
0001
0100
0001
,
1000
0100
0010
0001
1000
0001
0100
0001
1000
0100
0010
0001
1000
0010
1000
0001
,
0110
0000
0000
0000
,
1001
0000
0110
0000
0100
0001
0100
0000
1001
0000
0110
0000
0100
0010
0100
0000
,
1001
0000
0110
0000
0001
0010
0001
0000
1010
0000
0101
0000
1000
0010
1000
0000
,
0110
0000
1001
0000
0010
0100
0001
0000
0110
0000
1100
0000
0001
1000
0001
0000
,
0101
0000
0110
0000
1000
0001
0100
0000
0101
0000
1010
0000
0100
0010
0100
0000
,
0110
0000
1001
0000
0010
0100
0010
0000
1001
0000
0110
0000
0001
0010
0001
0000
,
1010
0000
0101
0000
1000
0100
1000
0000
0110
0000
1001
0000
0100
0010
1000
0000
,
0101
0000
1010
0000
0001
1000
0001
0000
1010
0000
0110
0000
1000
0100
1000
0000
,
0001
0010
0001
0100
0010
0100
0001
0010
0001
0010
0100
1000
0001
1000
0100
0010
,
1001
0000
0110
0000
0010
1000
0010
0000
1001
0000
0110
0000
0010
0100
0010
0000
,
1001
0000
0110
0000
1000
0100
1000
0000
0101
0000
1010
0000
0001
0100
0001
0000
,
0110
0000
1001
0000
0100
0010
1000
0000
0110
0000
0011
0000
1000
0001
1000
0000
,
1010
0000
0110
0000
0001
1000
0010
0000
1010
0000
0101
0000
0010
0100
0010
0000
,
0110
0000
1001
0000
0100
0010
0100
0000
1001
0000
0110
0000
1000
0100
1000
0000
,
0101
0000
1010
0000
0001
0010
0001
0000
0110
0000
1001
0000
0010
0100
0001
0000
,
0010
0100
0010
0100
0010
0100
0010
0100
0010
0100
0010
0100
0010
0100
0010
0100
,
0010
0100
0010
0100
0010
0100
0010
0100
0001
0010
0100
1000
0001
0010
0100
1000
,
0110
0000
1001
0000
0100
0010
0100
0000
1010
0000
0101
0000
1000
0010
1000
0000
,
0101
0000
1010
0000
0100
0001
0100
0000
0011
0000
1100
0000
0001
1000
0001
0000
,
0110
0000
1001
0000
0100
0010
0100
0000
0101
0000
1010
0000
0100
0010
0100
0000
,
1001
0000
0110
0000
0001
1000
0001
0000
1010
0000
0101
0000
1000
0100
0010
0000
,
1100
0000
0011
0000
0100
0010
0001
0000
0110
0000
1001
0000
0100
0010
0100
0000
,
1001
0000
0101
0000
0010
1000
0010
0000
1010
0000
0110
0000
0010
1000
0100
0000
,
1001
0000
0011
0000
1000
0100
1000
0000
1001
0000
1100
0000
0001
0010
0001
0000
,
1000
0010
1000
0100
0010
0100
0010
0001
0010
0100
1000
0100
0010
0100
0010
0100
,
1001
0000
0110
0000
1000
0001
1000
0000
0110
0000
1001
0000
0010
0100
0010
0000
,
1010
0000
0101
0000
0010
1000
0010
0000
1100
0000
0110
0000
0001
1000
0001
0000
,
0110
0000
0101
0000
0010
0100
0010
0000
1010
0000
0110
0000
0001
1000
0010
0000
,
1100
0000
0011
0000
1000
0100
1000
0000
0101
0000
1001
0000
0010
0100
0010
0000
,
1001
0000
0011
0000
1000
0001
1000
0000
1100
0000
1001
0000
0010
0100
1000
0000
,
0101
0000
1010
0000
0100
0001
0100
0000
0011
0000
0110
0000
1000
0001
1000
0000
,
0110
0000
1010
0000
0100
0010
0100
0000
0101
0000
0110
0000
1000
0001
0100
0000
,
0001
0010
0001
0010
0100
1000
0100
1000
0100
0010
0001
0010
0100
0010
0100
0010
,
1001
1010
1100
1010
1001
0101
0011
0101
,
1001
0110
1010
0101
1001
0000
0000
0000
,
1010
0000
2002
0000
,
0000
0000
0000
0000
,
0000
0000
0000
0000
,
0000
0000
0000
0000
,
3003
0000
0000
0000
;
