#TITLE:Walking In The Sky;
#SUBTITLE:;
#ARTIST:Dj Encore Ft.Engelica;
#TITLETRANSLIT:;
#SUBTITLETRANSLIT:;
#ARTISTTRANSLIT:;
#CREDIT:;
#BANNER:;
#BACKGROUND:;
#LYRICSPATH:;
#CDTITLE:;
#MUSIC:DJ_Encore_feat._Engelina_-_Walking_In_The_Sky.ogg;
#OFFSET:0.055;
#SAMPLESTART:63.011;
#SAMPLELENGTH:12.000;
#SELECTABLE:YES;
#BPMS:0.000=68.500,44.000=137.000,395.000=68.500;
#STOPS:;
#BGCHANGES:;
// cache tags:
#FIRSTBEAT:3.000;
#LASTBEAT:396.000;
#SONGFILENAME:Songs/toune 8/Walking In The Sky/DJ_Encore_feat._Engelina_-_Walking_In_The_Sky.sm;
#HASMUSIC:1;
#HASBANNER:0;
#MUSICLENGTH:105.000;
// end cache tags

//---------------dance-single - Blank----------------
#NOTES:
     dance-single:
     Blank:
     Hard:
     11:
     1.000,1.000,0.562,1.000,1.000,818.000,59.000,194.000,87.000,6.000:

0000
0000
0000
2000
,
3002
2003
3200
2300
,
3002
0203
0302
2003
,
3001
0000
0010
0000
1000
0001
0000
0002
0000
0000
0103
0010
1000
0001
1000
0000
,
0100
0000
0010
0000
0010
0100
0000
0100
0000
0100
0000
0100
0000
0001
0010
0000
,
0001
0000
0100
0000
0010
2000
0000
0000
3001
1000
0100
1000
0001
0000
0010
0000
,
0100
0000
1000
0000
0010
0100
0000
0100
0000
0100
0000
0100
0000
0100
0001
0000
,
0020
0030
0020
0030
0002
0203
0000
0000
0300
0000
0100
0010
1000
0100
0010
0002
,
0100
0000
0103
0000
0010
1000
0000
1000
0000
1000
0000
1000
0000
1000
0100
0000
,
1000
0000
0010
0000
0100
0001
0000
0001
0000
0001
0100
0010
1000
0000
0100
0000
,
1000
0000
0001
0000
1000
0001
0000
0001
0000
0001
0000
0001
0000
0001
0010
0000
,
1001
0000
0000
0100
0010
0002
0000
0003
,
1000
0020
0000
0030
1000
0200
0010
0300
,
0101
0000
0010
1002
0000
2003
0000
3200
,
0000
0320
0000
0032
0000
0203
0010
0300
,
1001
0000
0000
0100
0020
2030
0000
0000
,
3002
0203
0000
0000
0302
0023
0001
0030
,
0101
0000
0100
1100
0000
0001
0100
0020
,
0000
2030
0000
3200
0000
0320
0001
0130
,
0101
0010
1000
0100
1100
1000
0001
0100
,
0101
0010
1000
0010
1001
0100
0001
0100
,
0101
0010
1000
0100
1100
1000
0001
0100
,
0101
0001
0010
0100
0110
0010
0100
1000
,
0101
0010
0100
0001
1001
0100
0010
0001
,
1010
0000
0100
0000
0010
0000
0100
0000
1001
0000
1001
0000
0010
0100
0001
0010
,
0100
1000
0010
0100
0001
0010
0001
0100
0010
1000
0100
0000
1000
0000
0001
0000
,
0100
0000
0000
0010
0000
0000
0000
0000
0000
0010
0000
0000
1000
0000
0000
0000
0000
0000
1000
0000
0010
0000
0100
0000
0001
0000
1000
0000
0010
0000
1000
0000
0001
0000
1000
0000
0100
0000
0000
0000
0000
0000
0000
0000
0000
0000
0000
0000
,
1002
0000
0003
0000
0201
0000
0300
0000
2001
0000
3020
0000
0030
00M0
0020
0000
,
0030
00M0
0020
0000
0030
00M0
0020
0000
0030
00M0
0020
0000
2031
0000
3000
M000
,
2000
0000
3000
M000
2000
0000
3000
M000
2100
0000
3200
0000
0300
0M00
0200
0000
,
0300
0M00
0200
0000
0300
0M00
0200
0000
0300
0M00
0200
0000
1302
0000
0003
000M
,
0002
0000
0003
000M
0002
0000
0003
000M
0102
0000
0203
0000
0300
0M00
0200
0000
,
0300
0M00
0200
0000
0300
0M00
0200
0000
0300
0M00
0210
00M0
0320
0000
0030
00M0
,
0020
0000
0030
00M0
0020
0000
0030
00M0
0020
0000
2031
0000
3000
M000
2000
0000
,
3000
M000
2000
0000
3000
M000
2000
0000
3000
M000
2100
0M00
3200
0000
0300
0M00
,
0200
0000
0300
0M00
0200
0000
0300
0M00
0200
0000
1302
0000
0003
000M
0002
0000
,
0003
000M
0002
0000
0003
000M
0002
0000
0003
000M
0012
00M0
0023
0000
0030
00M0
,
0020
0000
0030
00M0
0020
0000
0030
00M0
0120
0M00
0230
0000
0300
0M00
0200
0000
,
0300
0M00
0200
0000
0300
0M00
0200
0000
0300
0M00
0200
0000
1302
0000
0003
0000
,
2010
0000
3000
0000
0210
0000
0300
0000
0201
000M
0302
0000
0003
000M
0002
0000
,
0003
000M
0002
0000
0003
000M
0002
0000
0003
000M
0102
0M00
0203
0000
0300
0M00
,
0200
0000
0300
0M00
0200
0000
0300
0M00
0200
0000
0300
0000
0002
0000
2003
0000
,
3002
2003
3002
2003
3002
1003
1001
0000
,
0200
0300
2001
3000
0020
0230
0000
0300
,
1001
0000
0100
0001
0010
0001
1000
0200
,
0010
0000
0010
0000
0010
0010
0000
0010
,
0000
0010
0010
0010
0000
0010
0010
0000
,
0320
0000
2030
0000
3002
0023
0001
0030
,
1001
0100
0010
0100
2000
0000
0100
0000
,
0100
0000
0100
0000
0100
0100
0000
0100
,
0000
0100
0100
0100
3000
0100
1001
0000
,
0002
0000
0203
0000
0320
2030
0100
3000
,
1010
0000
0001
0010
0100
1000
0010
0200
,
0010
0000
0010
0000
0010
0010
0000
0010
,
0000
0010
0000
0010
0000
0010
0310
0000
,
1000
0001
0020
0000
0032
0203
0000
0000
,
0310
0100
0010
1000
0002
0000
0100
0000
,
0100
0000
0100
0000
0100
0100
0000
0103
,
0100
0010
1000
0100
1000
0010
1000
0001
0100
0001
0010
0001
0100
0000
0000
0000
,
1002
0003
0210
0310
1000
0002
1000
0000
,
0203
0320
0001
0000
2030
3200
0000
0310
,
1001
0000
0020
2030
0000
3200
0000
0320
,
0000
0032
0000
0023
0000
0230
0000
1300
,
1020
0000
0230
0302
1000
2003
0000
0000
,
3200
0320
0000
0000
0032
0203
0000
0310
,
1002
0000
2103
3100
1000
0001
0020
0032
,
0000
2003
0000
3020
0000
2030
0001
0000
,
0001
0000
0000
0000
3001
0000
0001
0000
0010
0001
1000
0001
0010
0001
1000
0010
,
0100
0001
1000
0100
0010
0001
0100
0010
1000
0100
1000
0010
0100
0001
0010
0100
,
1000
0100
0010
0001
0100
0010
1000
0100
0010
0100
1000
0010
0100
0001
0010
0100
,
1000
0100
1000
0100
0010
0001
0010
0001
0010
0100
1000
0010
0100
0001
1000
0001
,
1000
0001
1000
0001
1000
0010
1000
0010
1000
0010
1000
0010
1000
0001
0010
0001
,
0010
0001
0010
0001
0100
0001
0100
0001
0100
0001
0100
0001
0010
0001
0010
0001
,
0010
0001
0010
0001
1000
0001
1000
0001
1000
0001
1000
0001
1000
0000
0100
0000
,
0010
0000
0000
0000
0000
0000
0001
0000
0000
0100
0000
0000
0000
0000
0000
0100
0000
0000
0010
0000
1000
0000
0100
0000
0010
0000
0001
0000
0010
0000
0100
0000
1000
0000
0100
0000
0020
0000
0000
0000
0000
0000
0030
0000
0000
0000
0000
0000
,
2001
0000
3000
0000
1020
0000
0030
0000
0201
000M
0302
0000
0003
000M
0002
0000
,
0003
000M
0002
0000
0003
000M
0002
0000
0003
000M
1002
M000
2003
0000
3000
M000
,
2000
0000
3000
M000
2000
0000
3000
M000
1010
00M0
0020
0000
0030
00M0
0020
0000
,
0030
00M0
0020
0000
0030
00M0
0020
0000
0030
00M0
0120
0M00
0230
0000
0300
0M00
,
0200
0000
0300
0M00
0200
0000
0300
0M00
1200
M000
2300
0000
3000
M000
2000
0000
,
3000
M000
2000
0000
3000
M000
2000
0000
3000
M000
2010
00M0
3020
0000
0030
00M0
,
0020
0000
0030
00M0
0020
0000
0030
00M0
0021
000M
0032
0000
0003
000M
0002
0000
,
0003
000M
0002
0000
0003
000M
0002
0000
0003
000M
1002
M000
2003
0000
3000
M000
,
2000
0000
3000
M000
1000
0001
0100
0001
1000
0010
1000
0100
1000
0001
0100
0001
,
0010
0001
1000
0010
1000
0100
1000
0001
0010
0100
1000
0001
1000
0100
0010
0001
,
0100
0010
1000
0100
0010
0100
1000
0100
0010
0100
1000
0001
1000
0001
0100
0010
,
0100
0010
1000
0001
1000
0001
0010
0100
1000
0001
1000
0001
0010
0100
1000
0001
,
1000
0100
0010
0001
0100
0010
1000
0001
0100
0010
1000
0100
1000
0100
1000
0010
,
1000
0010
1000
0001
0010
0001
0010
0001
0100
0001
0100
0001
0100
0010
0100
0010
,
0100
0001
0010
0100
0010
0001
0100
0010
1000
0100
0010
0001
0010
0100
1000
0100
,
0010
0001
0100
0010
1000
0100
1000
0010
0100
0001
0010
0100
1000
0001
0100
0001
,
0010
0001
1000
0010
1000
0100
1000
0001
0100
0001
0010
0001
1000
0001
1000
0001
,
1000
0001
1000
0001
1000
0100
1000
0100
1000
0100
1000
0100
1000
0001
0100
0001
,
0100
0001
0100
0001
0100
0010
0100
0010
0100
0010
0100
0010
0100
0001
0010
0100
,
0010
0001
0100
0010
1000
0100
0010
0001
0100
0010
1000
0100
1000
0010
0100
0001
,
0010
0100
1000
0010
0100
0001
1000
0010
0100
0001
1000
0010
1000
0100
1000
0001
,
0100
0001
0010
0001
1000
0010
1000
0100
1000
0001
1000
0001
0100
0010
0100
0010
,
1000
0001
1000
0001
0010
0100
1000
0001
1000
0001
0010
0100
1000
0001
1000
0001
,
0010
0000
0000
0100
0000
0000
1000
0000
0000
0010
0000
0000
0100
0000
0001
0000
0010
0000
0100
0000
0010
0000
0001
0000
0100
0000
0010
0000
1000
0000
0100
0000
1000
0000
0100
0000
2000
0000
0000
0000
0000
0000
0000
0000
0000
0000
0000
0000
,
3000
0000
0000
0000
;
