#TITLE:Zero Opening Stage;
#SUBTITLE:Mega Man X4;
#ARTIST:Toshihiko Horiyama;
#TITLETRANSLIT:;
#SUBTITLETRANSLIT:;
#ARTISTTRANSLIT:;
#CREDIT:;
#BANNER:zero-bn.png;
#BACKGROUND:zero-bg.png;
#LYRICSPATH:;
#CDTITLE:cdtitle.png;
#MUSIC:Zero.ogg;
#OFFSET:-0.500;
#SAMPLESTART:7.458;
#SAMPLELENGTH:11.620;
#SELECTABLE:YES;
#BPMS:0.000=138.090;
#STOPS:;
#BGCHANGES:;
// cache tags:
#FIRSTBEAT:15.000;
#LASTBEAT:211.500;
#SONGFILENAME:Songs/keyboard/Mega Man X4 - Zero (Sky Lagoon) [neothe0ne]/Zero (for StepMania 4 and ITG).sm;
#HASMUSIC:1;
#HASBANNER:1;
#MUSICLENGTH:92.800;
// end cache tags

//---------------dance-single - neothe0ne----------------
#NOTES:
     dance-single:
     neothe0ne:
     Hard:
     8:
     0.500,0.484,0.183,0.517,0.092,260.000,17.000,48.000,7.000,6.000:
0000
0000
0000
0000
,
0000
0000
0000
0000
,
0000
0000
0000
0000
,
0000
0000
0000
1001
,
1000
0001
0100
1000
0100
0010
0001
0100
,
1000
0010
0001
0010
0100
1000
0100
0010
,
0100
1000
0001
0100
0010
0001
0100
1000
,
0100
0010
1000
0100
0001
0010
0100
1000
,
0001
0010
0100
1000
0100
0010
0001
0010
,
0100
1000
1000
1000
0100
0010
0001
0010
,
0001
0100
1000
0100
0001
0010
0100
1000
,
0001
0010
0100
1000
0001
0000
1001
0000
,
1000
0010
0002
0000
2000
0003
0200
3000
,
0020
0300
0000
0002
0000
0000
0000
0033
,
1001
0200
0320
0032
,
2003
0000
0000
0002
0000
0000
0010
3003
,
0101
2000
3200
0320
,
0032
0000
0000
2000
0000
0000
0100
0020
,
0000
0000
0000
3033
,
2000
0000
0000
0000
3100
0010
0001
0000
,
1001
0000
1000
0010
0001
0000
0100
0001
,
1000
0000
0010
1000
0100
0000
1001
0000
,
0110
0000
1000
0010
0001
0000
0010
1000
,
0100
0000
0010
0100
1000
0000
1001
0000
,
1000
0000
1000
0010
0000
0010
0001
0000
0010
1000
0000
1000
,
0100
0000
0100
0010
0000
0010
0001
0000
0100
1000
0000
0100
,
0010
0000
0000
0100
0000
0000
0002
0000
1000
0000
0003
0000
0000
0000
0100
0010
,
0002
0000
0000
0000
,
0000
0000
0003
0000
1001
0000
1000
0001
,
1000
0100
0001
1000
0100
0001
0100
0100
,
0100
0100
0100
0010
0001
0100
0010
0001
,
0010
0100
1000
1000
0100
0010
0001
0010
,
1000
0010
0001
0010
2000
0000
3200
0000
,
0320
0000
0031
0100
0010
0001
1000
0010
,
0001
0100
1000
0100
1000
0010
1000
0010
,
0010
0010
0001
0100
1000
0010
1000
0010
,
1000
0110
1001
0200
,
0320
0000
0032
0000
0203
0000
0000
2000
,
0300
0000
0002
3203
,
0320
0000
0032
0000
2000
0000
0003
020M
,
3000
M000
0020
0300
0M30
0000
2002
0000
,
3223
0000
2330
0000
3200
0000
0000
0020
,
0300
0000
0001
2000
0030
0000
0000
0000
,
0000
0000
0000
0000
0002
0000
0000
3003
,
1000
0010
1000
0000
1001
0000
0100
0010
,
0001
0000
0010
0100
1000
0000
1000
0100
,
0010
0000
1001
0000
0110
0000
1000
0010
,
0100
0000
0010
0100
1000
0000
0100
1000
,
0001
0000
0000
0000
0000
0000
1000
0000
0000
0001
0000
0000
1000
0000
0000
0000
1000
0000
0100
0000
0000
0000
0100
0000
,
0010
0000
0010
0001
0000
0001
0010
0000
1000
0100
0000
0010
,
0001
0000
1001
0000
2000
0002
3000
0203
,
0020
0000
0000
0000
0300
0000
1030
0100
0002
0000
0000
0000
0000
0000
0000
0000
,
0000
0000
0000
0000
0000
0000
0003
MMMM
;

//---------------dance-single - neothe0ne----------------
#NOTES:
     dance-single:
     neothe0ne:
     Challenge:
     13:
     0.607,0.912,0.183,0.517,0.485,328.000,17.000,48.000,11.000,12.000:
0000
0000
0000
0000
,
0000
0000
0000
0000
,
0000
0000
0000
0000
,
0000
0000
0000
1001
,
1000
0001
0100
1000
0100
0010
0001
0100
,
1000
0010
0001
0010
0100
1000
0100
0010
,
0100
1000
0001
0100
0010
0001
0100
1000
,
0100
0000
0010
0000
1000
0000
0001
0010
0100
0000
0000
0000
0M0M
0000
0000
0000
,
0001
0010
0100
1000
0100
0010
0001
0010
,
0100
1000
1000
1000
0100
0010
0001
0010
,
0001
0000
0100
0000
1000
0000
0100
0010
0001
0000
0010
0000
1000
0000
0100
0010
,
0001
0010
1000
0100
0001
0000
1001
0000
,
1000
0100
0010
0000
0002
0000
0000
0000
2000
0000
0003
0000
0200
0000
3000
0000
,
0020
0300
0000
0002
0000
0000
0000
0033
,
1001
0200
0320
0032
,
2003
0000
0000
0002
0000
0000
0010
3MM3
,
0101
2000
3200
0320
,
0032
0000
0000
2000
0000
0000
0100
0020
,
0000
0000
0000
3033
,
2000
0000
0000
0000
0000
0000
0000
0000
3100
0010
0001
0000
0010
0000
0000
0000
,
1001
0000
0000
0000
1000
0100
0010
0000
1000
0000
0000
0000
0100
0010
0001
0000
,
1000
0000
0000
0000
0010
0001
1000
0000
0100
0000
0000
0000
1001
0000
0000
0000
,
0110
0000
0000
0000
1000
0100
0010
0000
0001
0000
0000
0000
0010
0100
1000
0000
,
0100
0000
0000
0000
0010
0001
0100
0000
1000
0000
0000
0000
1001
0000
0000
0000
,
1000
0000
1000
0010
0000
0010
0001
0000
0010
1000
0000
1000
,
0100
0000
0100
0010
0000
0010
0001
0000
0100
1000
0000
0100
,
0010
0000
0000
0000
0000
0000
0000
0000
0000
0100
0000
0000
0000
0000
0000
0000
0000
0000
0020
0000
0000
0000
0000
0000
1000
0000
0000
0000
0000
0000
0000
0000
0030
0000
0000
0000
0100
0000
0000
0000
0000
0000
0001
0000
0000
0010
0000
0000
,
0200
0000
0000
0000
,
0000
0000
0000
0000
0300
0000
0000
0000
1001
0000
0000
0000
1000
0001
1000
0001
,
1000
0000
0000
0000
0001
0000
1000
0000
0100
0010
0001
0010
0100
0010
0100
1000
,
0100
1000
0100
1000
0100
0010
0001
0010
0100
1000
0000
0000
0010
0000
0000
0001
,
0010
0100
0010
0100
1000
0100
1000
0100
0010
0001
0010
0100
0010
0100
0010
0100
,
1000
0100
0010
0001
0010
0100
0010
0100
2000
0000
0000
0000
3200
0000
0000
0000
,
0320
0000
0000
0000
0031
0010
0100
1000
0100
0010
0001
0100
1000
0100
0010
0001
,
0010
0100
1000
0100
1000
1000
0100
0010
1000
0100
0010
0001
1000
0100
0010
0001
,
0010
0100
0010
0100
0001
0010
0100
0010
1000
0100
0010
0001
1000
0100
0010
0001
,
4000
0400
0000
0000
0000
0000
3300
0000
1001
0000
0000
0000
0200
0000
0000
0000
,
0320
0000
0032
0000
0203
0000
0000
2000
,
0300
0000
0002
3203
,
0320
0000
0032
0000
2000
0000
0000
0200
,
0000
0000
3023
M30M
0M30
0000
2002
0000
,
3223
0000
2330
0000
3200
0000
0000
0020
,
0000
0000
0001
2000
0330
0000
0000
0000
,
0000
0000
0000
0000
0002
0000
0000
3003
,
1000
0001
1000
0001
1000
0000
0000
0000
1001
0000
0000
0000
1000
0001
1000
0001
,
1000
0000
0000
0000
0100
0001
0010
0001
0010
0000
0000
0000
1000
0010
0100
0001
,
0010
0000
0000
0000
1001
0000
0000
0000
0110
0000
0000
0000
1000
0001
0010
1000
,
0100
0000
0000
0000
0010
0001
0100
0010
1000
0000
0000
0000
0100
0010
1000
0100
,
0001
0000
0000
0000
1000
0000
0001
0000
1000
0000
0000
0000
1000
0100
1000
0100
,
1000
0000
0000
0000
0100
0010
0100
0010
0100
0000
0000
0000
0001
0010
0001
0010
,
0001
0000
1001
0000
2000
0002
0000
0200
,
3020
0000
0000
0000
0303
0000
1030
0100
0002
0000
0000
0000
0000
0000
0000
0000
,
0000
0000
0000
0000
0000
0000
0000
0000
0000
0000
0000
0000
0000
0000
0000
0000
0000
0000
0000
0000
0000
0000
0000
0000
1000
0000
0000
0000
0000
0000
M000
0000
0000
0M00
0000
0000
0003
0000
0000
0000
00M0
0000
000M
0000
0000
0000
0000
0000
;
