#TITLE:The Obese Legend of Jacob;
#SUBTITLE:;
#ARTIST:Kid Covington;
#TITLETRANSLIT:;
#SUBTITLETRANSLIT:;
#ARTISTTRANSLIT:;
#CREDIT:;
#BANNER:The Obese Legend of Jacob.png;
#BACKGROUND:The Obese Legend of Jacob- bg.png;
#LYRICSPATH:;
#CDTITLE:HS2logo.png;
#MUSIC:The Obese Legend of Jacob.ogg;
#OFFSET:-0.015;
#SAMPLESTART:40.940;
#SAMPLELENGTH:13.500;
#SELECTABLE:YES;
#BPMS:0.000=140.000,52.000=70.000,56.000=140.000,116.000=70.000,118.000=140.000;
#STOPS:;
#BGCHANGES:;
// cache tags:
#FIRSTBEAT:4.000;
#LASTBEAT:245.500;
#SONGFILENAME:Songs/stepmix .10/The Obese Legend of Jacob/The Obese Legend of Jacob.sm;
#HASMUSIC:1;
#HASBANNER:1;
#MUSICLENGTH:108.650;
// end cache tags

//---------------dance-single - ----------------
#NOTES:
     dance-single:
     :
     Hard:
     9:
     0.573,0.650,0.166,0.267,0.281,389.000,18.000,29.000,18.000,0.000:
0000
0000
0000
0000
,
0001
0000
0000
0001
1000
0000
0000
1000
0001
0000
0010
0000
0010
0000
0000
0000
,
0100
0000
0000
0100
1000
0000
0000
1000
0001
0000
0010
0000
0010
0000
0000
0000
,
0100
0000
0000
0100
0010
0000
0000
0010
0001
0000
1000
0000
1000
0000
0000
0000
,
0010
0000
0000
0010
0100
0000
0000
0100
0010
0000
1000
0000
0001
0000
0000
0000
,
2000
0000
0000
3010
0100
0010
0100
0000
,
0002
0000
0000
0013
0100
0010
0100
0000
,
2000
0000
0000
3001
0100
0001
0100
0000
,
0002
0000
0000
1003
0100
1000
0010
0000
,
0100
0001
1000
0010
0100
0001
1000
0100
,
0010
0010
1001
0000
0100
0100
1001
1001
,
0010
0100
0010
0100
0001
1000
0001
1000
,
0100
0001
0100
1000
0010
0001
0010
1000
,
0020
0000
0000
M00M
0M00
0000
0000
0000
000M
0000
M000
0000
0000
0000
0M00
0000
M000
0000
0M0M
0000
0000
0000
000M
0000
M000
0000
0M00
0000
000M
0000
0000
0000
MM00
0000
0000
0000
0M00
0000
M00M
0000
0000
0000
0030
0000
0000
0000
0000
0000
,
1000
0100
1000
0001
1000
0100
1000
0001
,
1000
0100
1000
0001
1000
0100
0010
0000
,
0001
0010
0001
1000
0001
0010
0001
1000
,
0001
0010
0001
1000
0001
0010
0100
0100
,
0010
1000
0010
0100
0010
1000
0010
0100
,
0010
1000
0010
0100
0010
1000
0002
0000
,
1003
0100
1000
0100
1000
0000
0010
0100
0000
0010
0100
0000
0001
0000
0000
0000
,
0100
0001
0100
0001
0100
0000
0001
1000
0000
0001
1000
0000
0002
0000
0003
0000
,
2000
0000
3000
0010
0000
0020
0000
0030
,
0200
0000
0300
0001
0000
0002
0000
0003
,
1000
0010
0200
0000
0000
0000
0301
0000
,
1000
0010
0100
0010
0000
0001
0010
0000
,
1001
0000
0000
0110
0000
1100
0011
0000
,
0110
0000
0000
1001
0000
0101
1010
0000
,
0001
1000
0001
1000
0001
1000
0001
1000
0001
1000
0001
1000
0020
0000
0000
0030
,
0001
0000
0010
0000
1000
0000
0100
0000
0001
0000
0000
0001
0100
0000
0000
0100
,
0010
0000
1000
0000
1000
0000
0000
0000
0010
0000
0000
0010
0100
0000
0000
0100
,
0001
0000
1000
0000
1000
0000
0000
0000
0001
0000
0000
0001
1000
0000
0000
1000
,
0010
0000
0100
0000
0100
0000
0000
0000
1000
0000
0000
1000
0001
0000
0000
0001
,
1000
0100
0010
0000
0200
0000
0000
1300
,
0001
1000
0001
0000
0020
0000
0000
1030
,
0001
1000
0001
0000
0200
0000
0000
0310
,
0001
0010
0001
0000
0020
0000
0000
0130
,
0001
0000
0100
0000
1000
0000
0000
0000
0001
0010
0100
0000
1000
0000
0010
0000
,
0100
0001
1000
0010
0100
0010
0100
0001
,
1000
0000
0010
0000
0100
0000
0001
0000
1000
0010
0100
0000
0002
0000
0000
0000
,
0003
1100
0001
2000
,
3000
0000
0001
1000
0001
0000
0010
0100
,
0001
0000
0000
0000
0010
0100
1000
0000
0001
0000
0000
0000
0010
0000
0100
0000
,
0001
0000
0000
0000
0010
0100
1000
0000
0001
0000
0000
0000
2000
0000
0000
0000
,
3200
0302
0023
1030
,
1010
0000
0000
0000
0101
0000
0000
0000
0001
0000
0000
0001
1000
0000
0000
1000
,
0001
0000
0010
0000
0010
0000
0000
0000
0100
0000
0000
0100
1000
0000
0000
1000
,
0001
0000
0010
0000
0010
0000
0000
0000
0100
0000
0000
0100
0010
0000
0000
0010
,
0001
0000
1000
0000
1000
0000
0000
0000
0010
0000
0000
0010
0100
0000
0000
0100
,
0010
1000
0001
0000
2000
0000
0000
3010
,
0100
0010
0100
0000
0002
0000
0000
0013
,
0100
0010
0100
0000
2000
0000
0000
3001
,
0100
0001
0100
0000
0002
0000
0000
1003
,
0100
1000
0010
0000
0100
0000
0100
0010
,
0100
0010
0100
0000
0010
0000
0000
0000
0100
0000
0000
0000
0100
0000
0010
0000
,
0100
0010
0100
0000
0010
0000
0000
0000
1001
0000
0000
0000
1001
0000
0100
0000
,
0010
0100
0010
0000
0100
0000
0000
0000
1001
0000
0000
0000
1001
0000
0100
0000
,
0010
0100
0010
0000
0200
0000
0000
0000
0301
0000
0000
0000
0100
0000
0001
0000
,
0010
1000
0010
0000
0100
0000
0000
0000
1000
0000
0000
0000
0010
0000
0100
0000
,
0001
1000
0001
0000
0100
0000
0000
0000
0001
0000
0000
0000
1000
0000
0010
0000
,
0100
0010
0100
0000
0001
0000
1000
0000
0200
0000
0000
0000
0301
0000
0010
0000
,
0001
0100
0010
0000
1000
0000
0100
0000
0000
0000
0000
0000
0000
0000
0000
0000
;

//---------------dance-single - ----------------
#NOTES:
     dance-single:
     :
     Easy:
     3:
     0.225,0.254,0.028,0.000,0.000,168.000,3.000,0.000,0.000,0.000:
0000
0000
0000
0000
,
1000
0000
1000
0000
,
0010
0000
0010
0000
,
0100
0000
0100
0000
,
0001
0000
0001
0000
,
1000
0010
1000
0010
,
0100
0000
0100
0000
,
0010
0001
0010
0001
,
1000
0000
1000
0000
,
0100
0100
0100
0000
,
0010
0010
0010
0000
,
0001
0001
0001
0001
,
1000
1000
1000
0000
,
1001
0000
0000
0000
,
0010
0000
0010
0000
,
0010
0100
0001
0001
,
1000
0000
1000
0000
,
1000
0010
0100
0001
,
0010
0000
0010
0000
,
0010
0100
1000
0010
,
0100
0000
0010
0000
,
0001
0100
1000
0000
,
1001
0000
0010
0000
,
0100
0000
1000
0000
,
0110
0000
0001
0000
,
1000
0010
0100
0001
,
1000
1000
1000
0000
,
0010
0010
0010
0000
,
0100
0000
0001
0000
,
0000
0000
1000
0000
,
0010
0000
0100
0100
,
0001
0000
1000
0000
,
0010
0000
0100
0100
,
0100
0000
0010
0000
,
0010
0000
0010
0010
,
0010
0000
0010
0010
,
0010
0010
0010
0010
,
0010
0010
0010
0001
,
1000
0100
1000
0010
,
0100
0001
0100
0010
,
1000
0100
0010
0001
,
0000
1000
0010
0100
,
0001
1000
0001
1000
,
0010
0000
0010
0100
,
0001
0000
1000
0100
,
0001
0000
0001
0100
,
1000
0000
1000
0100
,
0001
0000
1000
0100
,
0001
0000
0001
0010
,
1000
0000
0100
0010
,
0010
0000
0001
0100
,
0100
0000
0010
1000
,
1000
0000
0100
0001
,
1000
0000
0010
0000
,
0010
0000
0010
0000
,
0010
0000
0100
0000
,
0100
0000
0001
0000
,
1000
0000
0010
0000
,
0100
0000
0100
0000
,
0100
0000
0010
0000
,
1000
0000
0010
0100
,
0010
0100
0000
0000
;

//---------------dance-single - ----------------
#NOTES:
     dance-single:
     :
     Medium:
     7:
     0.375,0.424,0.120,0.028,0.000,269.000,13.000,3.000,0.000,0.000:
0000
0000
0000
0000
,
1000
0000
0100
0000
1000
0010
1000
0000
,
0100
0000
1000
0000
0010
1000
0100
0000
,
1000
0000
0010
0000
1000
0100
1000
0000
,
0010
0000
1000
0000
0100
1000
0010
0000
,
0001
0001
0001
1000
,
0001
0001
0001
1001
,
0001
0000
0001
0000
0001
0010
0001
0000
,
1000
0000
0100
0000
0010
0001
1000
0000
,
0010
0100
0010
0000
1000
0100
1000
0000
,
0001
0000
0010
0000
0100
0100
0100
0000
,
1000
0000
0010
0000
0100
0010
0100
0000
,
0001
0000
1000
0000
0001
1000
0001
0000
,
1000
0001
1000
0010
,
1000
0000
0000
0000
0000
0100
0000
0000
,
1000
0000
0000
0000
0000
0010
0000
0000
,
0100
0000
0000
0000
0000
0001
0000
0000
,
0010
0000
0000
0000
0000
0100
0000
0000
,
1000
0000
1000
0000
0000
0010
0000
0000
,
0100
0000
0100
0000
0000
0001
0000
0000
,
1000
0000
0010
0000
0000
0100
0000
0000
,
1001
0000
0110
0000
0001
0100
1000
0000
,
0010
0000
0010
0000
,
0100
0000
0100
0000
,
1000
0000
0010
0000
,
0100
0001
1000
0000
,
0010
0100
0010
0000
1000
0100
1000
0000
,
0001
0100
0001
0000
0010
0100
0010
0000
,
0100
1000
0001
1000
,
1001
1001
1001
0000
1000
0000
0100
0000
,
0010
0001
0010
0000
0100
0000
1000
0000
,
0010
1000
0010
0000
0010
0000
1000
0000
,
0100
0010
0001
0000
0100
0000
0010
0000
,
0001
0100
1000
0000
0010
1000
0010
0001
,
0100
1000
0010
0000
0010
0100
0001
1000
,
0100
0010
0001
0000
0100
0010
1000
0100
,
0010
0001
0100
0010
1000
0100
0100
0100
,
0100
0100
0100
0000
1000
0000
0100
0000
,
1000
0100
0110
0110
,
0000
0000
0001
1000
,
0000
0010
0100
0000
0000
0000
1000
0000
,
0000
0100
0010
0000
0001
0000
1000
0000
,
0000
0010
0100
0000
0001
0000
1000
0000
,
0000
0010
0100
0000
0001
0000
1000
0000
,
0000
0100
0010
0000
1001
0000
0000
0001
,
0101
1000
0100
0010
,
0001
0010
0001
0000
1000
0000
0100
0000
,
0100
0010
0100
0000
0001
0000
1000
0000
,
0010
0100
0010
0000
0010
1000
0010
0001
,
0010
0010
0010
0000
1000
0000
0100
0000
,
0010
0001
0010
0000
0100
0000
1000
0000
,
0100
0010
0100
0000
0010
0000
0001
0000
,
0001
0100
1000
0000
0010
0100
0001
1000
,
0010
0100
0001
0000
1000
0000
0000
0000
,
0100
0100
0100
0000
0010
0000
0000
0000
,
0001
0001
0001
0000
1001
0000
0000
0000
,
1000
1000
1000
0000
0100
0000
0000
0000
,
0010
0010
0010
0000
1000
0000
0000
0000
,
0001
0010
0001
0000
1000
0000
0000
0000
,
0010
0100
0010
0000
0100
0000
0000
0000
,
0100
0010
0100
0000
1001
0000
0110
0000
,
0002
0023
0230
1300
0000
0000
0000
0000
;

//---------------dance-single - ----------------
#NOTES:
     dance-single:
     :
     Beginner:
     1:
     0.108,0.141,0.000,0.000,0.000,82.000,0.000,0.000,0.000,0.000:
0000
0000
0000
0000
,
1000
0000
0000
0000
,
0001
0000
0000
0000
,
0001
0000
0000
0000
,
1000
0000
0000
0000
,
0010
0010
0010
0000
,
0010
0000
0000
0000
,
0100
0100
0100
0000
,
0100
0000
0000
0000
,
0001
0001
0001
0000
,
0001
0000
0000
0000
,
1000
1000
1000
0000
,
0010
0000
0000
0000
,
0100
0000
0000
0000
,
0010
0000
0000
0000
,
0010
0000
0000
0010
,
0001
0000
0000
0000
,
0001
0000
0000
0001
,
0100
0000
0000
0000
,
0100
0000
0000
0100
,
1000
0000
1000
0000
,
0001
0000
0000
0000
,
0010
0000
0000
0000
,
0100
0000
0000
0000
,
0010
0000
0000
0000
,
0100
0000
0100
0000
,
0010
0000
0010
0000
,
0001
0000
1000
0000
,
0010
0000
0000
0000
,
0100
0000
0001
0000
,
0000
0000
1000
0000
,
0000
0000
0001
0000
,
0000
0000
1000
0000
,
0000
0000
0010
0010
,
0000
0000
0010
0001
,
0000
0000
0001
0100
,
0000
0000
0100
1000
,
0000
0000
0001
0000
,
0000
0000
1000
0000
,
0000
0000
0010
0000
,
0000
0000
0100
0000
,
0000
0000
0001
0000
,
0000
0000
1000
0000
,
0000
0000
0010
0000
,
0000
0000
0001
0000
,
1000
0000
0010
0000
,
0000
0000
0100
0000
,
0000
0000
0001
0000
,
0000
0000
1000
0000
,
0000
0000
0100
0000
,
0000
0000
0001
0000
,
0000
0000
0010
0000
,
0000
0000
0001
0000
,
0000
0000
1000
0000
,
0000
0000
0100
0000
,
0000
0000
0010
0000
,
0000
0000
0100
0000
,
0000
0000
0001
0000
,
0000
0000
1000
0000
,
0000
0000
0010
0000
,
0000
0000
0100
0000
,
0000
0010
0000
0000
;
