#TITLE:Rubiks Cube;
#SUBTITLE:;
#ARTIST:Nanahoshi Kangengakudan feat. Hatsune Miku;
#TITLETRANSLIT:;
#SUBTITLETRANSLIT:;
#ARTISTTRANSLIT:;
#CREDIT:owenviau1;
#BANNER:../BN.PNG;
#BACKGROUND:;
#LYRICSPATH:;
#CDTITLE:../CDTitleOV1.png;
#MUSIC:Nanahoshi Kangengakudan feat. Hatsune Miku - Rubiks Cube.ogg;
#OFFSET:-1.422;
#SAMPLESTART:158.664;
#SAMPLELENGTH:29.999;
#SELECTABLE:YES;
#BPMS:0.000=173.999;
#STOPS:;
#BGCHANGES:;
// cache tags:
#FIRSTBEAT:0.000;
#LASTBEAT:557.500;
#SONGFILENAME:Songs/owenviau1 Simfiles 07_final/Rubiks Cube - [owenviau1] v1.0.1/Rubiks Cube.sm;
#HASMUSIC:1;
#HASBANNER:1;
#MUSICLENGTH:201.430;
// end cache tags

//---------------dance-single - 14.77 (15-) (owenvia----------------
#NOTES:
     dance-single:
     14.77 (15-) (owenvia:
     Challenge:
     15:
     1.000,1.000,0.065,0.248,1.000,1842.000,13.000,50.000,0.000,0.000:
1000
0100
1000
0100
0010
0001
0010
0001
,
1000
0010
1000
0010
0100
0001
0100
0001
,
1000
0100
1000
0100
0010
0001
0010
0001
,
0100
0010
1000
0010
0100
0000
1001
0000
,
1000
0000
0100
0010
0001
0000
1000
0010
0100
0000
0001
1000
0001
0000
0010
0100
,
1000
0000
0001
0100
0010
0000
1000
0010
0100
0000
0001
0000
0010
0000
0100
1000
,
0001
0000
0100
0000
0010
0000
1000
0001
1000
0000
0010
0100
0001
0000
1000
0010
,
0100
0000
0001
1000
0010
0000
0100
0001
1000
0010
1000
0100
0020
0000
0000
0000
,
0031
0100
0010
1000
0010
0100
0001
1000
0100
1000
0010
0100
0001
1000
0100
1000
,
0010
0100
0001
1000
0001
0100
0010
0100
0001
1000
0010
0100
0010
1000
0001
0100
,
0001
0010
0100
1000
0001
0010
0001
1000
0010
0100
0010
1000
0001
0100
0001
0010
,
0100
1000
0001
0100
0010
0100
0001
1000
0010
1000
0100
0010
0001
1000
0100
1000
,
0001
0100
0010
1000
0001
0100
0001
0010
0100
1000
0100
0010
0001
1000
0100
1000
,
0001
0100
0010
0100
0001
1000
0010
1000
0100
0010
0001
1000
0100
1000
0010
0100
,
0010
1000
0001
0100
0001
0010
0100
1000
0001
0010
0001
1000
0100
1000
0010
0100
,
0001
0100
0010
1000
0001
1000
0010
0100
0010
1000
0001
0100
0001
0010
0100
1000
,
0001
0010
0001
0100
0010
0100
0001
1000
0010
1000
0001
0100
0010
0100
0001
1000
,
0100
1000
0010
0100
0001
0100
0010
1000
0100
1000
0001
0100
0010
0100
0001
1000
,
0010
0100
0010
1000
0001
0100
0001
1000
0100
0010
0001
0100
0001
1000
0010
0100
,
0001
0100
0010
1000
0001
1000
0010
0100
0010
1000
0001
0010
0001
0100
0010
1000
,
0010
0100
0001
1000
0001
0100
0010
0100
0001
1000
0100
1000
0001
0100
0010
0100
,
0001
1000
0100
1000
0010
0100
0001
1000
0100
0010
0001
0010
0100
1000
0001
0100
,
0010
1000
0010
0100
0001
1000
0100
1000
0010
0100
0001
0010
0001
1000
0100
1000
,
0001
0100
0010
0100
0001
1000
0100
1000
0010
0100
0001
1000
0100
0010
0001
1000
,
0010
0000
0100
0001
0000
1000
0000
0100
0010
0000
0001
0000
1000
0000
0010
0000
,
0100
0000
0001
1000
0010
0000
0100
0001
1000
0000
0010
0000
0100
0000
0001
0000
,
1000
0000
0200
0000
0310
0001
1000
0010
1000
0000
0100
0010
0001
0000
1000
0000
,
0010
0000
0100
0000
0001
0000
1000
0000
0200
0000
0320
0000
0031
0100
0001
1000
,
0010
0000
1000
0001
1000
0000
0010
0000
0100
0001
1000
0000
0001
0010
0100
0000
,
1000
0000
0010
0000
0100
0000
0001
0000
1000
0010
1000
0000
0001
0000
0010
0000
,
0100
0000
1000
0001
0100
0010
0000
0010
1000
0000
0001
0000
0010
0000
0001
0000
,
1000
0000
0100
0000
0010
0000
0001
0000
0100
0000
0001
0000
0010
0100
1000
0001
,
1000
0010
0100
0001
0100
0010
0000
1000
0001
0010
0001
1000
0100
0000
0010
0000
,
0001
1000
0001
0100
0010
0100
0001
1000
0010
0000
0100
0000
0001
0000
1000
0000
,
0100
0000
0010
0001
1000
0010
0000
0100
0001
1000
0200
0000
0310
0000
0002
0000
,
2003
0000
3020
0000
0130
0000
0002
0000
2003
0000
3200
0000
0310
0001
1000
0001
,
0100
0000
0010
1000
0010
0100
0001
1000
0100
0000
0010
0001
1000
0010
0100
0000
,
0001
1000
0001
0000
0100
0010
1000
0001
0100
0000
0010
1000
0001
0000
0010
0000
,
0100
1000
0010
1000
0001
0100
0001
0010
,
0200
2300
3020
0230
0301
1000
0010
0000
,
1100
0110
0011
1001
2020
3030
0101
1010
,
0110
0000
0101
0000
2002
0000
3003
0000
1000
0100
0010
0001
1000
0010
0100
0010
,
2000
3001
0020
0130
2000
3001
0200
0310
,
2000
3020
0230
0302
1003
0100
0010
0001
,
1000
0010
1000
0001
0100
0000
0020
0000
0000
0030
1000
0100
1000
0001
0100
0010
,
0100
0001
1000
0001
0010
0000
0200
0000
0000
0000
1300
0010
1000
0001
0010
0100
,
1000
0000
0100
0010
0001
0000
1000
0010
0100
0000
0001
1000
0001
0000
0010
0100
,
1000
0000
0000
1010
0000
0000
0220
0000
0000
0330
0000
0000
1000
0100
0010
0001
,
1000
0010
0100
0001
0100
0010
1000
0001
1000
0100
0010
0001
1000
0010
1000
0001
,
0100
0010
0100
0001
1000
0100
1000
0010
0100
0001
1000
0100
0010
0001
1000
0010
,
0100
0010
1000
0001
0100
0001
0010
0100
1000
0001
0010
0001
0100
0010
1000
0001
,
1000
0000
0200
0000
0300
0000
0010
0000
0001
0000
1000
0100
0010
0001
1000
0010
,
0100
0001
0100
0010
0100
0000
0001
1000
0001
0100
0001
0000
0010
0100
1000
0001
,
0100
0000
0010
1000
0010
0100
0010
0000
1000
0001
1000
0010
1000
0000
0100
0010
,
0001
1000
0010
0000
0100
0001
0100
0010
0100
0000
0001
0000
1000
0010
0100
0000
,
0001
0000
0010
0000
0100
0000
1000
0000
0010
0100
0001
1000
0001
0000
0100
0010
,
1000
0001
0100
0001
1000
0010
0100
0010
1000
0001
0100
0001
1000
0010
0100
0001
,
0100
0010
1000
0001
0010
0001
1000
0100
0010
0001
0010
0100
1000
0001
0100
0001
,
1000
0010
0100
0001
1000
0100
1000
0010
0100
0001
1000
0100
0010
0001
0100
0001
,
1000
0000
0010
0000
0000
0000
0200
0000
0000
0000
0301
1000
0010
0100
0001
0100
,
0010
1000
0001
0010
0100
1000
0001
0100
0010
1000
0100
1000
0001
0100
0010
0100
,
0001
1000
0100
1000
0010
0100
0001
1000
0100
0010
0001
1000
0010
0100
0001
0100
,
0010
0000
1000
0100
1000
0000
0010
0100
0001
0000
1000
0100
0010
0000
0001
0100
,
0010
0000
1000
0001
1000
0000
0100
0010
0001
0000
1000
0010
0100
0001
1000
0001
,
0010
0100
1000
0001
0100
0010
0100
0001
1000
0100
1000
0010
0100
0010
1000
0001
,
0100
0010
0100
0001
1000
0100
0010
0001
0100
0010
0100
0001
1000
0001
0010
0100
,
1000
0001
0010
0001
0100
0010
1000
0010
0100
0001
1000
0100
0010
0001
1000
0010
,
0100
0001
0100
0010
1000
0001
1000
0100
0010
0001
1000
0100
1000
0001
0100
0010
,
0100
0001
1000
0010
0100
0001
1000
0100
0010
0001
1000
0001
0010
0100
1000
0001
,
0010
0001
0100
0010
0100
0001
1000
0010
0100
0001
1000
0100
0010
0001
1000
0010
,
0100
0001
0100
0010
1000
0001
1000
0100
0010
0001
0100
0010
0100
0001
1000
0010
,
0100
0001
1000
0100
0010
0001
0010
0100
1000
0001
0010
0001
1000
0010
0100
0001
,
0100
0010
1000
0001
0100
0001
0010
0100
1000
0001
0010
0001
1000
0100
1000
0010
,
0100
0001
0100
0010
1000
0001
0010
0100
1000
0001
0100
0001
1000
0010
0100
0001
,
0100
0010
1000
0001
0010
0001
1000
0100
0010
0001
1000
0100
1000
0001
0100
0010
,
0100
0001
1000
0001
0100
0010
0100
0001
1000
0100
0010
0001
1000
0010
0100
0010
,
1000
0001
0010
0100
1000
0001
0100
0001
0010
0100
1000
0010
0100
0001
0100
0010
,
1000
0001
1000
0100
0010
0001
1000
0100
1000
0001
0010
0001
1000
0100
0010
0001
,
0100
0010
0100
0001
1000
0010
0100
0010
1000
0001
0100
0001
1000
0100
0010
0001
,
0100
0010
1000
0010
0100
0001
1000
0100
0010
0001
1000
0010
0100
0001
1000
0100
,
0010
0000
0001
1000
0001
0100
0000
0010
1000
0000
0001
0000
0010
0000
0200
0000
,
0000
0300
2000
0000
0000
0000
0000
0000
3020
0000
0030
0000
0100
0000
0001
0000
,
1000
0100
1000
0020
0130
0001
1000
0002
,
0000
0003
0010
0000
0100
0000
2000
0000
0000
0000
0000
0000
0000
0000
3000
0000
,
0001
0100
0001
1000
0010
0000
0100
0001
1000
0100
1000
0000
0010
0100
0001
1000
,
0100
0000
0010
0001
1000
0001
0100
0000
0010
1000
0010
0100
0001
0000
1000
0100
,
1000
0001
0010
0000
0100
1000
0001
0100
0001
0000
2000
0000
0000
3000
0010
0000
,
0100
0001
1000
0002
0000
0000
0000
0000
,
1003
0000
0010
0000
0100
0000
0001
0000
0000
0000
2000
0000
0000
0000
0000
3002
,
0000
0000
0000
0000
0000
0000
0000
0000
0000
0000
0000
0000
0000
0000
0000
0000
0000
0000
0000
0000
0000
0000
0000
0000
0000
0000
0000
0000
0000
0000
0000
0000
0000
0000
0000
0000
0000
0000
0000
0000
0000
0000
0000
0000
0000
0000
0000
0000
0000
0000
0000
0000
0000
0000
0000
0000
0000
0000
0000
0000
0000
0000
0000
0000
0000
0000
0000
0000
0000
0000
0000
0000
0000
0000
0000
0000
0000
0000
0000
0000
0000
0000
0000
0000
0000
0000
0000
0000
0000
0000
0000
0000
0000
0000
0000
0000
0000
0000
0000
0000
0000
0000
0000
0000
0000
0000
0000
0000
0000
0000
0000
0000
0000
0000
0000
0003
0000
0000
0000
0000
0000
0000
0000
0000
0000
0000
0000
0000
0000
0000
0000
0000
0000
0000
0000
0000
0000
0000
0000
0000
0000
0000
0000
0000
1000
0000
0000
0000
0000
0000
0000
0000
0000
0000
0000
0000
0010
0000
0000
0000
0000
0000
0000
0000
0000
0000
0000
0000
1000
0000
0000
0000
0000
0000
0000
0000
0000
0000
0000
0000
0001
0000
0000
0000
0000
0000
0000
0000
0000
0000
0000
0000
,
0010
0100
1000
0001
0100
0010
1000
0001
1000
0100
0010
0001
1000
0010
1000
0001
,
0100
0010
0100
0001
1000
0100
1000
0010
0100
0001
1000
0100
0010
0001
1000
0010
,
0100
0010
1000
0001
0100
0001
0010
0100
1000
0001
0010
0001
0100
0010
1000
0001
,
1000
0000
0020
0000
0030
0000
0100
0000
0001
0000
1000
0100
0010
0001
1000
0100
,
0010
0001
1000
0010
0100
0000
0010
1000
0001
0100
0001
0000
0010
0100
1000
0001
,
0100
0000
0010
1000
0001
0100
0010
0000
1000
0001
0100
0010
1000
0000
0100
0010
,
0001
1000
0010
0000
1000
0001
0100
0010
0100
0000
0001
0000
1000
0010
0100
0000
,
0001
0000
0010
0000
0100
0000
1000
0000
0010
0100
0001
1000
0001
0000
0100
0010
,
1000
0001
0100
0001
1000
0010
0100
0010
1000
0001
0100
0001
1000
0010
0100
0001
,
0100
0010
1000
0001
0010
0001
1000
0100
0010
0001
0010
0100
1000
0001
0100
0001
,
1000
0010
0100
0001
1000
0100
1000
0010
0100
0001
1000
0100
0010
0001
0100
0001
,
1000
0000
0010
0000
0000
0000
0200
0000
0000
0000
0301
1000
0010
0100
0001
0100
,
0010
1000
0001
0010
0100
1000
0001
0100
0010
1000
0100
1000
0001
0100
0010
0100
,
0001
1000
0100
1000
0010
0100
0001
1000
0100
0010
0001
1000
0010
0100
0001
0100
,
0010
0000
1000
0100
1000
0000
0010
0100
0001
0000
1000
0100
0010
0000
0001
0100
,
0010
0000
1000
0001
1000
0000
0100
0010
0001
0000
1000
0010
0100
0001
1000
0001
,
0010
0100
1000
0010
0100
0001
1000
0100
1000
0010
0100
0010
1000
0001
0100
0001
,
0010
0100
1000
0001
0100
0010
1000
0001
1000
0100
0010
0001
0100
0001
1000
0010
,
0100
0001
1000
0010
1000
0100
0010
0001
1000
0100
1000
0001
0100
0010
1000
0001
,
1000
0000
0200
0000
0000
0300
0010
0000
0001
1000
0010
0100
0010
1000
0001
0010
,
0100
1000
0010
1000
0001
0000
0010
0100
1000
0001
0100
0000
0010
1000
0010
0100
,
0001
0000
1000
0100
1000
0001
0010
0000
0001
1000
0010
0100
0010
0000
1000
0001
,
0100
0001
1000
0000
0100
0010
0001
0010
0100
0000
2000
0000
3010
0100
0001
0000
,
1000
0000
0100
0000
0010
0000
0001
0000
1000
0010
0100
0001
1000
0000
0100
0010
,
0001
1000
0010
0100
0010
1000
0001
0100
0001
0010
0100
1000
0001
0100
0010
1000
,
0010
0100
0001
1000
0100
0010
0001
1000
0100
1000
0001
0100
0010
1000
0001
0010
,
0100
1000
0001
0010
0001
1000
0100
0010
0001
1000
0100
1000
0001
0100
0010
1000
,
0001
0000
0010
0000
0100
1000
0100
0000
0010
0001
1000
0100
1000
0010
0100
0001
,
1000
0010
0100
0001
0100
0010
1000
0001
0010
0001
0100
0010
0100
0001
1000
0010
,
1000
0100
0010
0001
1000
0100
1000
0001
0100
0010
1000
0001
0100
0001
0010
0100
,
1000
0000
0010
0100
0001
0000
1000
0100
1000
0000
0010
0100
0001
0000
1000
0100
,
0010
0000
0001
0010
0100
0000
1000
0010
0100
0000
0001
1000
0001
0010
0100
1000
,
0001
1000
0100
0010
0001
0100
0010
0100
0001
1000
0001
0010
0100
1000
0001
0010
,
0001
0100
0010
1000
0010
0100
0001
1000
0100
0010
0001
1000
0010
0100
0001
0100
,
0010
1000
0001
1000
0100
0010
0001
1000
0100
1000
0010
0100
0001
0010
0001
1000
,
0010
0100
0001
1000
0100
0010
0001
1000
0001
0010
0100
1000
0001
0010
0001
0100
,
0010
0100
0001
1000
0010
0100
0001
1000
0010
0100
0010
1000
0001
0010
0001
0100
,
0010
1000
0001
1000
0010
0100
0010
1000
0100
0010
0001
1000
0010
0100
0001
1000
,
0100
0010
0001
0010
0100
1000
0001
0010
0001
1000
0010
0100
0001
0100
0010
1000
,
0001
0100
0001
0010
0100
1000
0001
0100
0010
1000
0010
0100
0001
1000
0100
1000
,
0010
0100
0001
1000
0100
1000
0010
0100
0001
1000
0001
0100
0010
0100
0001
1000
,
0010
0100
0010
1000
0001
0100
0001
0010
0100
1000
0001
0010
0001
1000
0010
0100
,
0010
1000
0001
0100
0001
0010
0100
1000
0001
0100
0010
0100
0001
1000
0010
1000
,
0100
0010
0001
1000
0100
1000
0001
0100
0010
1000
0001
0100
0001
0010
0100
1000
,
0100
0010
0001
1000
0100
1000
0001
0100
0010
0100
0001
1000
0010
1000
0100
0010
,
0001
1000
0100
1000
0010
0100
0010
1000
0001
0100
0001
0010
0100
1000
0001
0010
,
0001
1000
0100
1000
0010
0100
0001
0100
0010
1000
0001
1000
0010
0100
0010
1000
,
0001
0100
0001
0010
0100
1000
0001
0010
0001
0100
0010
0100
0001
1000
0010
1000
,
0001
0100
0010
0100
0001
1000
0200
0000
0300
0000
0020
0000
0030
0000
0002
0000
,
0000
0000
0000
0003
0000
0000
0000
0000
,
0000
0000
0000
0000
,
0000
0000
0000
0000
,
0000
0000
0000
0000
,
0000
0000
0000
0000
,
0000
0000
0000
0000
,
0000
0000
0000
0000
;
