#TITLE:V35;
#SUBTITLE:;
#ARTIST:Tiger Yamoto;
#TITLETRANSLIT:;
#SUBTITLETRANSLIT:;
#ARTISTTRANSLIT:;
#CREDIT:;
#BANNER:V35.png;
#BACKGROUND:V35-bg.png;
#LYRICSPATH:;
#CDTITLE:;
#MUSIC:V35.ogg;
#OFFSET:-0.355;
#SAMPLESTART:40.856;
#SAMPLELENGTH:12.000;
#SELECTABLE:YES;
#BPMS:0.000=148.000,64.000=74.000,78.000=148.000,145.000=74.000,159.000=148.000,160.500=74.000,177.000=148.000;
#STOPS:78.000=0.200
,78.500=0.200
,159.000=0.200
,159.500=0.200
,160.000=0.200
;
#BGCHANGES:;
// cache tags:
#FIRSTBEAT:0.000;
#LASTBEAT:244.250;
#SONGFILENAME:Songs/in the groove2/V35/V35.sm;
#HASMUSIC:1;
#HASBANNER:1;
#MUSICLENGTH:121.045;
// end cache tags

//---------------dance-single - ----------------
#NOTES:
     dance-single:
     :
     Hard:
     10:
     1.000,1.000,1.000,0.306,1.000,684.000,153.000,37.000,0.000,0.000:  // measure 1
1000
0100
1000
0000
0001
0010
0001
0000
0100
0010
0100
0000
1000
0010
1000
0000
,  // measure 2
0001
0100
0001
0000
1000
0100
0010
0000
0100
0010
0001
0000
0001
0010
0100
0000
,  // measure 3
0010
0100
1000
0000
1000
0010
0100
0000
0010
0100
0001
0000
0010
0001
0100
0000
,  // measure 4
0001
0100
0010
0000
0100
1000
0001
0000
0001
0010
1000
0000
1000
0010
0001
0000
,  // measure 5
1000
0000
0000
1000
0000
0000
1000
0000
0000
0000
0000
1100
0000
0000
0100
0000
,  // measure 6
0100
0000
0000
0100
0000
0000
0110
0000
0000
0000
0010
0000
0000
0010
0000
0000
,  // measure 7
0010
0000
0000
0011
0000
0000
0001
0000
0000
0000
0001
0000
0000
0001
0000
0000
,  // measure 8
0001
0010
0100
1000
0010
0100
0001
0010
0100
0010
0001
0010
1000
0010
0001
0000
,  // measure 9
1000
0000
0000
0001
0010
0000
0100
1000
0000
0000
1100
0000
0011
0000
0110
0000
,  // measure 10
1100
0000
0000
0100
0010
0000
0010
0100
0000
0000
1100
0000
0110
0000
0011
0000
,  // measure 11
1001
0000
0000
1000
0010
0000
0100
0001
0000
0000
1010
0000
0101
0000
0110
0000
,  // measure 12
1001
0000
0000
1000
0100
0000
0010
0001
0000
0000
1001
0000
1001
0000
0110
0000
,  // measure 13
0110
0000
0000
1000
0100
0000
0022
0000
0033
0000
1100
0000
1010
0000
1001
0000
,  // measure 14
1010
0000
0000
1000
0100
0000
0220
0000
0330
0000
1010
0000
0101
0000
1001
0000
,  // measure 15
1100
0000
0000
1000
0010
0000
0202
0000
0303
0000
1100
0000
0101
0000
1010
0000
,  // measure 16
0011
0000
0001
0100
0000
0000
2020
0000
3030
0000
0110
0000
1001
0000
0110
0000
,  // measure 17
2000
0001
0000
0001
0000
0001
0000
0001
0000
3001
0002
1000
0000
1000
0000
1000
,  // measure 18
0003
1020
0000
0100
0000
0001
0000
0100
0000
0230
0000
1000
0000
0010
0000
1000
,  // measure 19
0300
0000
0000
0000
0022
0030
0000
0000
0000
0000
0000
0000
0200
0300
0000
0000
0000
0000
0000
0000
2000
3000
0000
0000
0000
0000
0000
0000
0200
0300
0000
0000
0003
0000
0000
0000
0010
0000
0000
0000
2000
0000
0000
0000
0020
0030
0000
0000
0000
0000
0000
0000
0020
0030
0000
0000
0000
0000
0000
0000
3020
0030
0000
0000
,  // measure 20
0000
0000
0000
0000
0022
0003
0000
0000
0000
0000
0000
0000
0002
0003
0000
0000
0000
0000
0000
0000
0002
0003
0000
0000
0030
0000
0000
0000
0000
0000
0000
0000
1001
0000
0000
0000
1000
0000
0000
0000
0001
0000
0000
0000
0010
0000
0000
0000
0100
0000
0000
0000
0000
0000
0000
0000
0000
0000
0000
0000
0110
0000
0000
0000
,  // measure 21
1000
0100
0010
0001
0000
1100
0000
1000
0100
0000
0000
0000
0100
1000
0000
1000
,  // measure 22
0000
0100
0000
0010
0000
0011
0000
0001
0010
0000
0000
0010
0001
0000
1000
0000
,  // measure 23
1000
0000
1001
0000
1000
0100
0000
0100
1000
0000
0001
0000
0001
0000
0100
0000
,  // measure 24
0110
0000
0000
0001
0100
0000
0010
0100
0000
0000
0100
0000
0100
0000
0101
0000
,  // measure 25
1010
0000
1100
0000
0110
0000
0001
0010
0000
0100
0001
0000
0010
0100
1000
0000
,  // measure 26
1000
1000
2010
0100
0001
0010
0100
0001
,  // measure 27
0010
0100
0001
0010
3100
1100
0110
0011
,  // measure 28
0101
0000
0110
0000
1010
0000
1001
0000
1000
0010
0100
0001
0010
0100
1000
0100
,  // measure 29
0010
0001
0010
1000
0010
0001
0000
1000
0100
0000
0011
0000
1010
0000
1000
0100
,  // measure 30
0000
0100
0010
0000
1100
0000
0100
0010
0000
0010
0001
0000
1010
0000
0101
0000
,  // measure 31
0110
0000
1001
0000
0010
0100
0000
1000
0001
0000
1000
0000
1000
0000
0001
0000
,  // measure 32
0001
0000
1001
0000
0001
0100
0000
0100
0010
0000
0110
0000
0010
0000
0110
0000
,  // measure 33
0010
0000
0110
0000
0100
0010
0000
1000
0100
0000
1000
0000
0100
0000
0010
0000
,  // measure 34
0001
0000
1001
0000
0001
0100
0000
0100
0001
0000
1100
0000
0110
0000
0011
0000
,  // measure 35
0110
0000
1100
0000
1000
0010
0000
0010
0100
0000
0101
0000
0110
0000
1010
0000
,  // measure 36
0110
0000
0101
0000
0100
0001
0000
1000
0010
0000
1100
0000
1100
0000
0110
0000
,  // measure 37
0110
0000
0000
0000
0011
0000
0000
0000
0011
1000
0100
0010
0001
0010
0100
1000
0100
0010
0100
1000
0100
1000
0001
0010
0001
0010
0100
0010
0100
0010
1000
0100
,  // measure 38
1000
0100
0010
0001
0010
0100
0010
0001
0010
0100
1000
0100
0010
0001
0010
0100
1000
0001
1000
0100
0010
0001
1000
0001
0010
0100
1000
0010
0100
0010
0100
0010
,  // measure 39
0100
0010
0100
0010
0100
0001
0010
0001
0010
0001
0010
0001
0010
0001
0100
1000
0100
0001
0010
1000
0010
0001
0010
0100
1000
0100
0010
0001
0010
0100
0010
0001
,  // measure 40
0010
0100
0010
0001
0010
0100
0010
0001
0010
0001
0100
0001
1000
0001
0100
0001
0010
0001
1000
0001
1000
0001
1000
0001
1001
0000
1000
0000
0100
0000
0010
0000
,  // measure 41
0001
1000
0001
1001
2001
0000
0001
0000
0001
0000
0001
0000
0001
0000
3001
0000
,  // measure 42
1001
0000
1100
0100
0110
0010
0011
0001
0101
0010
0110
0100
1010
1000
1001
1100
,  // measure 43
0110
0000
0011
0000
0110
0000
1001
0000
2200
0000
3300
0000
0022
0000
0033
0000
2020
0000
3030
0000
0202
0000
0303
0000
1000
0010
0100
0001
0010
0100
1000
0100
,  // measure 44
0010
0001
1000
0001
0010
0100
1000
0100
0010
0100
1000
0100
0010
0001
0010
0100
0010
0001
0010
0001
0010
0001
1000
0010
1000
0010
1000
0100
1000
0100
0010
0100
,  // measure 45
0010
0100
0010
0100
0001
0010
1000
0010
0001
0000
0000
0000
1100
0000
0000
0000
0100
0000
0010
0000
0000
0000
0010
0000
0001
0000
0000
0000
0001
0000
0000
0000
,  // measure 46
0001
0000
0001
0000
1001
0000
1000
0010
0000
0100
0001
0000
0010
0000
0110
0000
,  // measure 47
0100
0000
1001
0000
0010
1000
0000
1000
0001
0000
1000
0000
1100
0000
0100
0000
,  // measure 48
0110
0000
1001
0000
0010
1000
0000
0010
0001
0000
1100
0000
0100
0000
1100
0000
,  // measure 49
1001
0000
0110
0000
0100
0010
0000
0100
0010
0000
0110
0000
0110
0000
0110
0000
,  // measure 50
0110
0000
1001
0000
0001
0100
0000
0010
1000
0000
1100
0000
0110
0000
0011
0000
,  // measure 51
0110
0000
1100
0000
1000
0010
0000
1000
0010
0000
1000
0000
1000
0000
1000
0000
,  // measure 52
1000
0000
1001
0000
1000
0100
0010
0001
0010
0100
1000
0100
0010
0100
1000
0100
,  // measure 53
0010
0001
0100
1000
0100
1001
0000
1000
0100
0000
0010
0001
0000
0000
1001
0000
,  // measure 54
0001
0000
1001
0000
0010
0100
0000
0010
0100
0000
0110
0000
0100
0010
0000
1000
,  // measure 55
0010
0000
1100
0000
0100
0010
0000
0010
0100
0000
1100
0000
0100
0001
0000
0001
,  // measure 56
0100
0000
1100
0000
1000
0010
0000
1000
0010
0000
0011
0000
0001
0010
0000
0010
,  // measure 57
0100
0000
1100
0000
0100
0001
0000
0010
0100
0000
1001
0000
1010
0000
0110
0000
,  // measure 58
0101
0000
1001
0000
0100
0010
0000
0001
0010
0000
0110
0000
0110
0000
0100
0000
,  // measure 59
0110
0000
1001
0000
1000
0100
0000
0100
0010
0000
1100
0000
0110
0000
0011
0000
,  // measure 60
1100
0000
1001
0000
1000
0100
0001
0100
1000
0010
0001
0010
1000
0100
0010
0001
,  // measure 61
0010
0100
1000
0100
0001
2002
0000
0000
0000
0000
0000
0000
0000
0000
0000
0000
,  // measure 62
0000
3003
0000
0000
0000
0000
0000
0000
0000
0000
0000
0000
0000
0000
0000
0000
;
