#TITLE:Return to the Road We Came;
#SUBTITLE:Gurumin;
#ARTIST:Falcom Sound Team JDK;
#TITLETRANSLIT:;
#SUBTITLETRANSLIT:;
#ARTISTTRANSLIT:;
#CREDIT:SulferDragon;
#BANNER:Return to the Road We Came-banner.png;
#BACKGROUND:Return to the Road We Came-bg.png;
#LYRICSPATH:;
#CDTITLE:!SulferDragon.png;
#MUSIC:Return to the Road We Came.mp3;
#OFFSET:-0.593;
#SAMPLESTART:38.180;
#SAMPLELENGTH:12.280;
#SELECTABLE:YES;
#BPMS:0.000=166.000;
#STOPS:;
#BGCHANGES:;
// cache tags:
#FIRSTBEAT:0.000;
#LASTBEAT:352.000;
#SONGFILENAME:Songs/KBU/Return to the Road We Came (SulferDragon)/Return to the Road We Came.sm;
#HASMUSIC:1;
#HASBANNER:1;
#MUSICLENGTH:134.138;
// end cache tags

//---------------dance-single - ----------------
#NOTES:
     dance-single:
     :
     Challenge:
     12:
     1.000,1.000,1.000,1.000,0.403,712.000,214.000,300.000,0.000,175.000:
1000
0100
1001
0100
0010
0100
1001
0010
,
1000
0100
1001
0100
0010
0100
1001
0010
,
1000
0100
1001
0100
0010
0100
1001
0010
,
1000
0000
0000
0000
0100
0000
0000
0000
1001
0000
0000
0000
0001
0010
0100
0010
1000
0000
0000
0000
1100
0000
0000
0000
1100
0000
0010
0000
0101
0000
0010
0000
,
1012
0000
1100
0000
0013
0200
0321
0230
,
0302
0010
1100
0010
0003
0200
1320
0230
,
2300
0000
0000
3000
0201
0000
0000
0300
0020
0000
0230
0000
1001
0000
0320
0000
,
0100
0000
0002
0003
1002
0003
0200
0300
0002
0003
0200
0300
2001
3000
0230
0300
,
2002
3000
0000
0000
1100
0000
0000
0000
0013
0000
0200
0000
0321
0000
0230
0000
,
0302
0010
1100
0010
0003
0200
1320
0230
,
2300
0000
0000
3000
0201
0000
0000
0300
0020
0000
0230
0000
1001
0000
0320
0000
,
0100
0000
0000
0000
0002
0000
0003
0000
1200
0000
0300
0000
2000
0000
3000
0000
0200
0000
0300
0000
0102
0000
0003
0000
0201
0000
0300
0000
2031
0000
3000
0010
,
2101
0000
0011
0000
3100
0020
1230
0320
,
2030
0100
0011
0100
3000
0020
0231
0320
,
0032
0000
0000
0003
1020
0000
0000
0030
0200
0000
0320
0000
1001
0000
0230
0000
,
0010
0000
2000
3000
0021
0030
0002
0003
0020
0030
2000
3000
1002
0003
0320
0030
,
2002
0003
0000
0000
0011
0000
0000
0000
3100
0000
0020
0000
1230
0000
0320
0000
,
2030
0100
0011
0100
3000
0020
0231
0320
,
0032
0000
0000
0000
0000
0000
0000
0000
0000
0000
0000
0000
0000
0000
0000
0000
0000
0000
0000
0000
0000
0000
0000
0000
0000
0000
0000
0000
0000
0000
0000
0000
0000
0000
0000
0000
0003
0000
0000
0000
0000
0000
0000
0000
0000
0000
0000
0000
1020
0000
0000
0000
0000
0000
0000
0000
0000
0000
0000
0000
0000
0000
0000
0000
0000
0000
0000
0000
0000
0000
0000
0000
0000
0000
0000
0000
0000
0000
0000
0000
0000
0000
0000
0000
0030
0000
0000
0000
0000
0000
0000
0000
0000
0000
0000
0000
0200
0000
0000
0000
0000
0000
0000
0000
0000
0000
0000
0000
0000
0000
0000
0000
0000
0000
0000
0000
0000
0000
0000
0000
0320
0000
0000
0000
0000
0000
0000
0000
0000
0000
0000
0000
0000
0000
0000
0000
0000
0000
0000
0000
0000
0000
0000
0000
1001
0000
0000
0000
0000
0000
0000
0000
0000
0000
0000
0000
0000
0000
0000
0000
0000
0000
0000
0000
0000
0000
0000
0000
0200
0030
0000
0000
0000
0000
0000
0000
0000
0000
0000
0000
0000
0000
0000
0000
0000
0000
0000
0000
0000
0000
0000
0000
,
0010
0000
2000
3000
2010
3000
2000
3000
0020
0030
0002
0003
2001
3000
0320
0030
,
0200
0000
0011
0000
0001
0001
1010
0000
,
0320
1000
0101
1000
0230
0302
2013
3200
,
0302
0000
1100
0000
1000
1000
0110
0000
,
0100
0100
1010
0100
0000
1000
0110
0003
,
1000
0000
1100
0000
1000
1000
0110
0000
,
0100
0000
0000
0000
0100
0000
0000
0000
1010
0000
0000
0000
0001
0010
0100
0010
1000
0000
0000
0000
1100
0000
0000
0000
1100
0000
0010
0000
0101
0000
0010
0000
,
1012
0000
0000
0000
1100
0000
0010
0100
0013
1000
0200
0000
0321
0000
0230
0000
,
0302
1000
0100
0010
1100
0000
0010
0100
0013
0001
0200
0000
1320
0000
0230
0000
,
2301
0000
0000
3000
0201
0000
0010
0301
0020
1000
0230
0000
1001
0000
0320
0000
,
0100
1000
0002
0103
1002
0003
0200
1300
0002
1003
0200
0300
2001
3000
0230
0300
,
2002
3000
0000
0000
1100
0000
0010
0100
0013
1000
0200
0000
0321
0000
0230
0000
,
0302
1000
0100
0010
1100
0000
0010
0100
0013
0001
0200
0000
1320
0000
0230
0000
,
2301
0000
0000
3000
0201
0000
0010
0301
0020
1000
0230
0000
1001
0000
0320
0000
,
1000
0000
0100
0000
0002
0000
1003
0000
0201
0000
0300
0000
2000
0000
3001
0000
0200
0000
1300
0000
0102
0000
0003
0000
0201
0000
0300
0000
2031
0000
3000
0010
,
2101
0000
0000
0000
0011
0000
0100
0010
3100
0001
0020
0000
1230
0000
0320
0000
,
2030
0001
0010
0100
0011
0000
0100
0010
3100
1000
0020
0000
0231
0000
0320
0000
,
1032
0000
0000
0003
1020
0000
0100
1030
0200
0001
0320
0000
1001
0000
0230
0000
,
0001
0010
2000
3001
1020
0030
0002
1003
0020
0031
2000
3000
1002
0003
0320
0030
,
2001
0000
0000
0000
0011
0000
0100
0010
3100
0001
0020
0000
1230
0000
0320
0000
,
2030
0001
0010
0100
0011
0000
0100
0001
3010
0100
0020
0000
0231
0000
0320
0000
,
1032
0000
0000
0000
0000
0000
0000
0000
0000
0000
0000
0000
0000
0000
0000
0000
0000
0000
0000
0000
0000
0000
0000
0000
0000
0000
0000
0000
0000
0000
0000
0000
0000
0000
0000
0000
0003
0000
0000
0000
0000
0000
0000
0000
0000
0000
0000
0000
1020
0000
0000
0000
0000
0000
0000
0000
0000
0000
0000
0000
0000
0000
0000
0000
0000
0000
0000
0000
0000
0000
0000
0000
0100
0000
0000
0000
0000
0000
0000
0000
0000
0000
0000
0000
1030
0000
0000
0000
0000
0000
0000
0000
0000
0000
0000
0000
0200
0000
0000
0000
0000
0000
0000
0000
0000
0000
0000
0000
0001
0000
0000
0000
0000
0000
0000
0000
0000
0000
0000
0000
0320
0000
0000
0000
0000
0000
0000
0000
0000
0000
0000
0000
0000
0000
0000
0000
0000
0000
0000
0000
0000
0000
0000
0000
1001
0000
0000
0000
0000
0000
0000
0000
0000
0000
0000
0000
0000
0000
0000
0000
0000
0000
0000
0000
0000
0000
0000
0000
0200
0030
0000
0000
0000
0000
0000
0000
0000
0000
0000
0000
0000
0000
0000
0000
0000
0000
0000
0000
0000
0000
0000
0000
,
0010
0001
2000
3001
2010
3000
2000
3001
0020
1030
0002
0003
2001
3000
0320
0030
,
1200
0000
0000
0000
0011
0000
1000
0010
0001
1000
0001
0000
1010
0000
0000
0000
,
0321
1000
0100
1000
0101
0000
1000
0001
0230
1000
0302
0000
2013
0000
3200
0000
,
1302
0000
0000
0000
1100
0000
0010
0100
1000
0010
1000
0000
0110
0000
0000
0000
,
0100
0010
0100
1000
0110
0000
1000
0010
0100
1000
0100
0000
1010
0000
0003
0000
,
1001
0000
0000
0000
1100
0000
0001
0010
1000
0100
1000
0000
0110
0000
0000
0000
,
0100
0000
1000
0000
0100
0000
0001
0000
1010
0000
0000
0000
0001
0100
0010
0100
2000
3000
0020
0030
1200
0300
0002
0003
1020
0030
0200
0300
2010
3000
0012
0003
,
2101
0000
0000
0000
0110
0000
0001
0000
3000
0000
0102
0000
0023
1000
0230
0000
,
2300
0000
0000
0000
0110
0000
0001
0000
3000
0000
0102
0000
0023
1000
0230
0000
,
2300
0000
0000
0000
0110
0000
0001
0000
3000
0000
0102
0000
0023
1000
0230
0000
,
2300
3000
0000
0200
1310
0000
0020
0030
0200
0300
0011
2000
3000
0000
0210
0300
,
2101
0000
0000
0000
0011
0000
0100
0000
3000
0000
0102
0000
0023
1000
0230
0000
,
2300
0000
0000
0000
0011
0000
0100
0000
3000
0000
0102
0000
0023
1000
0230
0000
,
2300
0000
0000
0000
0011
0000
0100
0000
3000
0000
0102
0000
0023
1000
0230
0000
,
2300
3000
0000
0200
1310
0000
0020
0030
0200
0300
1001
0020
0030
0000
0012
0003
,
1012
0000
0000
0000
0110
0000
1000
0000
0003
0000
2010
0000
3200
0001
0320
0000
,
0032
0000
0000
0000
0110
0000
1000
0000
0003
0000
2010
0000
3200
0001
0320
0000
,
0032
0000
0000
0000
0110
0000
1000
0000
0003
0000
2010
0000
3200
0001
0320
0000
,
0032
0003
0000
0020
0131
0000
0200
0300
0020
0030
1100
0002
0003
0000
0120
0030
,
1012
0000
0000
0000
1100
0000
0010
0000
0003
0000
2010
0000
3200
0001
0320
0000
,
0032
0000
0000
0000
1100
0000
0010
0000
0003
0000
2010
0000
3200
0001
0320
0000
,
0032
0000
0000
0000
1100
0000
0010
0000
0003
0000
2010
0000
3200
0001
0320
0000
,
0032
0003
0000
0020
0131
0000
0200
0300
0020
0030
1001
0200
0300
0000
2100
3000
,
2011
0100
0101
0010
0000
0020
0231
0302
,
3203
0010
1010
0001
0320
0002
1203
2300
,
3230
0010
0011
1000
0000
1000
0312
0000
,
0023
0100
0101
1000
0032
1010
1010
1010
,
0203
0010
0011
1000
0300
0020
2130
3002
,
0203
0010
1010
0001
0320
0001
1100
0000
,
0032
0100
1100
0010
0000
0010
1100
0000
,
0100
1000
1010
0100
0000
0110
0113
0110
,
1102
0010
1010
0100
0000
0200
1320
2030
,
3023
0100
0101
1000
0230
2000
3021
0032
,
0323
0100
1100
0001
0000
0001
2130
0000
,
3200
0010
1010
0001
2300
0101
0101
0101
,
3020
0100
1100
0001
0030
0200
0312
2003
,
3020
0100
0101
1000
0230
1000
0011
0000
,
2300
0000
0000
0000
0000
0000
0000
0000
0000
0000
0000
0000
0000
0000
0000
0000
0000
0000
0000
0000
0000
0000
0000
0000
0010
0000
0000
0000
0000
0000
0000
0000
0000
0000
0000
0000
0000
0000
0000
0000
0000
0000
0000
0000
0000
0000
0000
0000
0011
0000
0000
0000
0000
0000
0000
0000
0000
0000
0000
0000
0000
0000
0000
0000
0000
0000
0000
0000
0000
0000
0000
0000
0200
3000
0000
0000
0000
0000
0000
0000
0000
0000
0000
0000
0000
0000
0000
0000
0000
0000
0000
0000
0000
0000
0000
0000
0000
0000
0000
0000
0000
0000
0000
0000
0000
0000
0000
0000
0000
0000
0000
0000
0000
0000
0000
0000
0000
0000
0000
0000
0010
0000
0000
0000
0000
0000
0000
0000
0000
0000
0000
0000
0000
0000
0000
0000
0000
0000
0000
0000
0000
0000
0000
0000
1002
0000
0000
0000
0000
0000
0000
0000
0000
0000
0000
0000
0000
0000
0000
0000
0000
0000
0000
0000
0000
0000
0000
0000
0000
0000
0000
0000
0000
0000
0000
0000
0000
0000
0000
0000
0000
0000
0000
0000
0000
0000
0000
0000
0000
0000
0000
0000
,
2003
0000
0010
0000
0011
0000
0001
0000
0000
0300
0110
0000
0110
0000
0110
3000
,
0111
1000
0100
0001
0000
1000
0001
1000
,
0010
0010
0100
0001
0000
0100
0001
1000
,
0111
1000
0100
0001
0000
1000
0001
1000
,
0010
0010
0100
0001
0000
0100
0001
1000
,
0111
1000
0100
0001
0000
1000
0001
1000
,
0010
0010
0100
0001
0000
0100
0001
1000
,
0111
1000
0100
0001
0000
1000
0001
1000
,
0011
0000
0000
0000
0010
0000
0000
0000
0100
0000
0000
0000
0001
0010
0100
0010
1000
0000
0000
0000
1100
0000
0000
0000
1100
0000
0010
0000
0101
0000
0010
0000
,
1011
0000
0000
0000
;

//---------------dance-single - ----------------
#NOTES:
     dance-single:
     :
     Hard:
     11:
     1.000,1.000,1.000,0.492,0.201,672.000,255.000,66.000,0.000,8.000:
1000
0100
1000
0100
0010
0001
0010
0001
,
1000
0100
1000
0100
0010
0001
0010
0001
,
1000
0100
1000
0100
0010
0001
0010
0001
,
1000
0000
0000
0000
0100
0000
0000
0000
1000
0000
0000
0000
0001
0010
0100
1000
0001
0000
0000
0000
0100
0000
0000
0000
0010
0000
0100
0000
0010
0000
0100
0000
,
1001
0010
0101
1000
0001
1100
0011
1010
,
0101
0010
0100
0001
1000
0011
1010
1100
,
0101
0010
0101
1000
0011
1100
0010
1001
,
0100
0011
0011
0110
1100
0101
1001
1010
,
1001
0010
1000
0001
0100
0011
1100
0101
,
1010
0001
0100
0010
1000
0110
1100
1001
,
0101
0010
1001
0100
0011
1100
0010
0101
,
1000
0011
1010
1100
1001
0110
1001
0101
,
1100
0010
0100
0001
1000
0110
1100
0101
,
1001
0100
0001
1000
0010
1100
0101
0011
,
1010
0100
0011
1000
0101
1010
0100
1001
,
0010
1100
0101
0011
1010
0101
1010
0110
,
1001
0010
0001
1000
0010
1100
1001
0011
,
1010
0100
0010
1000
0001
1010
0011
1001
,
1100
0010
0101
1000
0011
1100
0010
0101
,
1000
0110
0110
0011
1010
1100
1001
0101
,
2000
0000
0010
0000
0010
0010
0100
0000
,
3002
0010
1000
0010
0203
0320
2030
3002
,
0203
0000
0010
0000
0001
0001
0010
0000
,
1000
0010
0001
0010
0000
0001
1000
0300
,
0001
0000
0110
0000
1000
1000
0011
0000
,
0100
0000
0000
0000
0001
0000
0000
0000
1010
0000
0000
0000
0001
0010
0100
1000
0001
0000
0000
0000
0100
0000
0000
0000
0010
0000
1000
0000
0010
0000
1000
0000
,
0011
0000
0100
0000
0010
0000
1000
0001
1000
0010
1001
0000
0101
0000
1100
0000
,
0011
0100
0010
1000
0001
0000
0100
0010
0100
0001
1100
0000
1010
0000
0011
0000
,
1001
0001
0101
0100
0110
1010
0100
1001
,
0010
0101
0101
1100
1010
0011
1001
0110
,
1100
0000
0010
0000
0100
0000
0001
1000
0001
0100
0011
0000
1010
0000
1100
0000
,
0101
0010
0100
0001
1000
0000
0010
0100
0010
1000
0011
0000
0101
0000
1001
0000
,
1100
1000
1001
0001
0101
0110
1000
0011
,
0100
1010
0101
1010
0110
0011
1001
1100
,
0101
0000
0010
0000
0100
0000
0001
1000
0001
0100
1001
0000
1010
0000
0011
0000
,
1010
0100
0010
1000
0001
0000
1000
0010
1000
0001
1100
0000
1001
0000
0101
0000
,
0110
0010
1010
1000
1001
0101
0010
1100
,
0001
0110
1001
0110
1100
0101
0011
1001
,
1010
0000
0100
0000
0010
0000
1000
0001
1000
0010
1100
0000
0101
0000
0011
0000
,
1010
0001
1000
0010
0100
0000
0001
0010
0001
1000
0101
0000
0110
0000
1100
0000
,
1001
0001
0101
0100
0110
1010
0100
0011
,
1000
0110
0110
0110
0101
1100
1010
0011
,
1002
0000
0100
0000
0100
0100
0010
0000
,
2103
0001
0100
0001
3020
0230
0302
2003
,
3120
0000
0100
0000
1000
1000
0100
0000
,
0001
0100
1000
0100
0000
1000
0001
0030
,
1001
0000
0110
0000
0001
0001
1100
0000
,
0010
0000
0000
0000
1000
0000
0000
0000
0101
0000
0000
0000
1000
0100
0010
0001
1000
0000
0010
0000
0100
0000
0001
0000
0010
0000
0100
0000
1000
0000
0010
0000
,
2001
0000
0010
0000
3000
0200
0302
2003
,
3020
0000
0100
0000
0030
2000
3200
0320
,
0032
0000
0100
0000
0003
2000
3020
0230
,
1301
0000
0000
0011
0000
0000
0110
0000
1010
0000
0000
1100
0000
0000
0101
0000
,
1002
0000
0100
0000
0003
0020
2030
3002
,
0203
0000
0010
0000
0300
0002
0023
0230
,
2300
0000
0010
0000
3000
0002
0203
0320
,
1031
0000
0000
1100
0000
0000
0110
0000
0101
0000
0000
0011
0000
0000
1010
0000
,
2001
0000
0010
0000
3000
0200
0302
2003
,
3020
0000
0100
0000
0030
2000
3200
0320
,
0032
0000
0100
0000
0003
2000
3020
0230
,
1301
0000
0000
0011
0000
0000
0110
0000
1010
0000
0000
1100
0000
0000
0101
0000
,
1002
0000
0100
0000
0003
0020
2030
3002
,
0203
0000
0010
0000
0300
0002
0023
0230
,
2300
0000
0010
0000
3000
0002
0203
0320
,
1031
0000
0000
1100
0000
0000
0110
0000
0101
0000
0000
0011
0000
0000
1010
0000
,
1100
0010
0100
0001
1000
1100
0110
0011
,
1001
0100
0010
1000
0001
0101
1001
1010
,
0110
1000
0010
0100
0001
1000
0011
0100
,
1010
0001
1000
0010
1001
1100
1100
1100
,
0101
0010
0100
0001
1000
1010
0011
0101
,
1001
0010
1000
0001
1100
0010
0100
0001
,
0210
1000
0001
0010
0000
0001
0010
0000
,
1000
0010
1000
0001
0000
0311
0011
0011
,
1001
0100
0010
1000
0001
0011
0110
1100
,
1001
0010
0100
0001
1000
1010
1001
0101
,
0110
0001
0100
0010
1000
0001
1100
0010
,
0101
1000
0001
0100
1001
0101
0101
0101
,
1100
0010
0100
0001
1000
0101
1100
1010
,
1001
0100
0001
1000
0011
0100
0010
1000
,
0120
0001
1000
0100
0000
0100
2030
0000
,
3002
0010
0100
1000
0000
1013
1010
1010
,
1001
1000
0100
0001
0000
1000
0001
1000
,
0010
0010
0100
0001
0000
0100
0001
1000
,
0011
1000
0100
0001
0000
1000
0001
1000
,
0010
0010
0100
0001
0000
0100
0001
1000
,
0011
1000
0100
0001
0000
1000
0001
1000
,
0010
0010
0100
0001
0000
0100
0001
1000
,
0011
1000
0100
0001
0000
1000
0001
1000
,
0101
0000
0000
0000
1000
0000
0000
0000
0001
0000
0000
0000
1000
0100
0010
0001
1000
0000
0000
0000
0010
0000
0000
0000
0100
0000
0001
0000
0100
0000
0001
0000
,
1100
0000
0000
0000
;
