#TITLE:Need The Speed;
#SUBTITLE:;
#ARTIST:m1dy;
#TITLETRANSLIT:;
#SUBTITLETRANSLIT:;
#ARTISTTRANSLIT:;
#CREDIT:;
#BANNER:need the speed-bn.png;
#BACKGROUND:need the speed-bg.png;
#LYRICSPATH:;
#CDTITLE:!cdtitle.png;
#MUSIC:11-Need The Speed.mp3;
#OFFSET:0.420;
#SAMPLESTART:8.000;
#SAMPLELENGTH:12.000;
#SELECTABLE:YES;
#BPMS:0.000=222.340,88.000=111.180,88.500=111.180,90.000=222.340,125.000=111.180,129.625=222.340,129.875=222.340,157.750=444.677,158.000=444.677,165.750=222.340,166.000=222.340,194.000=444.677,234.000=889.372,249.000=444.678,361.000=222.341,376.000=444.678,378.000=222.341,418.000=444.678,422.000=889.371,422.500=889.371,423.000=899.372,430.000=444.678,436.000=444.658,438.000=222.340,446.000=222.341,462.000=444.678,475.000=222.341,504.000=444.678,627.000=889.371,642.000=444.678,680.000=889.372,684.000=444.678,712.000=222.341,712.500=222.341,714.000=444.678,714.500=444.678,762.750=889.371,763.000=889.371,778.000=444.358;
#STOPS:28.000=0.980
,361.000=2.160
,430.000=1.100
,470.000=0.560
,499.000=0.700
,569.000=0.820
,642.000=1.020
;
#BGCHANGES:;
// cache tags:
#FIRSTBEAT:23.500;
#LASTBEAT:784.000;
#SONGFILENAME:Songs/hard shit/m1dy-need the speed/m1dy.sm;
#HASMUSIC:1;
#HASBANNER:1;
#MUSICLENGTH:160.339;
// end cache tags

//---------------dance-single - ----------------
#NOTES:
     dance-single:
     :
     Challenge:
     13:
     1.000,1.000,1.000,1.000,0.412,1235.000,711.000,268.000,0.000,4.000:


0000
0000
0000
0000
,
0000
0000
0000
0000
,
0000
0000
0000
0000
,
0000
0000
0000
0000
,
0000
0000
0000
0000
,
0000
0000
0000
0000
0000
0000
0000
0000
0000
0000
0000
0000
0000
0000
1000
0001
,
1000
0010
1000
0001
1000
0010
1000
0001
1000
0010
1000
0001
1000
0010
1000
0002
,
0000
0013
1000
0010
1000
0000
0100
0000
0010
0000
0001
0000
1000
0000
0100
0000
0010
0000
0001
0000
1000
0000
0100
0000
0010
0000
0001
0000
1000
0000
0100
0000
,
0010
0001
1100
0000
0110
0000
1001
0000
0110
0000
0011
0000
1100
0000
0110
0000
,
1100
0011
0110
1010
0101
0011
1100
0011
,
1100
0110
0101
1010
0011
0110
1100
0011
,
1001
0000
1010
0000
0101
0000
1001
0000
0011
0000
1100
0000
0011
0000
0100
0010
,
1001
0110
1001
0110
0101
1100
1001
0011
,
0110
1010
0101
1100
0110
0101
1100
0011
,
1000
0001
1000
0010
1000
0001
1000
0010
1000
0001
1000
0010
1000
0001
1000
0010
,
2000
0000
0200
3300
2000
0000
0200
3300
,
2100
3110
0101
1100
0110
1100
0011
0110
,
1100
0110
0011
0110
1100
1010
1001
0011
,
1100
0011
0101
0110
1100
0110
0011
1100
,
0110
0000
1100
0000
1001
0000
0110
0000
1100
0000
0011
0000
0011
0000
1100
0010
,
0101
0010
0101
0000
1100
0000
0011
0000
0011
0000
1010
0000
1100
0000
0110
0000
,
1100
0110
1001
0101
1001
0110
1100
0110
,
2000
3000
2200
3300
0200
0300
2000
3000
1000
0000
1000
0000
1000
0000
1000
0000
,
1100
0011
1100
0011
1100
0011
1100
0011
1100
0011
1100
0000
0110
0000
1010
0000
,
0101
0000
0000
0000
0001
0000
0010
0100
1000
0000
0000
0000
0011
0000
0000
0000
0110
0000
0000
0000
1100
0000
0000
0000
0101
0000
0000
0000
0110
0000
0000
0000
,
1001
0000
1010
0000
0110
0000
1001
0100
0010
0000
0110
0000
1100
0000
0101
0000
,
1100
0000
0000
0000
0011
0000
0000
0000
1001
0000
0000
0000
0011
0000
1000
0000
0100
0010
0001
0000
0010
0000
0000
0000
0100
0000
0010
0000
0100
0000
0000
0000
,
1100
0000
0000
0000
0011
0000
0000
0000
1100
0000
0000
0000
1000
0100
0010
0001
0010
0100
1000
0000
0110
0000
0000
0000
1001
0000
0000
0000
0101
0000
0000
0000
,
0110
0000
0000
0000
1010
0000
0000
0000
0101
0000
0000
0000
0100
0010
0001
0000
1100
0000
0010
0000
0100
0000
0000
0000
0011
0000
0000
0000
1010
0000
0000
0000
,
1100
0000
0000
0000
0110
0000
0000
0000
0011
0000
0000
0000
1100
0000
0000
0000
0102
0000
0003
0000
2002
0003
3010
0000
0202
0000
0303
0000
2200
0000
3300
0000
,
0022
0000
0033
0000
2200
0000
3300
0000
0022
0000
0033
0000
2200
0000
3300
0000
0022
0000
0033
0000
2200
0000
3301
0000
0010
0100
0000
0000
0001
0000
0000
0000
,
0001
0010
0100
0000
1000
0000
0000
0000
2002
0000
0000
0000
3103
0010
0001
0010
0100
1000
0100
0010
0001
0010
0100
1000
0100
0010
0001
0010
0100
1000
0000
0000
,
0000
1000
0010
0100
0000
2000
0000
0000
0000
0000
0000
3000
1010
0000
0000
0000
1010
0000
0000
0000
1100
0000
0000
0000
0011
0000
0000
0000
1010
0000
0000
0000
,
1100
1010
0011
0101
1001
1001
1100
0011
,
0101
0110
1010
0011
1100
0011
1001
1100
,
0011
0000
0110
0000
1001
0000
0001
1000
0001
0010
0001
1000
0001
0010
0001
1000
,
0001
0010
0001
1000
0001
0010
1001
0000
0101
0000
0110
0000
1100
0000
0011
0000
,
0110
1001
1001
0110
0110
1001
0011
1100
,
1100
0000
0011
0000
0110
0000
0011
0000
2200
3300
0220
0330
2002
3003
0202
0303
,
2200
3310
1000
0001
1000
0010
1000
0001
1000
0000
0100
0000
0010
0000
0001
0000
,
1000
0100
0010
0001
1000
0100
0010
0001
,
1000
0100
0010
0001
1100
0110
0010
1100
,
0101
1010
0101
1100
0010
1001
0010
1010
,
1100
0001
1100
1010
0001
1010
0001
0110
,
1100
0001
1010
0011
1000
0110
0001
0011
,
0110
0000
0001
0000
1010
0100
1010
0000
0101
0000
0110
0000
0001
0000
1001
0000
,
1010
1000
0101
0110
1001
0011
1000
0110
,
0101
0000
1000
0000
1001
0000
1100
0000
1100
0000
1010
0000
0011
0000
1010
0001
,
1000
0010
1000
0010
1000
0001
1000
0010
0001
0000
0010
0000
0100
0000
0001
0000
,
0010
0100
0001
0010
0100
0001
0010
0001
,
0010
2000
0000
0000
,
0000
0000
0000
0000
,
0000
0000
0000
0000
,
0000
0000
0000
0000
,
0000
0000
0000
0000
,
0000
0000
0000
0000
,
3000
0000
0001
0100
0001
0010
0001
0100
,
0001
0010
0001
0100
0001
0010
0001
0100
,
0001
0010
0001
0100
1000
0000
0100
0000
,
0010
0001
0010
0100
,
1000
0100
0010
0001
,
0010
0100
1000
0100
,
0010
0000
0000
0000
0001
0000
0000
0000
0010
0000
0000
0000
2020
3030
0000
0000
,
2020
3030
0000
0000
1000
0000
0000
0000
0220
0330
0000
0000
1000
0000
0000
0000
,
0220
0330
0000
0000
0001
0000
0000
0000
2200
3300
0000
0000
0100
0000
0000
0000
,
2020
3030
0000
0000
0100
0000
0000
0000
2002
3003
0000
0000
0100
0000
0000
0000
,
2020
3030
0000
0000
0100
0000
0000
0000
2200
3300
0000
0000
0001
0000
0000
0000
,
0220
0330
0000
0000
1000
0000
0000
0000
2200
3300
0000
0000
0010
0000
0000
0000
,
0202
0303
0000
0000
0010
0000
0000
0000
2200
3300
0000
0000
0010
0000
0000
0000
,
0202
0303
0000
0000
0010
0000
0000
0000
0220
0330
0000
0000
0010
0000
0000
0000
,
0202
0303
0000
0000
0100
0000
0000
0000
2200
3300
0000
0000
0010
0000
0000
0000
,
2200
3300
0000
0000
0010
0000
0000
0000
0022
0033
0000
0000
0100
0000
0000
0000
,
2002
3003
0000
0000
0100
0000
0000
0000
2020
3030
0000
0000
0100
0000
0000
0000
,
2002
3003
0000
0000
0010
0000
0000
0000
0202
0303
0000
0000
0100
0000
0000
0000
,
2002
3003
0000
0000
0100
0000
0000
0000
0022
0033
0000
0000
0010
0000
0000
0000
,
0202
0303
0000
0000
0010
0000
0000
0000
2200
3300
0000
0000
0010
0000
0000
0000
,
2020
3030
0000
0000
0001
0000
0000
0000
0220
0330
0000
0000
0001
0000
0000
0000
,
0202
0303
0000
0000
0001
0000
0000
0000
0220
0330
0000
0000
1000
0000
0000
0000
,
2020
3030
0000
0000
1000
0000
0000
0000
0202
0303
0000
0000
0010
0000
0000
0000
,
0202
0303
0000
0000
1000
0000
0000
0000
0220
0330
0000
0000
0001
0000
0000
0000
,
0220
0330
0000
0000
0010
0000
0000
0000
2200
3300
0000
0000
0010
0000
0000
0000
,
2020
3030
0000
0000
0001
0000
0000
0000
0202
0303
0000
0000
0001
0000
0000
0000
,
2200
3300
0000
0000
0010
0000
0000
0000
2200
3300
0000
0000
0001
0000
0000
0000
,
0202
0303
0000
0000
1000
0000
0000
0000
0220
0330
0000
0000
1000
0000
0000
0000
,
2200
3300
0000
0000
0001
0000
0000
0000
0202
0303
0000
0000
1000
0000
0000
0000
,
0022
0033
0000
0000
0010
0000
0000
0000
2002
3003
0000
0000
0100
0000
0000
0000
,
0220
0330
0000
0000
0010
0000
0000
0000
2020
3030
0000
0000
0010
0000
0000
0000
,
2200
3300
0000
0000
0001
0000
0000
0000
0220
0330
0000
0000
0001
0000
0000
0000
,
2002
3003
0000
0000
0100
0000
0000
0000
2020
3030
0000
0000
0100
0000
0000
0000
,
0202
0303
0000
0000
0010
0000
0000
0000
2002
3003
0000
0000
0100
0000
0000
0000
,
0022
0000
0000
0000
0000
0000
0000
0000
0000
0000
0000
0000
0033
0100
0000
0000
0000
0000
1100
0000
0000
0000
0000
0000
0011
0000
0000
0000
0000
0000
0011
0000
0000
0000
0000
0000
0101
0000
0000
0000
0000
0000
1100
0000
0000
0010
0000
0000
,
0101
0000
1100
0000
0011
0000
1100
0000
1100
0000
0110
0000
0110
0000
1001
0010
,
1100
0000
0011
0000
0110
0000
0110
0000
0101
0000
0101
0000
1100
0000
1100
0010
,
0101
0000
1010
0000
0101
0010
1000
0010
0100
0010
1000
0010
0100
0010
1000
0010
,
0001
1000
0001
1000
0011
1100
0011
0110
,
1001
0000
1010
0100
1001
0000
0101
0000
0110
0000
1100
0000
1100
0000
0011
0000
,
0011
0000
1100
0010
0101
0000
1010
0000
1010
0000
1001
0000
1001
0000
0110
0000
,
0110
0000
1001
0010
1100
0000
0011
0000
1001
0010
1000
0001
1000
0010
1000
0001
,
1000
0010
1000
0001
1000
0010
1000
0001
1100
0000
0011
0000
0011
0000
1100
0000
,
1100
1001
0101
1001
1001
0110
0110
0011
,
0011
1100
1010
0110
0101
1001
1001
0011
,
0011
1100
1010
0011
0101
1100
1100
0101
,
0011
0000
0000
0000
1100
0000
0000
0000
0110
0000
0000
0000
1001
0000
0010
0000
1001
0000
0010
0000
2200
3300
0000
0000
2002
3003
0000
0000
0022
0033
0000
0000
,
2200
3300
0000
0000
2002
3003
0000
0000
0022
0033
0000
0000
0220
0330
0000
0000
0022
0033
0000
0000
2200
3300
0000
0000
2002
3003
0000
0000
0022
0033
0000
0000
,
0220
0330
0000
0000
2200
3300
0000
0000
2200
3300
0000
0000
0220
0330
0000
0000
0011
0000
0000
0000
0100
0000
0000
0000
0010
0000
0000
0000
0001
0000
0000
0000
,
0010
0100
0001
0010
1000
0100
1000
0000
,
0001
1000
0001
1000
,
0001
0000
1000
0000
0001
0100
0001
0100
,
0001
0100
0001
0100
0001
0100
0001
0100
,
0012
0100
0010
0100
0013
0011
1001
1100
,
0110
0101
1001
0110
1010
0110
1010
0101
,
0110
1010
1100
1001
0110
1010
1100
0011
,
0110
1001
0011
0110
1100
0101
1001
1010
,
1100
0000
0101
0000
0011
0000
1000
0100
0010
0100
1000
0000
0101
0000
0110
0000
,
1001
0101
0011
1100
0110
0101
1010
1001
,
0110
0011
1100
0110
0011
1000
0001
1000
,
0001
1000
0001
1000
0001
1000
0001
1000
,
0001
1000
0001
0010
1100
0001
0010
0100
,
1000
0001
0010
0100
1000
0100
0011
1010
,
1100
0110
0011
1010
0110
0011
0101
1100
,
1010
0011
1100
0011
0101
1100
0011
0110
,
1100
0110
1001
0011
1100
1001
0011
1100
,
1010
0000
0101
0000
1010
0000
0110
0000
1010
0001
1010
0001
1010
0000
0011
0000
,
1100
0011
1100
0110
0011
0110
1010
0110
,
0011
0110
1100
0011
1010
0220
0330
0000
,
1000
0100
0010
0001
0010
0100
1000
0100
0010
0001
0010
0100
1000
0100
0010
0001
,
1100
0011
1100
0011
1100
0011
1100
0011
,
1100
0011
1100
0011
1100
0011
1100
0011
,
1100
0011
1100
0000
0101
0000
1010
0000
,
0011
1010
0101
1010
,
1100
1010
0101
0110
,
0101
1010
1100
0011
,
0101
1010
0110
1100
,
0110
1010
0101
1001
,
0110
1100
1001
0011
,
1100
0000
0011
0000
0101
0000
1100
0010
,
1001
0010
0101
0000
1100
0000
0011
0000
,
1001
1100
0011
0011
,
1100
0110
0011
1010
,
0110
1001
0110
1100
,
0011
1100
0011
1010
,
1100
0001
1010
0001
1010
0001
1010
0001
,
2020
3030
0101
1100
,
0110
0011
1100
0110
,
1001
0110
0110
1001
,
0101
0110
1100
0011
,
0110
1100
0101
0011
,
1010
0101
0110
1001
,
0101
0110
0101
0011
,
1100
0011
0110
1100
,
0110
0000
0000
0000
0000
0000
0000
0000
0110
0000
0000
0000
0001
0000
0000
0000
2200
3300
0000
0000
0000
0000
0000
0000
0022
0033
0000
0000
0000
0000
0000
0000
,
0220
0330
0000
0000
0000
0000
0000
0000
2200
3300
0000
0000
0000
0000
0000
0000
0220
0330
0000
0000
0000
0000
0000
0000
0022
0033
0000
0000
0000
0000
0000
0000
,
0202
0303
0000
0000
0000
0000
0000
0000
0220
0330
0000
0000
0000
0000
0000
0000
2002
3003
0000
0000
0000
0000
0000
0000
0022
0033
0000
0000
0000
0000
0000
0000
,
0220
0330
0000
0000
0000
0000
0000
0000
0022
0033
0000
0000
0000
0000
0000
0000
0220
0330
0000
0000
0000
0000
0000
0000
2200
3300
0000
0000
0000
0000
0000
0000
,
2020
3030
0000
0000
0000
0000
0000
0000
0022
0033
0000
0000
0000
0000
0000
0000
0202
0303
0000
0000
0000
0000
0000
0000
0220
0330
0000
0000
0000
0000
0000
0000
,
2002
3003
0000
0000
0000
0000
0000
0000
2020
3030
0000
0000
0000
0000
0000
0000
2000
3000
0000
0000
0010
0000
0000
0000
2000
3000
0000
0000
0001
0000
0000
0000
,
2000
3000
0000
0000
0010
0000
0000
0000
2000
3000
0000
0000
0001
0000
0000
0000
2000
3000
0000
0000
0010
0000
0000
0000
2000
3000
0000
0000
0000
0000
0000
0000
,
0001
1000
0001
1000
,
0001
1000
0001
1000
,
0001
1000
0001
1000
,
0001
0000
1000
0000
1000
0100
0010
0001
,
0010
0100
1000
0100
0010
0001
0010
0100
,
1000
0100
0010
0001
1010
0000
1010
0000
,
1010
0000
0000
0000
0110
0000
0000
0000
0110
0000
0000
0000
1001
0000
0010
0001
,
1100
1010
1010
0101
,
0101
0000
0000
0000
1001
0000
0000
0000
1001
0000
0000
0000
0011
0000
1000
0001
,
0110
1010
1010
1001
,
1001
0000
0000
0000
0011
0000
0000
0000
0011
0000
0000
0000
1100
0000
0001
1000
,
0110
0000
0011
0000
1001
0010
1000
0010
,
1000
0010
1000
0010
1000
0010
1000
0000
,
0001
0100
0010
0001
0100
0010
1000
0010
,
0101
0110
0110
1001
,
1001
0000
0000
0000
1001
0000
0010
0001
1100
0000
0000
0000
1001
0000
0000
0000
,
1001
0011
0011
1100
,
1100
0000
0000
0000
0101
0000
1000
0100
0011
0000
0000
0000
0110
0000
0000
0000
,
0110
0101
0101
0011
,
0101
0000
0000
0000
1100
0000
0001
0010
1100
0000
0000
0000
1001
0000
0000
0000
,
1001
0010
1000
0010
1000
0010
1000
0010
,
2000
0000
0000
3000
1100
0000
1100
0000
,
1010
1010
1100
0011
,
1010
1001
1001
0011
,
0011
1100
1100
0101
,
1001
1100
0011
0011
,
1010
1010
1100
1100
,
0011
0101
1010
1010
,
0011
0011
1100
1100
,
0101
0000
0000
0000
0101
0000
0010
0000
1001
0000
0000
0000
0202
0303
0000
0000
,
0022
0033
0000
0000
2200
3300
0000
0000
0220
0330
0000
0000
0022
0033
0000
0000
,
2020
3030
0000
0000
0220
0330
0000
0000
2002
3003
0000
0000
0220
0330
0000
0000
,
2200
3300
0000
0000
0022
0033
0000
0000
2200
3300
0000
0000
0022
0033
0000
0000
,
2020
3030
0000
0000
0202
0303
0000
0000
1000
0000
0010
0000
1001
0000
0000
0000
,
0100
0010
0001
0010
,
0100
1000
0100
0010
,
0001
0010
0100
1000
,
0100
0000
0010
0000
0001
1000
0001
1000
,
0001
1000
0001
1000
0001
1000
0001
1000
,
0011
0000
0000
0000
;

//---------------dance-single - ----------------
#NOTES:
     dance-single:
     :
     Hard:
     12:
     1.000,1.000,1.000,1.000,0.390,1219.000,468.000,220.000,0.000,2.000:


0000
0000
0000
0000
,
0000
0000
0000
0000
,
0000
0000
0000
0000
,
0000
0000
0000
0000
,
0000
0000
0000
0000
,
0000
0000
0000
0000
0000
0000
0000
0000
0000
0000
0000
0000
0000
0000
1000
0001
,
1000
0010
1000
0001
1000
0010
1000
0001
1000
0010
1000
0001
1000
0010
1000
0001
,
0000
0010
1000
0010
1000
0000
0001
0000
1000
0000
0001
0000
1000
0000
0001
0000
1000
0000
0001
0000
1000
0000
0001
0000
1000
0000
0001
0000
1000
0000
0001
0000
,
1000
0001
0100
0000
0110
0000
0001
0000
0110
0000
0001
0000
1100
0000
0010
0000
,
1100
0001
0110
1000
0101
0001
1100
0010
,
1100
0100
0101
1000
0011
0100
1100
0001
,
1001
0000
1000
0000
0101
0000
0010
0000
1100
0000
0010
0000
1001
0000
0100
0010
,
1001
0100
1001
0100
0110
1000
1100
0001
,
0110
0010
0101
1000
0110
0001
1100
0001
,
1000
0001
1000
0010
1000
0001
1000
0010
1000
0001
1000
0010
1000
0001
1000
0010
,
2000
0000
0200
3300
2000
0000
0200
3300
,
2100
3010
0101
1000
0110
1000
0011
0100
,
1100
0100
0011
0010
1100
1000
1001
0001
,
1100
0010
0101
0010
1100
0100
0011
1000
,
0110
0000
1000
0000
1001
0000
0100
0000
1100
0000
0010
0000
0011
0000
1000
0010
,
0100
0010
0100
0000
1100
0000
0010
0000
0011
0000
0010
0000
1100
0000
0010
0000
,
1100
0100
1001
0100
1001
0010
1100
0100
,
2000
3000
2200
3300
0200
0300
2000
3000
1000
0000
1000
0000
1000
0000
1000
0000
,
0100
0010
0100
0010
0100
0010
0100
0010
0100
0010
1000
0000
0110
0000
1000
0000
,
0101
0000
0000
0000
0001
0000
0010
0100
1000
0000
0000
0000
0001
0000
0000
0000
0110
0000
0000
0000
0100
0000
0000
0000
0101
0000
0000
0000
0100
0000
0000
0000
,
1001
0000
1000
0000
0110
0000
1000
0100
0010
0000
0100
0000
1100
0000
0001
0000
,
1100
0000
0000
0000
0010
0000
0000
0000
1001
0000
0000
0000
0001
0000
1000
0000
0100
0010
0001
0000
0100
0000
0010
0000
0100
0000
0000
0000
0100
0000
0000
0000
,
1100
0000
0000
0000
0001
0000
0000
0000
1001
0000
0000
0000
0010
0000
1000
0001
1000
0001
1000
0000
0100
0000
0000
0000
1010
0000
0000
0000
0001
0000
0000
0000
,
0110
0000
0000
0000
1000
0000
0000
0000
0101
0000
0000
0000
0001
0100
0001
0000
1000
0000
0001
0000
1000
0000
0000
0000
0011
0000
0000
0000
0010
0000
0000
0000
,
1100
0000
0000
0000
0100
0000
0000
0000
0011
0000
0000
0000
0100
0000
0000
0000
0102
0000
0003
0000
2000
3000
0010
0000
0202
0000
0303
0000
2000
0000
3000
0000
,
0202
0000
0303
0000
2000
0000
3000
0000
0022
0000
0033
0000
2000
0000
3000
0000
0202
0000
0303
0000
2000
0000
3100
0000
0010
0001
0000
0000
0100
0000
0000
0000
,
0001
1000
0001
0000
0010
0000
0000
0000
2002
0000
0000
0000
3103
0010
0001
0010
0100
1000
0100
0010
0001
0010
0100
1000
0100
0010
0001
0010
0100
1000
0000
0000
,
0000
1000
0010
0100
0000
2000
0000
0000
0000
0000
0000
3000
1000
0000
0000
0000
1010
0000
0000
0000
1000
0000
0000
0000
0011
0000
0000
0000
1000
0000
0000
0000
,
1100
1000
0011
0001
1001
1000
1100
0001
,
0101
0010
1010
0001
1100
0001
1001
1000
,
0011
0000
0100
0000
1001
0000
0001
1000
0001
0010
0001
1000
0001
0010
0001
1000
,
0001
0010
0001
1000
0001
0010
1001
0000
0101
0000
0010
0000
1100
0000
0001
0000
,
0110
1000
1001
0100
0110
1000
0011
1000
,
1100
0000
0001
0000
0110
0000
0001
0000
2000
3000
0200
0300
2000
3000
0200
0300
,
2000
3010
1000
0001
1000
0010
1000
0001
1000
0000
0100
0000
0010
0000
0001
0000
,
1000
0100
0010
0001
1000
0100
0010
0001
,
1000
0100
0010
0001
1100
0011
0010
1100
,
0101
1000
0101
1000
0011
1000
0110
1000
,
1010
0100
1100
1000
0011
1100
0001
0100
,
1100
0001
1010
0010
1010
0100
0001
0010
,
0110
0000
0001
0000
1000
0100
1000
0000
0101
0000
0100
0000
0001
0000
1000
0000
,
1010
1000
0101
0010
1001
0001
1100
0100
,
0101
0000
1000
0000
1001
0000
1000
0000
1100
0000
1000
0000
0011
0000
1000
0001
,
1000
0010
1000
0010
1000
0001
1000
0010
1000
0000
0001
0000
1000
0000
0001
0000
,
1000
0001
1000
0001
1000
0001
1000
0001
,
1000
2000
0000
0000
,
0000
0000
0000
0000
,
0000
0000
0000
0000
,
0000
0000
0000
0000
,
0000
0000
0000
0000
,
0000
0000
0000
0000
,
3000
0000
0001
0100
0001
0010
0001
0100
,
0001
0010
0001
0100
0001
0010
0001
0100
,
0001
0010
0001
0100
1000
0000
0100
0000
,
0010
0001
0010
0100
,
1000
0100
0010
0001
,
0010
0100
1000
0100
,
0010
0000
0000
0000
0001
0000
0000
0000
0010
0000
0000
0000
2020
3030
0000
0000
,
2020
3030
0000
0000
1000
0000
0000
0000
0220
0330
0000
0000
1000
0000
0000
0000
,
0220
0330
0000
0000
0001
0000
0000
0000
2200
3300
0000
0000
0100
0000
0000
0000
,
2020
3030
0000
0000
0100
0000
0000
0000
2002
3003
0000
0000
0100
0000
0000
0000
,
2020
3030
0000
0000
0100
0000
0000
0000
2200
3300
0000
0000
0001
0000
0000
0000
,
0220
0330
0000
0000
1000
0000
0000
0000
2200
3300
0000
0000
0010
0000
0000
0000
,
0202
0303
0000
0000
0010
0000
0000
0000
2200
3300
0000
0000
0010
0000
0000
0000
,
0202
0303
0000
0000
0010
0000
0000
0000
0220
0330
0000
0000
0010
0000
0000
0000
,
0202
0303
0000
0000
0100
0000
0000
0000
2200
3300
0000
0000
0010
0000
0000
0000
,
2200
3300
0000
0000
0010
0000
0000
0000
0022
0033
0000
0000
0100
0000
0000
0000
,
2002
3003
0000
0000
0100
0000
0000
0000
2020
3030
0000
0000
0100
0000
0000
0000
,
2002
3003
0000
0000
0010
0000
0000
0000
0202
0303
0000
0000
0100
0000
0000
0000
,
2002
3003
0000
0000
0100
0000
0000
0000
0022
0033
0000
0000
0010
0000
0000
0000
,
0202
0303
0000
0000
0010
0000
0000
0000
2200
3300
0000
0000
0010
0000
0000
0000
,
2020
3030
0000
0000
0001
0000
0000
0000
0220
0330
0000
0000
0001
0000
0000
0000
,
0202
0303
0000
0000
0001
0000
0000
0000
0220
0330
0000
0000
1000
0000
0000
0000
,
2020
3030
0000
0000
1000
0000
0000
0000
0202
0303
0000
0000
0010
0000
0000
0000
,
0202
0303
0000
0000
1000
0000
0000
0000
0220
0330
0000
0000
0001
0000
0000
0000
,
0220
0330
0000
0000
0010
0000
0000
0000
2200
3300
0000
0000
0010
0000
0000
0000
,
2020
3030
0000
0000
0001
0000
0000
0000
0202
0303
0000
0000
0001
0000
0000
0000
,
2200
3300
0000
0000
0010
0000
0000
0000
2200
3300
0000
0000
0001
0000
0000
0000
,
0202
0303
0000
0000
1000
0000
0000
0000
0220
0330
0000
0000
1000
0000
0000
0000
,
2200
3300
0000
0000
0001
0000
0000
0000
0202
0303
0000
0000
1000
0000
0000
0000
,
0022
0033
0000
0000
0010
0000
0000
0000
2002
3003
0000
0000
0100
0000
0000
0000
,
0220
0330
0000
0000
0010
0000
0000
0000
2020
3030
0000
0000
0010
0000
0000
0000
,
2200
3300
0000
0000
0001
0000
0000
0000
0220
0330
0000
0000
0001
0000
0000
0000
,
2002
3003
0000
0000
0100
0000
0000
0000
2020
3030
0000
0000
0100
0000
0000
0000
,
0202
0303
0000
0000
0010
0000
0000
0000
2002
3003
0000
0000
0100
0000
0000
0000
,
0022
0000
0000
0033
0000
0000
0000
0000
0000
0000
0000
0000
0000
0010
0000
0000
0000
0000
1000
0000
0000
0000
0000
0000
0011
0000
0000
0000
0000
0000
0001
0000
0000
0000
0000
0000
0101
0000
0000
0000
0000
0000
1000
0000
0000
0010
0000
0000
,
0101
0000
1000
0000
0011
0000
1000
0000
0101
0000
1000
0000
0110
0000
1000
0010
,
1100
0000
0010
0000
0110
0000
1000
0000
0101
0000
0100
0000
1001
0000
1000
0010
,
0101
0000
1000
0000
0101
0010
1000
0010
0100
0010
1000
0010
0100
0010
1000
0010
,
0201
0000
0000
0000
0000
0000
0000
0300
0011
0000
1000
0000
0011
0000
0100
0000
,
1001
0000
1000
0100
1010
0000
0100
0000
0110
0000
1000
0000
1100
0000
0001
0000
,
0011
0000
1000
0010
0101
0000
1000
0000
0011
0000
0100
0000
1100
0000
0100
0000
,
1001
0000
1000
0010
1100
0000
0001
0000
1001
0010
1000
0001
1000
0010
1000
0001
,
1000
0010
1000
0001
1000
0010
1000
0001
1100
0000
0010
0000
0011
0000
1000
0000
,
0101
0100
1001
1000
0110
0100
1100
0010
,
0011
1000
0101
0010
1100
0001
0110
0100
,
0011
1000
0110
1000
0011
1000
1100
0100
,
0011
0000
0000
0000
1000
0000
0000
0000
0110
0000
0000
0000
1000
0000
0010
0000
1000
0000
0010
0000
2200
3300
0000
0000
2002
3003
0000
0000
0022
0033
0000
0000
,
2200
3300
0000
0000
2002
3003
0000
0000
0022
0033
0000
0000
0220
0330
0000
0000
0022
0033
0000
0000
2200
3300
0000
0000
2002
3003
0000
0000
0022
0033
0000
0000
,
0220
0330
0000
0000
2200
3300
0000
0000
2200
3300
0000
0000
0220
0330
0000
0000
0011
0000
0000
0000
0100
0000
0000
0000
0010
0000
0000
0000
0001
0000
0000
0000
,
0010
0100
1000
0010
1000
0100
1000
0000
,
0001
1000
0001
1000
,
0001
0000
1000
0000
0001
0100
0001
0100
,
0001
0100
0001
0100
0001
0100
0001
0100
,
0012
0000
0000
0000
1013
0010
1100
1000
,
0110
0001
0011
0010
1010
0100
1010
0001
,
0110
1000
1100
1000
0110
0010
1100
0001
,
0110
1000
0011
0100
1100
0001
1001
0010
,
1100
0000
0001
0000
0011
0000
1000
0100
0010
0100
1000
0000
0101
0000
0010
0000
,
1001
0100
0011
1000
0110
0001
1010
1000
,
0110
0001
1100
0010
0011
1000
0001
1000
,
0001
1000
0001
1000
0001
1000
0001
1000
,
0001
1000
0001
0010
1100
0001
0010
0100
,
1000
0001
0010
0100
1000
0100
0011
0001
,
1100
0100
0011
1000
0110
0010
0011
1000
,
1100
0001
1100
0010
0011
1000
0011
0100
,
1100
0010
1001
0001
1100
0001
0011
1000
,
1010
0000
0001
0000
1010
0000
0100
0000
1000
0100
0010
0100
0011
0000
0001
0000
,
1100
0001
1100
0010
0011
0100
1010
0100
,
0011
0010
1100
0001
1010
0200
0300
0000
,
1000
0100
0010
0001
0010
0100
1000
0100
0010
0001
0010
0100
1000
0100
0010
0001
,
1000
0001
1000
0001
1000
0001
1000
0001
,
1000
0001
1000
0001
1000
0001
1000
0001
,
1000
0001
1000
0000
0101
0000
1010
0000
,
0011
1010
0101
1010
,
1100
1010
0101
0110
,
0101
1010
1100
0011
,
0101
1010
0110
1100
,
0110
1010
0101
1001
,
0110
1100
1001
0011
,
1100
0000
0011
0000
0101
0000
1100
0010
,
1000
0010
0100
0000
1100
0000
0011
0000
,
1001
1100
0011
0011
,
1100
0110
0011
1010
,
0110
1001
0110
1100
,
0011
1100
0011
1010
,
0101
0000
1000
0001
1000
0001
1000
0001
,
2000
3000
0101
1100
,
0110
0011
1100
0110
,
1001
0110
0110
1001
,
0101
0110
1100
0011
,
0110
1100
0101
0011
,
1010
0101
0110
1001
,
0101
0110
0101
0011
,
1100
0011
0110
1100
,
0110
0000
0110
0001
1100
0000
0011
0000
,
0110
1100
0110
0011
,
0101
0110
1001
1001
,
0110
0011
0110
1100
,
1010
0011
0101
0110
,
2002
3003
0000
0000
2020
3030
0000
0000
2000
3000
0010
0000
2000
3000
0001
0000
,
2000
3000
0010
0000
2000
3000
0001
0000
2000
3000
0010
0000
2000
3000
0000
0000
,
0001
1000
0001
1000
,
0001
1000
0001
1000
,
0001
1000
0001
1000
,
0001
0000
1000
0000
1000
0100
0010
0001
,
0010
0100
1000
0100
0010
0001
0010
0100
,
1000
0100
0010
0001
1100
0000
1010
0000
,
1001
0000
0110
0000
0110
0000
1000
0010
,
0101
1010
1100
0101
,
0101
0000
1010
0000
0101
0000
0001
1000
,
0110
1010
0101
1100
,
0110
0000
0011
0000
0101
0000
1000
0001
,
0110
0000
0101
0000
1000
0010
1000
0010
,
1000
0010
1000
0010
1000
0010
1000
0010
,
1000
0100
0010
0001
,
0011
0110
1100
0110
,
0011
0000
0001
1000
0110
0000
0101
0000
,
1001
0110
0011
0101
,
1100
0000
0001
1000
0011
0000
1100
0000
,
0110
0101
1010
0101
,
0001
0010
0100
0010
1001
0000
1010
0000
,
1000
0010
1000
0010
1000
0010
1000
0010
,
2000
0000
0000
3000
1010
0000
0101
0000
,
1010
1100
1010
0101
,
0110
0101
1010
1100
,
0011
0101
1010
0110
,
1100
0110
1010
0101
,
1001
0110
1100
1001
,
0011
1100
0011
0101
,
1100
1001
0101
1100
,
0011
0000
0000
0000
1000
0000
0100
0000
0011
0000
0000
0000
0022
0033
0000
0000
,
0022
0033
0000
0000
2200
3300
0000
0000
0220
0330
0000
0000
0022
0033
0000
0000
,
2020
3030
0000
0000
0220
0330
0000
0000
2002
3003
0000
0000
0220
0330
0000
0000
,
2200
3300
0000
0000
0022
0033
0000
0000
2200
3300
0000
0000
0022
0033
0000
0000
,
2020
3030
0000
0000
0202
0303
0000
0000
0010
0000
0100
0000
1000
0000
0000
0000
,
0100
0010
0001
0010
,
0100
1000
0100
0010
,
0001
0010
0100
1000
,
0100
0000
0010
0000
0001
1000
0001
1000
,
0001
1000
0001
1000
0001
1000
0001
1000
,
0011
0000
0000
0000
;
