#TITLE:Fire◎Flower;
#SUBTITLE:;
#ARTIST:鏡音レン;
#TITLETRANSLIT:Fire◎Flower;
#SUBTITLETRANSLIT:;
#ARTISTTRANSLIT:Ren Kagamine;
#CREDIT:;
#BANNER:fireflower_bn1.png;
#BACKGROUND:ffr.jpg;
#LYRICSPATH:;
#CDTITLE:;
#MUSIC:fireflower.mp3;
#OFFSET:0.100;
#SAMPLESTART:50.899;
#SAMPLELENGTH:12.000;
#SELECTABLE:YES;
#BPMS:0.000=136.700,31.000=175.480;
#STOPS:;
#BGCHANGES:;
// cache tags:
#FIRSTBEAT:3.000;
#LASTBEAT:284.250;
#SONGFILENAME:Songs/toune 1 (2010)/FireFlower/fireflower.sm;
#HASMUSIC:1;
#HASBANNER:1;
#MUSICLENGTH:101.642;
// end cache tags

//---------------dance-single - ----------------
#NOTES:
     dance-single:
     :
     Hard:
     6:
     0.600,0.699,0.885,0.512,0.954,285.000,90.000,52.000,0.000,4.000:
0000
0000
0000
2001
,
0000
0000
0000
0000
3000
0000
0000
0010
0000
0000
0000
0100
0000
0000
0000
0010
,
0000
1000
0000
0000
0010
0000
0000
0000
0002
0000
0000
0000
0003
0000
0000
0000
,
0100
0000
0000
0000
0000
0000
0000
0010
0000
0000
0000
0000
0000
0000
0000
0001
0000
0000
0000
0000
0000
0000
1000
0000
0000
0000
0010
0000
0000
0000
0000
0000
,
0000
0010
0000
0000
0000
0000
0000
0000
0200
0000
0000
0000
0000
0000
0000
0000
0300
0000
0000
0000
0000
0000
0000
0000
0000
0020
0000
0000
0000
0000
0000
0000
,
0000
0000
0000
0000
0030
0000
0000
0000
1000
0000
0000
0000
0000
0000
0000
0010
0000
0000
0000
0100
0000
0000
0000
0000
0000
0000
0100
0000
0000
0000
0000
0000
,
0000
0000
0001
0000
0000
0000
0000
0000
0000
0000
0000
0000
0010
0000
0000
0000
0000
0000
0000
1000
0000
0000
0000
0001
0000
0000
0000
0000
0000
0000
0100
0000
,
0000
0000
0000
0000
0000
0000
0000
0010
0000
0000
0000
0000
0000
0000
0000
2200
0000
0000
0000
0000
0000
0000
0000
0000
0000
0000
0000
0000
3300
0000
0000
0022
,
0000
0000
0000
0000
0000
0000
0000
0000
0000
0000
0000
0000
0000
0000
0000
0000
0000
0000
0000
0000
0000
0000
0000
0000
0033
0000
0000
0000
0000
0000
0000
1000
,
0000
0000
0000
0000
0000
0000
0000
0110
0000
0000
0000
0000
0000
0000
0000
0101
0000
0000
0000
0000
0000
0000
0000
0000
0000
0000
0000
0010
0000
0000
0000
0000
,
0000
0000
0000
1000
0000
0000
0000
0100
0000
0000
0000
0010
0000
0000
0000
1000
0000
0000
0000
0000
0000
0000
0000
0011
0000
0000
0000
0000
0000
0000
0000
0000
,
0000
0000
0000
0000
0000
0000
0000
0110
0000
0000
0000
0000
0000
0000
0000
1010
0000
0000
0000
0000
0000
0000
0000
0000
0000
0000
0000
0100
0000
0000
0000
0000
,
0000
0000
0000
0001
0000
0000
0000
0010
0000
0000
0000
0100
0000
0000
0000
0001
0000
0000
0000
0000
0000
0000
0000
0000
0000
0000
0000
0000
0000
0000
0000
0010
,
0000
0000
0000
0000
0000
0000
0000
1100
0000
0000
0000
0000
0000
0000
0000
0101
0000
0000
0000
0000
0000
0000
0000
0000
0000
0000
0000
0100
0000
0000
0000
0000
,
0000
0000
0000
0001
0000
0000
0000
0100
0000
0000
0000
1000
0000
0000
0000
0010
0000
0000
0000
0000
0000
0000
0000
1001
0000
0000
0000
0000
0000
0000
0000
0000
,
0000
0000
0000
0000
0000
0000
0000
0011
0000
0000
0000
0000
0000
0000
0000
1010
0000
0000
0000
0000
0000
0000
0000
0000
0000
0000
0000
0010
0000
0000
0000
0000
,
0000
0000
0000
1000
0000
0000
0000
0010
0000
0000
0000
0001
0000
0000
0000
0100
0000
0000
0000
0000
0000
0000
0000
0000
0000
0000
0000
0000
0000
0000
0000
0000
,
1002
0000
0000
0000
0003
0000
0100
0010
0100
0000
0000
0000
0010
0000
1000
0000
,
0000
0000
0010
1000
0000
0000
0101
0000
,
2010
0000
3000
0021
0000
0000
1031
0000
,
0000
0100
0010
0001
1000
1000
0000
0000
,
0021
0000
0030
0102
0000
0000
0113
0000
,
0000
0010
0100
0000
0100
0010
0000
0001
,
0200
0000
0300
0010
2000
0000
3010
0002
,
0000
1000
0100
1003
,
0120
0000
0000
0000
0000
0000
0000
0000
0000
0000
0000
0000
0000
1000
0000
0001
0000
1030
0000
0000
0000
0000
0000
0000
0000
0001
0000
0000
0000
0100
0000
0000
,
0000
0000
0000
0000
0000
0000
0000
0000
0000
0100
0000
0000
0000
0010
0000
0000
0000
0000
0000
0000
0000
0000
0000
0000
0000
1100
0000
0000
0000
0000
0000
0000
,
0000
0021
0000
0000
0000
0000
0000
0000
0000
0030
0000
0000
0000
0102
0000
0000
0000
0000
0000
0000
0000
0000
0000
0000
0000
0113
0000
0000
0000
0000
0000
0000
,
0000
0000
0000
0000
0000
1000
0000
0000
0000
0001
0000
0000
0000
0100
0000
0000
0000
0010
0000
0000
0000
0100
0000
0000
0000
0010
0000
0000
0000
0000
0000
0000
,
0000
0102
0000
0000
0000
0000
0000
0000
0000
0003
0000
0000
0000
0210
0000
0000
0000
0000
0000
0000
0000
0300
0000
0000
0000
0021
0000
0000
0000
0000
0000
0000
,
0000
0030
0000
0000
0000
0000
0000
0000
0000
1000
0000
0000
0000
0010
0000
0000
0000
1000
0000
0000
0000
0010
0000
0000
0000
0100
0000
0000
0000
0010
0000
0000
,
0000
2000
0000
0000
0000
0000
0000
0000
0000
3000
0000
0000
0000
0001
0000
0000
0000
0200
0000
0000
0000
0000
0000
0000
0000
0300
0000
0000
0000
0001
0000
0000
,
0000
1010
0000
0000
0000
0000
0000
0000
0000
0000
0000
0000
0000
0000
0000
0000
0000
0100
0000
0000
0000
0010
0000
0000
0000
0000
0000
0000
0000
0000
0000
0000
,
0000
1100
0000
0000
0000
0000
0000
0000
0000
0000
0000
0000
0000
0011
0000
0000
0000
0000
0000
0000
0000
0110
0000
0000
0000
0000
0000
0000
0000
1001
0000
0000
,
0000
0000
0000
0000
0000
1000
0000
0000
0000
0100
0000
0000
0000
0010
0000
0000
0000
0001
0000
0000
0000
0100
0000
0000
0000
0010
0000
0000
0000
0000
0000
0000
,
0000
0001
0000
0000
0000
0100
0000
0000
0000
0001
0000
0000
0000
0100
0000
0000
0000
0010
0000
0000
0000
1000
0000
0000
0000
0010
0000
0000
0000
1000
0000
0000
,
0000
0001
0000
0000
0000
0100
0000
0000
0000
0010
0000
0000
0000
0100
0000
0000
0000
0001
0000
0000
0000
0010
0000
0000
0000
0100
0000
0000
0000
1000
0000
0000
,
0000
0010
0000
0000
0000
0000
0000
0000
0000
0000
0000
0000
0000
1100
0000
0000
0000
0000
0000
0000
0000
0110
0000
0000
0000
0000
0000
0000
0000
1001
0000
0000
,
0000
0000
0000
0000
0000
0001
0000
0000
0000
0010
0000
0000
0000
0100
0000
0000
0000
1000
0000
0000
0000
0010
0000
0000
0000
0100
0000
0000
0000
0000
0000
0000
,
0000
1000
0000
0000
0000
0010
0000
0000
0000
1000
0000
0000
0000
0010
0000
0000
0000
0100
0000
0000
0000
0001
0000
0000
0000
0100
0000
0000
0000
0001
0000
0000
,
0000
1000
0000
0000
0000
0010
0000
0000
0000
0100
0000
0000
0000
0010
0000
0000
0000
1000
0000
0000
0000
0100
0000
0000
0000
0010
0000
0000
0000
0000
0000
0000
,
0000
2002
0000
0000
0000
0000
0000
0000
0000
0000
0000
0000
0000
0000
0000
0000
0000
0000
0000
0000
0000
0000
0000
0000
0000
3003
0000
0000
0000
0000
0000
0000
,
0000
0200
0000
0000
0000
0000
0300
0000
0000
0020
0000
0000
0000
0000
0000
0030
,
0000
2001
0000
0000
0000
0000
0000
0000
0000
0000
0000
0000
3000
0010
0000
0000
,
0000
0110
0000
0000
0000
1000
0000
0010
0000
0000
0000
0110
0000
0000
0000
2020
,
0000
0000
0000
0000
3030
0000
0000
0000
0000
1100
0000
0000
0000
0011
0000
0000
,
0000
1010
0000
0000
0000
0001
0000
0100
0000
0000
0000
0110
0000
0000
0000
0202
,
0000
0000
0000
0000
0303
0000
0000
0000
0000
1020
0000
0000
0000
0000
0000
0000
,
0030
0100
0000
0000
0000
0010
0000
1100
0000
0000
0000
0101
0000
0000
0000
0110
,
0000
0000
0000
0000
0000
0010
0000
0000
0000
1000
0000
0010
0000
0000
0000
0002
,
0000
0000
0000
0003
0000
0200
0000
0000
0000
0310
0000
1000
0000
0000
0000
0000
,
0000
1002
0000
0000
0000
0000
0000
0000
0000
0000
0000
0000
0003
0100
0000
0000
,
0000
0000
0110
0000
0000
0000
0000
0000
0000
0000
0001
0000
0000
0000
0100
0000
0000
0000
0000
0000
0000
0000
0000
0110
0000
0000
0000
0000
0000
0000
0000
0202
,
0000
0000
0000
0000
0000
0000
0000
0000
0000
0303
0000
0000
0000
0000
0000
0000
0000
0000
0000
0011
0000
0000
0000
0000
0000
0000
0000
1100
0000
0000
0000
0000
,
0000
0000
0000
0101
0000
0000
0000
0000
0000
0000
0000
1000
0000
0000
0000
0010
0000
0000
0000
0000
0000
0000
0000
0110
0000
0000
0000
0000
0000
0000
0000
2020
,
0000
0000
0000
0000
0000
0000
0000
0000
0000
3030
0000
0000
0000
0000
0000
0000
0000
0000
0000
0201
0000
0000
0000
0000
0000
0000
0000
0000
0000
0000
0000
0000
,
0300
0000
0000
0010
0000
0000
0000
0000
0000
0000
0000
0100
0000
0000
0000
0011
0000
0000
0000
0000
0000
0000
0000
1010
0000
0000
0000
0000
0000
0000
0000
0110
,
0000
0000
0000
0000
0000
0000
0000
0000
0000
0000
0000
0100
0000
0000
0000
0000
0000
0000
0000
0001
0000
0000
0000
0100
0000
0000
0000
0000
0000
0000
0000
2000
,
0000
0000
0000
0000
0000
0000
0000
3000
0000
0000
0000
0020
0000
0000
0000
0000
0000
0000
0000
0130
0000
0000
0000
0001
0000
0000
0000
0000
0000
0000
0000
0000
,
0000
0110
0110
0000
1001
1001
0000
0110
,
0110
0000
1001
1001
0000
0100
0000
0010
,
0000
1100
1100
0000
0011
0011
0000
1100
,
1100
0000
0011
0011
0000
1000
0000
0001
,
0000
0110
0000
0110
0000
1001
0000
0000
,
0002
0000
0100
0013
0100
0020
0000
1030
,
0000
0000
0000
0110
0000
1001
0000
0000
,
2000
0000
0010
3100
0010
0002
0000
0003
,
0000
0000
0000
1001
0000
0110
0000
0000
,
0002
0000
0103
0010
0100
0020
0000
1031
,
0000
0000
0000
1001
0000
0110
0000
0000
,
2000
0000
0010
3100
0010
0002
0000
0000
,
0000
0003
0000
0000
0000
0000
0000
0000
0000
0000
0000
0000
0000
0000
0000
0000
;
