#TITLE:Wizards In Winter;
#SUBTITLE:;
#ARTIST:Trans-Siberian Orchestra;
#TITLETRANSLIT:;
#SUBTITLETRANSLIT:;
#ARTISTTRANSLIT:;
#CREDIT:;
#BANNER:Wizards In Winter bn.png;
#BACKGROUND:Wizards In Winter bg.png;
#LYRICSPATH:;
#CDTITLE:cdtitle.png;
#MUSIC:Wizards In Winter.mp3;
#OFFSET:-0.288;
#SAMPLESTART:137.700;
#SAMPLELENGTH:12.160;
#SELECTABLE:YES;
#BPMS:0.000=148.400;
#STOPS:;
#BGCHANGES:;
// cache tags:
#FIRSTBEAT:0.000;
#LASTBEAT:448.000;
#SONGFILENAME:Songs/Keys of Flames/Wizards In Winter (skauert)/Wizards In Winter.sm;
#HASMUSIC:1;
#HASBANNER:1;
#MUSICLENGTH:186.044;
// end cache tags

//---------------dance-single - Copied from----------------
#NOTES:
     dance-single:
     Copied from:
     Challenge:
     14:
     1.000,1.000,1.000,0.317,0.908,1103.000,394.000,59.000,0.000,212.000:
1100
1100
0010
0001
0110
0110
0001
1000
,
0101
0101
0010
0001
1010
1010
0100
1000
,
0011
0011
0100
0010
1001
1001
0100
0001
,
0110
0001
0010
0100
0010
0100
1000
0100
,
1001
1001
0010
0001
1010
1010
0001
0100
,
0011
0011
1000
0100
1010
1010
0100
0010
,
1100
1100
0001
1000
0110
0110
1000
0010
,
1001
1000
0100
0010
0001
0010
0100
1000
,
1001
0100
0010
0100
1001
0010
0100
0010
0101
1000
0010
1000
0101
0010
1000
0010
,
1100
0001
0010
0001
1100
0010
0001
0010
1001
0010
0100
0010
1001
0100
0010
0100
,
0011
0100
1000
0100
0011
1000
0100
1000
0101
0010
1000
0010
0101
1000
0010
0100
,
1001
0010
0100
1000
0001
0010
0100
1000
,
1001
0100
0010
0001
1100
0001
0010
0100
1001
0010
0100
1000
0011
1000
0100
0010
,
0101
1000
0100
0010
0101
0010
0100
0010
1100
0001
0010
0100
1010
0100
0010
0100
,
0011
0100
1000
0100
1010
0001
0010
0001
1100
0010
0001
0010
0101
1000
0100
0010
,
1001
0000
0000
1000
0100
0010
0001
0010
,
1011
0000
0000
1000
0100
0010
0001
0010
,
1011
0000
0000
1001
1011
0000
0000
1001
,
1011
0000
0000
0000
1101
0000
0000
0000
0111
0000
0000
0000
0011
0100
0010
0100
,
1001
0100
0011
0100
1000
0100
0010
0001
0110
1000
0101
0010
0100
1000
0010
0100
,
1001
0100
1010
0001
0100
0010
1000
0100
0011
0100
0011
0100
1000
0010
0100
0010
,
1001
0100
0011
1000
0100
0010
0001
0100
0011
1000
0101
0010
0100
0010
1000
0100
,
1001
0010
0100
0010
1000
0100
0010
0001
,
1001
0100
1010
0001
0100
0010
0100
1000
0101
0010
1001
0100
0010
0001
0100
0010
,
1100
0010
0101
0010
0001
0100
0010
0100
1001
0100
1010
0100
0010
0100
0001
0010
,
1100
0010
1100
0001
0100
0010
1000
0100
1010
0100
1010
0100
0010
0001
0010
0100
,
1001
0000
0000
0001
0010
0100
1000
0100
,
1011
0000
0000
0001
0010
0100
1000
0100
,
1011
0000
0000
1001
1101
0000
0000
1001
,
1101
0100
0010
0001
,
0010
0100
1000
0100
,
1011
0100
1011
0100
1101
0010
1101
0010
,
1101
0001
1011
0010
1101
0001
1011
0010
,
1101
0010
1101
0010
1011
0100
1011
0100
,
1011
1000
1011
0100
1101
1000
1011
0100
,
2001
0000
0110
0001
0110
0000
0100
0000
,
0000
0000
0011
0100
0011
0000
0001
0000
,
0000
0000
0101
0010
0101
0000
0001
0000
,
0011
0110
0011
3110
,
1002
0000
0110
1000
0110
0000
0100
0000
,
0000
0000
1100
0010
1100
0000
0100
0000
,
0000
0000
1010
0100
1010
0000
1100
0000
,
0110
0110
1100
0103
,
1011
0000
0000
1000
0100
0010
0001
0010
,
1101
0000
0000
1000
0100
0010
0001
0010
,
1101
0000
0000
0101
0111
0000
0000
0101
,
1101
0000
0000
0000
1011
0000
0000
0000
1110
0000
0000
0000
1100
0010
0100
0010
,
1101
0010
0100
0001
0100
0010
1000
0100
1011
0100
0010
0100
0001
0100
0010
0100
,
1011
0100
0010
1000
0010
0100
0001
0010
1101
0010
0100
0010
1000
0010
0100
0010
,
1101
0010
0100
0010
0001
0100
0001
0010
1101
0010
0100
0010
1000
0010
1000
0100
,
1011
0100
0010
1000
0100
0001
0100
0010
,
1011
0100
1000
0100
0001
0010
0001
0100
1011
0100
0010
0001
0100
0010
0100
0010
,
1101
0010
0001
0010
1000
0100
1000
0010
1101
0010
0100
1000
0010
0100
0010
0001
,
1110
0001
0100
0010
1000
0010
0100
1000
0111
1000
0010
0100
0001
0100
0010
0100
,
1011
0000
0000
1000
0100
0010
0100
0010
,
1101
0000
0000
1000
0100
0010
0100
0010
,
1101
0000
0000
1000
0100
0010
0001
0010
,
0001
0010
0100
1000
,
0011
0110
0110
1100
,
0001
0100
0011
1000
0010
0100
0011
1000
,
0010
0100
0011
1000
0100
1000
0101
0010
,
1101
1100
0010
1100
1101
1100
0010
1100
,
1101
1100
0001
1100
1110
1100
0010
1100
,
1011
0011
0100
0011
1011
0011
0100
0011
,
1011
0011
1000
0011
0111
0011
0100
0011
,
2011
0110
0000
0011
0011
0110
0000
3011
,
0012
0110
0000
0110
0110
1100
0000
0113
,
0210
0011
0000
0011
0011
1001
0000
0311
,
0021
1100
0000
1100
1100
1001
0000
1130
,
2100
0110
0000
0110
0110
0011
0000
0110
,
0110
0101
0000
0110
0110
0011
0000
3110
,
0202
1010
0000
1010
1010
1010
0000
1313
,
2020
0101
0000
0101
0101
0101
0000
3131
,
2002
0110
0000
0110
0110
0110
0000
3113
,
2200
0011
0000
0011
0011
0011
0000
0011
,
0011
0011
0000
0011
0011
0011
0000
0311
,
0110
0011
0000
0011
0110
0011
0000
3011
,
1011
0000
0000
1000
0100
0010
0001
0100
,
1011
0000
0000
1100
0110
0011
0110
0011
,
1101
0000
0000
0011
1011
0000
0000
0011
,
1011
0000
0000
0000
1110
0000
0000
0000
1101
0000
0000
0000
1100
0010
0100
0010
,
1101
0010
0001
0100
0011
1000
0010
0100
1011
0100
0010
0100
0011
1000
0100
1000
,
0111
1000
0100
0010
1001
0010
0100
0010
1101
0010
1000
0010
0101
1000
0100
0010
,
1101
0010
0001
0010
1100
0010
0100
0010
1101
0010
0100
0010
0101
1000
0100
1000
,
0111
1000
0100
0010
0001
0100
0010
0001
,
1101
0010
0100
1000
0110
0001
0010
0100
1011
0100
0010
0001
0110
1000
0100
0010
,
1101
0010
1000
0100
0011
0100
1000
0010
1101
0010
0001
0100
0011
0100
0001
0010
,
1101
0010
0100
0010
0101
0010
1000
0100
1011
0100
1000
0010
0101
0010
0100
0010
,
1001
0100
1000
0100
1000
0010
1000
0010
0100
0010
0100
0010
0100
0001
0100
0001
,
1001
0100
1000
0100
1000
0010
1000
0010
0100
0010
0100
0010
0100
0001
0100
0001
,
1001
0100
1000
0100
0010
0100
0010
0100
1001
0100
1000
0100
0010
0100
0010
0100
,
1001
0010
0010
0010
1001
0100
0100
0100
1010
0001
0001
0001
1010
0100
0010
0100
,
2011
0100
0010
3100
0012
1000
0100
0013
2100
0001
0010
3100
0012
0100
1000
0013
,
1100
0010
0100
0001
0110
1000
0001
0100
0011
0100
1000
0100
1001
0010
0100
0010
,
1002
0100
0010
0103
2010
0001
0100
3010
0102
1000
0010
0103
2010
0001
0100
3010
,
1001
0100
0010
0001
0110
1000
0100
0010
1001
0100
0010
0001
0110
1000
0100
0010
,
0201
0010
1000
0301
1020
0100
0001
1030
0201
0010
1000
0301
1020
0100
0001
0130
,
1001
0010
0001
0100
0011
1000
0100
0001
1010
0100
0001
0100
1001
0010
1000
0100
,
2001
0000
0001
3000
0120
0000
0100
0030
0210
0000
0010
0300
1002
0000
1000
0103
,
2001
0000
0001
3000
0120
0000
0100
0030
0210
0000
0010
0300
1002
0000
1000
0103
,
2011
0011
0110
3101
1102
1100
0110
1013
,
2110
0000
3101
0000
0112
0000
1013
0000
2110
0000
3101
0000
1012
0100
1013
0100
,
0011
1000
0011
0100
0011
1000
0011
0100
1010
0001
1100
0010
1100
0001
1100
0010
,
0101
1000
0011
0100
0011
1000
0011
0100
1010
0001
1100
0010
1100
0001
1100
0010
,
2102
0010
3103
0000
2012
0100
3013
0000
2102
0010
3103
0000
2012
0100
3013
0000
,
2120
0001
3130
0000
1202
0010
1303
0000
2021
0100
3031
0000
0212
1000
0313
0000
,
1011
0100
1000
0100
1000
0010
1000
0010
1101
0010
0100
0010
0100
0001
0100
0001
,
1110
0001
0010
0001
0100
0001
0100
0010
1101
0010
0100
0010
1000
0010
1000
0010
,
1101
0010
0100
0010
0100
1000
0100
0010
1101
0010
0001
0010
0100
0010
0100
0010
,
1101
0010
0001
0010
1000
0100
1000
0100
1011
0100
1001
0010
1101
0010
1001
0100
,
2002
0000
0000
0000
,
0000
0000
0000
0000
,
3113
0000
0000
0000
;

//---------------dance-single - Copied from Copied f----------------
#NOTES:
     dance-single:
     Copied from Copied f:
     Hard:
     12:
     1.000,1.000,1.000,0.156,0.908,1077.000,199.000,29.000,0.000,2.000:
1100
1100
0010
0001
0110
0110
0001
1000
,
0101
0101
0010
0001
1010
1010
0100
1000
,
0011
0011
0100
0010
1001
1001
0100
0001
,
0110
0001
0010
0100
0010
0100
1000
0100
,
1001
1001
0010
0001
1010
1010
0001
0100
,
0011
0011
1000
0100
1010
1010
0100
0010
,
1100
1100
0001
1000
0110
0110
1000
0010
,
1001
1000
0100
0010
0001
0010
0100
1000
,
1000
0100
0010
0001
1000
0010
0100
0001
1000
0100
0001
0100
1000
0001
0010
0001
,
1000
0010
0001
0010
1000
0010
0100
0010
1000
0100
1000
0001
0010
1000
0010
0001
,
0100
0010
0100
0001
0010
0100
1000
0001
0100
0010
1000
0010
0100
0001
0100
0010
,
1001
0010
0100
1000
0001
0010
0100
1000
,
0001
0100
0010
1000
0010
1000
0100
1000
0001
0100
0010
0100
0001
1000
0100
0001
,
0100
1000
0010
0100
0001
0100
0010
1000
0001
0010
0100
0010
0001
1000
0010
0100
,
0001
1000
0010
0001
0010
1000
0010
0100
0001
1000
0100
0010
0001
0100
0010
0100
,
1001
0000
0000
1000
0100
0010
0001
0010
,
0011
0000
0000
1000
0100
0010
0001
0010
,
0011
0000
0000
1001
1001
0000
0000
1001
,
1001
0000
0000
0000
0101
0000
0000
0000
0011
0000
0000
0000
0010
0100
0010
0100
,
1001
0010
0100
1000
0001
0100
0010
0100
0001
0100
0001
0100
0010
1000
0010
0100
,
1001
0010
0100
0010
0100
0001
0100
0010
1000
0100
0010
0100
1000
0001
0100
0010
,
1001
0100
0010
0001
0100
0010
1000
0100
1000
0001
0100
0010
1000
0100
0010
0100
,
1001
0010
0100
0010
1000
0100
0010
0001
,
1001
0100
0010
0001
1000
0100
1000
0001
0010
0100
1000
0010
0100
0010
1000
0100
,
1001
0100
0010
1000
0100
1000
0001
0010
0001
0010
0100
0001
0100
0010
1000
0010
,
0101
0010
1000
0001
1000
0010
0100
0001
0100
0010
1000
0010
0100
0001
0100
0010
,
1001
0000
0000
0001
0010
0100
1000
0100
,
1010
0000
0000
0001
0010
0100
1000
0100
,
1010
0000
0000
1001
1001
0000
0000
1001
,
1001
0100
0010
0001
,
0010
0100
1000
0100
,
1010
0100
1010
0100
0101
0010
0101
0010
,
1100
0001
1100
0010
1100
0001
1100
0010
,
1001
0010
1001
0010
1001
0100
1001
0100
,
0011
1000
0011
0100
0011
1000
0011
0100
,
2001
0000
0010
0001
0010
0000
0100
0000
,
0000
0000
0010
0100
0010
0000
0001
0000
,
0000
0000
0001
0010
0001
0000
0001
0000
,
0010
0100
0010
3100
,
1002
0000
0100
1000
0100
0000
0100
0000
,
0000
0000
0100
0010
0100
0000
0100
0000
,
0000
0000
1000
0100
0010
0000
1000
0000
,
0100
0010
1000
0103
,
1001
0000
0000
1000
0100
0010
0001
0010
,
1100
0000
0000
1000
0100
0010
0001
0010
,
1100
0000
0000
0101
0101
0000
0000
0101
,
0101
0000
0000
0000
0011
0000
0000
0000
0110
0000
0000
0000
0100
0010
0100
0010
,
1001
0100
0010
0100
0001
0010
0001
0010
1100
0001
0100
0010
1000
0100
0010
0100
,
1001
0010
0100
0010
1000
0100
1000
0010
0101
0010
1000
0010
0100
0010
1000
0010
,
1001
0100
0001
0100
0010
1000
0100
1000
0011
0100
0010
1000
0001
0100
0010
0100
,
1001
0100
0010
1000
0100
0001
0100
0010
,
1001
0100
0010
1000
0010
0100
0001
0100
1010
0100
0001
0010
0100
1000
0010
0100
,
1001
0100
0010
0001
0100
0010
1000
0100
0011
1000
0100
1000
0001
0100
0010
0100
,
1001
0010
0100
0001
1000
0100
0010
0001
1100
0001
0100
0010
1000
0001
0010
0100
,
1001
0000
0000
1000
0100
0010
0100
0010
,
0101
0000
0000
1000
0100
0010
0100
0010
,
0101
0000
0000
1000
0100
0010
0001
0010
,
0001
0010
0100
1000
,
0011
0110
0110
1100
,
0001
0100
0011
1000
0010
0100
0011
1000
,
0010
0100
0011
1000
0100
1000
0101
0010
,
1100
1100
0000
1100
0101
1100
0000
1100
,
0101
1100
0000
1100
0101
1100
0000
1100
,
0110
0011
0000
0011
1010
0011
0000
0011
,
1010
0011
0000
0011
1010
0011
0000
0011
,
2001
0000
0010
0000
0100
0000
0010
3000
,
1002
0000
0100
0000
0010
0000
0100
0003
,
0201
0000
1000
0000
0001
0000
1000
0300
,
1020
0000
1000
0000
0100
0000
0001
0030
,
2001
0100
0010
0001
,
0100
0000
0010
0000
0001
0000
0010
3000
,
2000
3200
0320
0032
,
2003
3020
0230
0302
,
0203
0320
0230
0302
,
2013
0010
0000
0001
0001
0010
0000
0001
,
0001
0010
0000
0001
0001
0010
0000
0010
,
0010
0100
0000
0010
0010
0100
0000
3010
,
1001
0000
0000
1000
0100
0010
0001
0100
,
1010
0000
0000
1010
0100
0011
0100
0010
,
1001
0000
0000
0011
1001
0000
0000
0011
,
1001
0000
0000
0000
1010
0000
0000
0000
1100
0000
0000
0000
0100
0010
0100
0010
,
1001
0100
1000
0100
0010
0001
0010
0001
1000
0100
1000
0100
0010
0001
0010
0001
,
1100
0010
0100
0001
0100
0010
1000
0100
0001
0100
0010
1000
0010
0100
0001
0010
,
1100
0001
0010
0100
1000
0010
0100
0001
0100
0010
1000
0010
0100
0010
1000
0100
,
0011
1000
0100
0010
0001
0100
0010
0001
,
1001
0100
0010
0100
1000
0010
0100
0010
1100
0001
0010
0001
0100
0010
0100
0010
,
1001
0100
0010
0100
0010
1000
0100
1000
0011
0100
0010
0100
0001
0100
0001
0100
,
1001
0010
0100
1000
0010
1000
0100
0010
1001
0100
0010
0100
0001
0010
0100
0010
,
1001
0100
1000
0100
1000
0010
1000
0010
0100
0010
0100
0010
0100
0001
0100
0001
,
1000
0100
1000
0100
1000
0010
1000
0010
0100
0010
0100
0010
0100
0001
0100
0001
,
1000
0100
1000
0100
0010
0100
0010
0100
1000
0100
1000
0100
0010
0100
0010
0100
,
1001
0010
0010
0010
0001
1000
1000
1000
0100
0001
0001
0001
1000
0100
0100
0100
,
1001
0010
0100
0010
1001
0100
0010
0100
0011
1000
0100
1000
0011
0100
0010
0100
,
1001
0010
0100
1000
0001
0100
0001
0100
0001
0100
0010
1000
0010
0100
0010
0100
,
1001
0100
0001
0100
0011
0100
0010
0100
1010
0001
0100
0001
0110
1000
0001
1000
,
0101
0010
0001
0100
0010
0100
0001
0010
1000
0100
1000
0010
0100
0001
0010
0100
,
1001
0100
0001
0100
1001
0010
1000
0010
1100
0001
0010
0100
0011
1000
0100
0010
,
1100
0001
0010
0001
0010
0100
1000
0100
1000
0001
0100
0001
0100
0010
0100
0010
,
2001
0000
0001
3000
0120
0000
0100
0030
0210
0000
0010
0300
1002
0000
1000
0103
,
2001
0000
0001
3000
0120
0000
0100
0030
0210
0000
0010
0300
1002
0000
1000
0103
,
0011
0011
0110
0101
1100
1100
0110
1010
,
0110
0000
0101
0000
0110
0000
1010
0000
0110
0000
0101
0000
1000
1000
1000
1000
,
0001
0010
0001
0010
0001
0100
0001
0100
0010
0100
0010
0100
0010
1000
0010
1000
,
0010
0100
0010
0100
0001
1000
0001
1000
0010
0100
0010
0100
0001
1000
0001
1000
,
0001
0010
0100
0000
0010
0100
1000
0000
0100
0010
0100
0000
0001
0010
0001
0000
,
1010
0100
0010
0000
0101
0010
0100
0000
1100
0010
0001
0000
0011
0100
1000
0000
,
1000
0100
0010
0001
1000
0010
0100
0001
0100
0010
0100
0010
1000
0100
1000
0100
,
0001
0010
0100
1000
0001
0100
0010
1000
0010
0100
0010
0100
0001
0010
0001
0010
,
1100
0001
0010
0001
0010
1000
0100
1000
0110
0001
0100
0001
0100
0010
0100
1000
,
0011
1000
0100
1000
0010
0100
0010
0100
0001
1000
0001
1000
0001
1000
0001
1000
,
0002
0000
0000
0000
,
0000
0000
0000
0000
,
0113
0000
0000
0000
;
