#TITLE:Hot Pepperz;
#SUBTITLE:;
#ARTIST:DJ Sharpnel;
#TITLETRANSLIT:;
#SUBTITLETRANSLIT:;
#ARTISTTRANSLIT:;
#CREDIT:;
#BANNER:hot pepperz bn.png;
#BACKGROUND:hot pepperz bg.png;
#LYRICSPATH:;
#CDTITLE:;
#MUSIC:Hot Pepperz.ogg;
#OFFSET:1.203;
#SAMPLESTART:136.806;
#SAMPLELENGTH:19.199;
#SELECTABLE:YES;
#BPMS:0.000=200.000;
#STOPS:;
#BGCHANGES:;
// cache tags:
#FIRSTBEAT:4.000;
#LASTBEAT:1055.500;
#SONGFILENAME:Songs/SHARPNELSTREAMZ v2/Hot Pepperz/Hot Pepperz.sm;
#HASMUSIC:1;
#HASBANNER:1;
#MUSICLENGTH:315.710;
// end cache tags

//---------------dance-single - 17 (Nappo)----------------
#NOTES:
     dance-single:
     17 (Nappo):
     Challenge:
     17:
     1.000,1.000,0.082,0.108,1.000,3335.000,26.000,34.000,11.000,0.000:
0000
0000
0000
0000
,
1001
0000
1000
0000
0001
0000
1000
0010
1000
0010
0100
0001
1000
0000
0100
0000
,
0010
0000
0010
0000
0001
0000
1000
0100
1000
0100
0010
0001
1000
0000
0001
0000
,
1000
0000
1000
0000
0010
0000
0100
0001
0100
0001
1000
0010
0100
0000
0001
0000
,
1000
0000
1000
0000
0100
0000
0010
0001
0010
0001
1000
0100
0010
0000
0100
0000
,
1000
0000
1000
0000
0001
0000
1000
0010
1000
0010
0100
0001
1000
0000
0100
0000
,
0010
0000
0010
0000
0001
0000
1000
0100
1000
0100
0010
0001
1000
0000
0001
0000
,
1000
0000
1000
0000
0010
0000
0100
0001
0100
0001
1000
0010
0100
0000
0001
0000
,
1000
0000
1000
0000
0100
0000
0010
0001
0010
0001
1000
0100
0010
0000
0001
0000
,
1000
0000
0010
0000
0100
0000
0010
1000
0001
0100
0010
1000
0001
0000
1000
0000
,
0100
0000
0010
0000
0001
0000
1000
0001
0010
0100
1000
0001
1000
0000
0010
0000
,
0100
0000
0001
0000
1000
0000
0100
1000
0001
0010
0100
1000
0001
0000
0010
0000
,
0001
0000
0100
0000
0010
0000
1000
0010
0100
0001
0010
0100
1000
0000
0001
0000
,
0100
0000
0001
0000
1000
0000
0100
1000
0001
0010
0100
1000
0001
0000
0100
0000
,
0010
0000
1000
0000
0001
0000
1000
0010
0100
0001
0010
0100
1000
0000
0001
0000
,
0100
0000
0010
0000
1000
0000
0010
0100
0001
0010
0100
1000
0001
0000
0010
0000
,
0001
0000
2000
3000
0020
0030
2000
3000
0002
0000
0000
0000
0003
0000
0000
0000
,
1000
0100
0010
0100
1000
0001
0100
0001
1000
0001
0100
0001
1000
0010
1000
0001
,
0010
0100
1000
0001
1000
0010
0100
0001
1000
0001
1000
0001
0010
0100
1000
0001
,
1000
0010
0100
0010
1000
0001
0010
0001
1000
0001
0010
0001
1000
0100
1000
0001
,
0100
0010
1000
0001
0010
0100
1000
0001
1000
0001
1000
0001
0100
0010
1000
0001
,
1000
0100
0010
0100
1000
0001
0100
0001
1000
0001
0100
0001
1000
0010
1000
0001
,
0010
0100
1000
0001
1000
0010
0100
0001
1000
0001
1000
0001
0010
0100
1000
0001
,
1000
0010
0100
0010
1000
0001
0010
0001
1000
0001
0010
0001
1000
0100
1000
0001
,
0100
0010
1000
0001
0010
0100
1000
0001
1000
0001
1000
0001
0100
0010
1000
0001
,
1000
0100
0010
0100
1000
0001
0100
0001
1000
0001
0100
0001
1000
0010
1000
0001
,
0010
0100
1000
0001
1000
0010
0100
0001
1000
0001
1000
0001
0010
0100
1000
0001
,
1000
0010
0100
0010
1000
0001
0010
0001
1000
0001
0010
0001
1000
0100
1000
0001
,
0100
0010
1000
0001
0010
0100
1000
0001
1000
0001
1000
0001
0100
0010
1000
0001
,
1000
0100
0010
0100
1000
0001
0100
0001
1000
0001
0100
0001
1000
0010
1000
0001
,
0010
0100
1000
0001
1000
0010
0100
0001
1000
0001
1000
0001
0010
0100
1000
0001
,
1000
0001
1000
0001
1000
0001
1000
0001
1000
0001
1000
0001
1000
0001
1000
0001
,
0200
0310
1000
0001
0020
0130
1000
0001
1000
0010
0100
0001
0010
0100
1000
0001
,
0010
0100
1000
0001
1000
0100
1000
0010
0100
0001
0100
0010
1000
0010
0100
0001
,
1000
0100
1000
0001
1000
0100
1000
0010
0100
0001
0100
0010
1000
0010
0100
0001
,
1000
0100
1000
0001
1000
0100
1000
0010
0100
0001
0100
0010
1000
0010
0100
0001
,
1000
0100
1000
0001
0100
0001
0100
0010
1000
0100
1000
0001
0100
0001
0100
0010
,
1000
0100
1000
0001
1000
0100
1000
0010
0100
0001
0100
0010
1000
0010
0100
0001
,
1000
0100
1000
0001
1000
0100
1000
0010
0100
0001
0100
0010
1000
0010
0100
0001
,
1000
0100
1000
0001
1000
0100
1000
0010
0100
0001
0100
0010
1000
0010
0100
0001
,
1000
0100
1000
0001
0100
0001
0100
0010
1000
0100
1000
0001
0100
0001
0100
0010
,
1000
0100
0010
0001
1000
0010
0100
0001
1000
0010
1000
0001
1000
0100
0010
0001
,
1000
0100
1000
0001
1000
0010
0100
0001
1000
0010
1000
0100
0010
0001
1000
0010
,
0100
0001
1000
0010
1000
0100
0010
0001
1000
0100
1000
0001
1000
0010
0100
0001
,
1000
0010
1000
0001
1000
0100
0010
0001
1000
0100
1000
0010
0100
0001
1000
0100
,
0010
0001
1000
0100
1000
0010
0100
0001
1000
0010
1000
0001
1000
0100
0010
0001
,
1000
0100
1000
0001
1000
0010
0100
0001
1000
0010
1000
0100
0010
0001
1000
0010
,
0100
0001
1000
0010
1000
0100
0010
0001
1000
0100
1000
0001
1000
0010
0100
0001
,
1000
0010
1000
0001
1000
0100
0010
0001
1000
0100
1000
0010
0100
0001
1000
0100
,
0010
0001
1000
0100
1000
0010
0100
0001
1000
0010
1000
0001
1000
0100
0010
0001
,
1000
0100
1000
0001
1000
0010
0100
0001
1000
0010
1000
0100
0010
0001
1000
0010
,
0100
0001
1000
0010
1000
0100
0010
0001
1000
0100
1000
0001
1000
0010
0100
0001
,
1000
0010
1000
0001
1000
0100
0010
0001
1000
0100
1000
0010
0100
0001
1000
0100
,
0010
0001
1000
0100
1000
0010
0100
0001
1000
0010
1000
0001
1000
0100
0010
0001
,
1000
0100
1000
0001
1000
0010
0100
0001
1000
0010
1000
0100
0010
0001
1000
0010
,
0100
0001
1000
0010
1000
0100
0010
0001
1000
0100
1000
0001
1000
0010
0100
0001
,
1000
0010
1000
0001
1000
0100
0010
0001
1000
0100
1000
0010
0100
0001
1000
0100
,
0010
0001
1000
0100
1000
0010
0100
0001
1000
0010
1000
0001
1000
0100
0010
0001
,
1000
0010
1000
0001
1000
0010
1000
0001
1000
0010
1000
0001
0010
0001
1000
0010
,
0100
0001
1000
0010
1000
0100
0010
0001
1000
0100
1000
0001
1000
0010
0100
0001
,
1000
0100
1000
0001
1000
0010
0100
0001
1000
0010
1000
0100
0010
0001
1000
0010
,
0100
0001
1000
0010
1000
0100
0010
0001
1000
0100
1000
0001
1000
0010
0100
0001
,
1000
0010
1000
0001
1000
0100
0010
0001
1000
0100
1000
0010
0100
0001
1000
0100
,
1000
0001
1000
0010
1000
0100
0010
0001
1000
0100
1000
0001
1000
0010
0100
0001
,
2000
3000
0000
0000
2000
3000
0000
0000
2000
3000
0000
0000
1200
0000
0000
0000
,
0310
0000
0001
0000
1000
0001
1000
0000
0100
0010
0001
0000
1000
0010
0100
0000
,
0001
0010
0001
0000
1000
0000
0010
0000
0100
0000
0001
1000
0100
0000
0010
0000
,
0001
1000
0100
0000
0010
0001
1000
0000
0001
1000
0100
0000
1000
0010
0100
0000
,
0001
1000
0100
0000
0010
0000
0001
0000
0010
0000
0001
1000
0010
0000
0100
0000
,
0001
1000
0100
0000
1000
0001
0100
0000
0010
1000
0100
0000
0010
0001
0100
0000
,
0010
1000
0100
0000
0010
0000
0001
0000
0100
0000
0001
1000
0100
0000
1000
0000
,
0001
0010
0100
0000
1000
0010
0100
0000
0001
0010
0100
0000
1000
0010
0100
0000
,
0001
0010
0100
0000
1000
0000
0001
0000
0100
0000
0010
1000
0100
0000
0010
0000
,
0001
1000
0100
0000
0010
0001
1000
0000
0001
1000
0100
0000
1000
0010
0100
0000
,
0001
1000
0100
0000
0010
0000
0001
0000
0100
0000
0001
1000
0100
0000
0010
0000
,
0001
0100
0010
0000
1000
0001
0010
0000
0100
1000
0010
0000
0100
0001
0010
0000
,
0100
1000
0010
0000
0100
0000
0001
0000
0010
0000
0001
1000
0010
0000
0100
0000
,
0001
0100
0010
0000
1000
0100
0010
0000
0001
0100
0010
0000
1000
0100
0010
0000
,
0001
0100
0010
0000
1000
0000
0001
0000
0010
0000
0100
1000
0010
0000
0100
0000
,
0001
0100
0010
0000
1000
0100
0010
0000
0100
1000
0001
0000
0100
0010
1000
0000
,
0001
0010
0100
0000
1000
0000
0001
0000
0100
0000
0001
0010
0100
0000
1000
0000
,
2002
0000
0000
3003
0000
0000
0000
0000
0000
0000
0000
0000
0000
0000
0000
0000
0000
0000
0000
0000
0000
0000
0000
0000
0000
0000
0000
0000
0000
0000
0000
0000
0000
0000
0000
0000
0000
0000
0000
0000
0000
0000
0000
0000
0000
0000
0000
0000
0000
0000
0000
0000
0000
0000
0000
0000
0000
0000
0000
0000
0000
0000
0000
0000
0000
0000
0000
0000
0000
0000
0000
0000
0000
0000
0000
0000
0000
0000
0000
0000
0000
0000
0000
0000
0000
0000
0000
0000
0000
0000
0000
0000
0000
0000
0000
0000
0000
0000
0000
0000
0000
0000
0000
0000
0000
0000
0000
0000
0000
0000
0000
0000
0000
0000
0000
0000
0000
0000
0000
0000
0000
0000
0000
0000
0000
0000
0000
0000
0000
0000
0000
0000
0000
0000
0000
0000
0000
0000
0000
0000
0000
0000
0000
0000
M000
0000
0000
0000
0000
0000
0000
0000
00M0
0000
0000
0000
0000
0000
0000
0000
0M00
0000
0000
0000
0000
0000
0000
0000
000M
0000
0000
0000
0000
0000
0000
0000
0000
0000
0000
0000
0000
0000
0000
0000
0000
0000
0000
0000
0000
0000
0000
0000
,
0000
0000
0000
0001
0100
0001
0100
0000
0000
0010
1000
0010
1000
0000
0000
0100
0010
0100
0010
0000
0000
0001
1000
0001
,
1000
0100
0010
0001
1000
0100
0010
0001
1000
0100
1000
0001
0100
0010
1000
0001
,
0100
0001
1000
0010
0100
0001
1000
0100
1000
0001
1000
0100
1000
0001
1000
0010
,
1000
0100
0010
0001
1000
0100
0010
0001
1000
0100
1000
0001
0100
0010
1000
0001
,
0100
0001
1000
0010
0100
0001
1000
0100
1000
0001
1000
0100
1000
0010
0100
0001
,
1000
0010
0100
0001
1000
0010
0100
0001
1000
0010
1000
0001
0010
0100
1000
0001
,
0010
0001
1000
0100
0010
0001
1000
0010
1000
0001
1000
0010
1000
0001
1000
0010
,
1000
0100
0010
0001
1000
0100
0010
0001
1000
0100
1000
0001
0100
0010
1000
0001
,
0100
0001
1000
0010
0100
0001
1000
0100
1000
0001
1000
0100
1000
0010
1000
0001
,
1000
0010
0100
0001
1000
0010
0100
0001
1000
0010
1000
0001
0010
0100
1000
0001
,
0010
0001
1000
0100
0010
0001
1000
0010
1000
0001
1000
0010
1000
0001
1000
0010
,
1000
0100
0010
0001
1000
0100
0010
0001
1000
0100
1000
0001
0100
0010
1000
0001
,
0100
0001
1000
0010
0100
0001
1000
0100
1000
0001
1000
0100
1000
0010
0100
0001
,
1000
0001
0100
0010
1000
0001
0100
0001
1000
0010
1000
0001
0010
0100
1000
0001
,
0010
0001
1000
0100
0010
0001
1000
0010
1000
0001
0010
0001
1000
0001
0010
0001
,
1000
0000
0001
0100
0001
0000
1001
0000
,
2000
0000
0000
3001
0010
0001
0020
0000
0000
0130
1000
0100
1000
0000
0000
0001
0100
0001
0100
0000
0000
0010
1000
0010
,
1000
0001
0010
0100
1000
0001
0010
0100
1000
0001
1000
0001
0100
0010
1000
0001
,
0100
0001
1000
0010
0100
0001
1000
0100
1000
0001
1000
0100
1000
0001
1000
0010
,
1000
0100
0010
0001
1000
0100
0010
0001
1000
0100
1000
0001
0100
0010
1000
0001
,
0100
0001
1000
0010
0100
0001
1000
0100
1000
0001
1000
0100
1000
0001
1000
0010
,
1000
0010
0100
0001
1000
0010
0100
0001
1000
0010
1000
0001
0010
0100
1000
0001
,
0010
0001
1000
0100
0010
0001
1000
0010
1000
0001
1000
0010
1000
0001
1000
0010
,
1000
0100
0010
0001
1000
0100
0010
0001
1000
0100
1000
0001
0100
0010
1000
0001
,
0100
0001
1000
0010
0100
0001
1000
0100
1000
0001
1000
0100
1000
0001
1000
0010
,
1000
0010
0100
0001
1000
0010
0100
0001
1000
0010
1000
0001
0010
0100
1000
0001
,
0010
0001
1000
0100
0010
0001
1000
0010
1000
0001
1000
0010
1000
0001
1000
0010
,
1000
0100
0010
0001
1000
0100
0010
0001
1000
0100
1000
0001
0100
0010
1000
0001
,
0100
0001
1000
0010
0100
0001
1000
0100
1000
0001
1000
0100
1000
0001
1000
0010
,
1000
0010
0100
0001
1000
0010
0100
0001
1000
0010
1000
0001
0010
0100
1000
0001
,
0010
0001
1000
0100
0010
0001
1000
0010
1000
0001
1000
0010
1000
0001
1000
0010
,
1000
0001
0010
0100
1000
0001
0010
0100
1000
0001
0100
0010
1000
0001
0100
0010
,
2000
0000
0000
3000
0000
0000
0001
0000
0010
0000
0001
0000
0020
0000
0000
0030
0000
0000
0100
0000
1000
0000
0100
0000
1000
0000
0000
0000
0000
0000
0010
0000
0100
0000
0010
0000
0100
0000
0000
0000
0000
0000
0001
0000
1000
0000
0001
0000
,
1000
0010
0100
0001
0000
1000
0100
0010
,
0000
0001
1000
0010
0200
0300
0020
0030
,
1000
0100
0010
0002
0000
0000
0103
0010
,
1000
0100
1000
0100
0000
0010
0001
0000
,
1000
0100
1000
0001
0000
1000
0010
0100
,
0000
0001
1000
0100
0210
0300
0020
0030
,
0001
0100
0010
2000
0000
0000
3001
0010
,
0001
0100
0010
1000
0001
0010
0100
0000
,
1001
1000
0010
0100
0000
0001
1000
0100
,
0000
0010
0001
1000
2010
3000
0020
0030
,
1000
0010
0100
0002
0000
0000
0013
0100
,
1000
0010
0100
0001
0000
1000
1000
0000
,
0001
0100
0001
1000
0000
0100
0010
0001
,
0000
1000
0010
0100
0201
0300
0002
0003
,
1000
0100
0010
0002
0000
0000
1003
0100
,
1000
0010
0100
0001
1000
0100
0010
0000
,
1001
0000
0000
0000
,
2000
0000
0000
3000
0000
0000
0001
0000
0010
0000
0001
0000
0020
0000
0000
0030
0000
0000
0100
0000
1000
0000
0100
0000
1000
0000
0000
0000
0000
0000
0001
0000
0100
0000
0001
0000
0100
0000
0000
0000
0000
0000
0010
0000
1000
0000
0010
0000
,
1000
0001
1000
0010
1000
0100
1000
0010
0100
0001
0100
0010
1000
0010
0100
0001
,
1000
0100
1000
0001
1000
0100
1000
0010
0100
0001
0100
0010
1000
0010
0100
0001
,
1000
0100
1000
0001
1000
0100
1000
0010
0100
0001
0100
0010
1000
0010
0100
0001
,
1000
0100
1000
0001
0100
0001
0100
0010
1000
0100
1000
0001
0100
0001
0100
0010
,
1000
0100
1000
0001
1000
0100
1000
0010
0100
0001
0100
0010
1000
0010
0100
0001
,
1000
0100
1000
0001
1000
0100
1000
0010
0100
0001
0100
0010
1000
0010
0100
0001
,
1000
0100
1000
0001
1000
0100
1000
0010
0100
0001
0100
0010
1000
0010
0100
0001
,
1000
0100
1000
0001
0100
0001
0100
0010
1000
0100
1000
0001
0100
0001
0100
0010
,
1000
0100
0010
0001
1000
0010
0100
0001
1000
0010
1000
0001
1000
0100
0010
0001
,
1000
0100
1000
0001
1000
0010
0100
0001
1000
0010
1000
0100
0010
0001
1000
0010
,
0100
0001
1000
0010
1000
0100
0010
0001
1000
0100
1000
0001
1000
0010
0100
0001
,
1000
0010
1000
0001
1000
0100
0010
0001
1000
0100
1000
0010
0100
0001
1000
0100
,
0010
0001
1000
0100
1000
0010
0100
0001
1000
0010
1000
0001
1000
0100
0010
0001
,
1000
0100
1000
0001
1000
0010
0100
0001
1000
0010
1000
0100
0010
0001
1000
0010
,
0100
0001
0010
0100
1000
0001
0100
0001
1000
0010
0100
0010
1000
0001
0100
0010
,
0100
0001
1000
0100
0010
0100
1000
0001
0010
0100
0010
0001
1000
0010
0100
0001
,
1000
0000
0000
0000
,
0000
0000
0000
0000
,
0000
1001
0000
1010
,
0000
0000
0101
0000
0000
0101
0000
1001
,
0000
1100
0000
0110
,
0000
0000
0011
0000
0000
0011
0000
1001
,
0000
1010
0000
0101
,
0000
0000
0110
0000
0000
0110
0000
1001
,
2002
3003
0000
0000
0000
0000
0000
0000
0000
0000
0000
0000
0000
0000
0000
0000
1000
0000
0000
0000
0000
0000
0000
0000
0000
0000
0000
0000
0000
0000
0000
0000
1000
0000
0000
0000
0000
0000
0000
0000
0000
0000
0000
0000
0000
0000
0000
0000
0001
0000
0000
0000
0000
0000
0000
0000
1000
0000
0000
0000
0000
0000
0000
0000
,
0001
0000
0000
0000
1000
0000
0000
0000
0001
0000
1000
0010
1000
0000
0001
0000
,
0100
0000
0100
0000
0100
0000
0010
1000
,
0010
0000
0000
0000
0100
0000
0000
0000
0001
0000
1000
0001
1000
0000
0001
0000
,
0010
0000
0010
0000
0010
0000
0100
1000
,
0100
0000
0000
0000
0010
0000
0000
0000
0001
0000
1000
0001
1000
0000
0001
0000
,
0100
0000
0100
0000
0100
0000
0010
1000
,
0010
0000
0000
0000
0100
0000
0000
0000
00M1
0000
1000
0001
1000
0000
0001
0000
,
1001
0000
1000
0000
0010
0000
0100
0001
1000
0000
0010
0000
1000
0000
0100
0000
,
0010
0000
0001
0000
1000
0000
0010
0100
0001
0000
1000
0000
0001
0000
0010
0000
,
0100
0000
1000
0000
0001
0000
1000
0001
0100
0000
0001
0000
1000
0000
0100
0000
,
0010
0000
0001
0000
1000
0000
0010
0100
0001
0000
1000
0000
0100
0000
0010
0000
,
0001
0000
1000
0000
0010
0000
1000
0001
0100
0000
0010
0000
1000
0000
0001
0000
,
0010
0000
0100
0000
1000
0000
0001
1000
0010
0000
0100
0000
0001
0000
1000
0000
,
0100
0000
0010
0000
0001
0000
1000
0001
0010
0000
0100
0000
1000
0000
0001
0000
,
0100
0000
0001
0000
1000
0000
0001
0100
0010
0000
1000
0000
0100
0000
0010
0000
,
0100
0000
1000
0000
0001
0000
1000
0001
0100
0000
0010
0000
1000
0000
0001
0000
,
0010
0000
0001
0000
1000
0000
0001
0100
0010
0000
1000
0000
0001
0000
0010
0000
,
0100
0000
1000
0000
0001
0000
1000
0010
0100
0000
0001
0000
0100
0000
0010
0000
,
1000
0001
1000
0001
0010
0100
0010
0001
1000
0001
0100
0010
1000
0100
0010
0001
,
1000
0000
0000
0000
,
0000
0000
0000
0000
,
0000
0000
0000
0000
,
0000
0000
0000
0000
,
0000
0000
0000
0000
,
0000
0000
0000
0000
,
2000
0000
0000
3000
0000
0000
0001
0000
0100
0000
0001
0000
0200
0000
0000
0300
0000
0000
0010
0000
1000
0000
0010
0000
1000
0000
0000
0000
0000
0000
0001
0000
1000
0000
0001
0000
1000
0000
0000
0000
0000
0000
0001
0000
0010
0000
0001
0000
,
0010
0000
0100
0000
1000
0001
1000
0000
0001
0100
0010
0000
1000
0100
0010
0000
,
0001
1000
0001
0000
0100
0000
0010
0000
1000
0000
0001
0010
0001
0000
1000
0000
,
0001
1000
0010
0000
0100
0001
1000
0000
0001
1000
0010
0000
1000
0100
0010
0000
,
0001
1000
0010
0000
0100
0000
0001
0000
0100
0000
0001
1000
0001
0000
1000
0000
,
0001
0100
0010
0000
1000
0001
0010
0000
0100
1000
0010
0000
0100
0001
0010
0000
,
0100
1000
0010
0000
0100
0000
0001
0000
0100
0000
0001
1000
0001
0000
1000
0000
,
0001
0010
0100
0000
1000
0010
0100
0000
0001
0010
0100
0000
1000
0010
0100
0000
,
0001
0010
0100
0000
1000
0000
0001
0000
1000
0010
1000
0001
1000
0100
0010
0001
,
1000
0000
0001
0000
0100
0001
1000
0000
0100
0010
0001
0000
1000
0010
0100
0000
,
0001
0010
0001
0000
1000
0000
0010
0000
1000
0000
0001
0010
0001
0000
1000
0000
,
0001
1000
0010
0000
0100
0001
1000
0000
0001
1000
0010
0000
1000
0100
0010
0000
,
0001
1000
0010
0000
0100
0000
0001
0000
0100
0000
0001
1000
0001
0000
1000
0000
,
0001
0100
0010
0000
1000
0001
0010
0000
0100
1000
0010
0000
0100
0001
0010
0000
,
0100
1000
0010
0000
0100
0000
0001
0000
0100
0000
0001
1000
0001
0000
1000
0000
,
0001
0010
0100
0000
1000
0010
0100
0000
0001
0010
0100
0000
1000
0010
0100
0000
,
0001
0010
0100
0000
1000
0000
0001
0000
1000
0000
0001
0100
0001
0000
0010
0000
,
0001
0100
0010
0100
0001
1000
0100
1000
0001
1000
0100
1000
0001
0010
0001
1000
,
0010
0100
0001
1000
0001
0010
0100
1000
0001
1000
0001
1000
0010
0100
0001
1000
,
0001
0010
0100
0010
0001
1000
0010
1000
0001
1000
0010
1000
0001
0100
0001
1000
,
0100
0010
0001
1000
0010
0100
0001
1000
0001
1000
0001
1000
0100
0010
0001
1000
,
0001
0010
0100
0010
0001
1000
0010
1000
0001
1000
0010
1000
0001
0100
0001
1000
,
0100
0010
0001
1000
0001
0100
0010
1000
0001
1000
0001
1000
0100
0010
0001
1000
,
0001
0100
0010
0100
0001
1000
0100
1000
0001
1000
0100
1000
0001
0010
0001
1000
,
0010
0100
0001
1000
0100
0010
0001
1000
0001
1000
0001
1000
0010
0100
0001
1000
,
0001
0010
0100
0010
0001
1000
0100
1000
0001
1000
0100
1000
0001
0010
0001
1000
,
0010
0100
0001
1000
0001
0010
0100
1000
0001
1000
0001
1000
0010
0100
0001
1000
,
0001
0010
0100
0010
0001
1000
0010
1000
0001
1000
0010
1000
0001
0100
0001
1000
,
0100
0010
0001
1000
0010
0100
0001
1000
0001
1000
0001
1000
0100
0010
0001
1000
,
0001
0010
0100
0010
0001
1000
0010
1000
0001
1000
0010
1000
0001
0100
0001
1000
,
0100
0010
0001
1000
0001
0100
0010
1000
0001
1000
0001
1000
0100
0010
0001
1000
,
0001
0010
0100
0010
0001
1000
0010
1000
0001
1000
0010
1000
0001
0100
0001
1000
,
0100
0010
0001
1000
0001
0100
0010
1000
0001
1000
0001
1000
0100
0010
0001
1000
,
0001
0010
0100
0010
0001
1000
0010
1000
0001
1000
0010
1000
0001
0100
0001
1000
,
0100
0010
0001
1000
0010
0100
0001
1000
0001
1000
0001
1000
0100
0010
0001
1000
,
0001
0100
0010
0100
0001
1000
0100
1000
0001
1000
0100
1000
0001
0010
0001
1000
,
0010
0100
0001
1000
0001
0010
0100
1000
0001
1000
0001
1000
0010
0100
0001
1000
,
0001
0100
0010
0100
0001
1000
0100
1000
0001
1000
0100
1000
0001
0010
0001
1000
,
0010
0100
0001
1000
0100
0010
0001
1000
0001
1000
0001
1000
0010
0100
0001
1000
,
0001
0010
0100
0010
0001
1000
0010
1000
0001
1000
0010
1000
0001
0100
0001
1000
,
0100
0010
0001
1000
0001
0100
0010
1000
0001
1000
0001
1000
0100
0010
0001
1000
,
0001
0010
0100
0010
0001
1000
0010
1000
0001
1000
0010
1000
0001
0100
0001
1000
,
0100
0010
0001
1000
0010
0100
0001
1000
0001
1000
0001
1000
0100
0010
0001
1000
,
0001
0100
0010
0100
0001
1000
0100
1000
0001
1000
0100
1000
0001
0010
0001
1000
,
0010
0100
0001
1000
0001
0010
0100
1000
0001
1000
0001
1000
0010
0100
0001
1000
,
0001
0010
0100
0010
0001
1000
0010
1000
0001
1000
0010
1000
0001
0100
0001
1000
,
0100
0010
0001
1000
0001
0100
0010
1000
0001
1000
0001
1000
0100
0010
0001
1000
,
0001
0001
0000
1000
1000
0010
0000
1000
,
0100
0010
0001
1000
0001
M000
0M00
00M0
,
1000
0100
0010
0001
1000
0010
0100
0001
1000
0010
1000
0001
1000
0100
0010
0001
,
1000
0100
1000
0001
1000
0010
0100
0001
1000
0010
1000
0100
0010
0001
1000
0010
,
0100
0001
1000
0010
1000
0100
0010
0001
1000
0100
1000
0001
1000
0010
0100
0001
,
1000
0010
1000
0001
1000
0100
0010
0001
1000
0100
1000
0010
0100
0001
1000
0100
,
0010
0001
1000
0100
1000
0010
0100
0001
1000
0010
1000
0001
1000
0100
0010
0001
,
1000
0100
1000
0001
1000
0010
0100
0001
1000
0010
1000
0100
0010
0001
1000
0010
,
0100
0001
1000
0010
1000
0100
0010
0001
1000
0100
1000
0001
1000
0010
0100
0001
,
1000
0010
1000
0001
1000
0100
0010
0001
1000
0100
1000
0010
0100
0001
1000
0100
,
0010
0001
1000
0100
1000
0010
0100
0001
1000
0010
1000
0001
1000
0100
0010
0001
,
1000
0100
1000
0001
1000
0010
0100
0001
1000
0010
1000
0100
0010
0001
1000
0010
,
0100
0001
1000
0010
1000
0100
0010
0001
1000
0100
1000
0001
1000
0010
0100
0001
,
1000
0010
1000
0001
1000
0100
0010
0001
1000
0100
1000
0010
0100
0001
1000
0100
,
0010
0001
1000
0100
1000
0010
0100
0001
1000
0010
1000
0001
1000
0100
0010
0001
,
1000
0100
1000
0001
1000
0010
0100
0001
1000
0010
1000
0100
0010
0001
1000
0010
,
0100
0001
1000
0010
1000
0100
0010
0001
1000
0100
1000
0001
1000
0010
0100
0001
,
1000
0000
0000
0000
0010
0000
0000
0000
1000
0000
0000
0000
0001
0000
0000
0000
1000
0000
0000
0000
0100
0000
0000
0000
0010
0000
0000
0000
0001
0000
0000
0000
4000
3000
0000
0000
0400
0300
0000
0000
4000
3000
0000
0000
0040
0030
0000
0000
0400
0300
0000
0000
0004
0003
0000
0000
4000
3000
0000
0000
0400
0300
0000
0000
,
0040
0030
0000
0000
0001
0000
0000
0000
1000
0000
0000
0000
0100
0000
0000
0000
1000
0000
0000
0000
0010
0000
0000
0000
0100
0000
0000
0000
0001
0000
0000
0000
1000
0000
0000
0000
0010
0000
0000
0000
1000
0000
0000
0000
0001
0000
0000
0000
1000
0000
0000
0000
0100
0000
0000
0000
0010
0000
0000
0000
0001
0000
0000
0000
,
1000
0010
1000
0001
1000
0100
0010
0001
1000
0010
1000
0001
0010
0001
1000
0010
,
0100
0001
1000
0010
1000
0100
0010
0001
1000
0100
1000
0001
1000
0010
0100
0001
,
1000
0100
1000
0001
1000
0010
0100
0001
1000
0010
1000
0100
0010
0001
1000
0010
,
0100
0001
1000
0010
1000
0100
0010
0001
1000
0100
1000
0001
1000
0010
0100
0001
,
1000
0010
1000
0001
1000
0100
0010
0001
1000
0100
1000
0001
0010
0001
0100
0010
,
1000
0100
0010
0001
1000
0010
0100
0001
1000
0010
1000
0001
1000
0100
0010
0001
,
1000
0100
1000
0001
1000
0010
0100
0001
1000
0010
1000
0100
0010
0001
1000
0010
,
0100
0001
1000
0010
1000
0100
0010
0001
1000
0100
1000
0001
1000
0010
0100
0001
,
1000
0010
1000
0001
1000
0100
0010
0001
1000
0100
1000
0010
0100
0001
1000
0100
,
0010
0001
1000
0100
1000
0010
0100
0001
1000
0010
1000
0001
1000
0100
0010
0001
,
1000
0100
1000
0001
1000
0010
0100
0001
1000
0010
1000
0100
0010
0001
1000
0010
,
0100
0001
1000
0010
1000
0100
0010
0001
1000
0100
1000
0001
1000
0010
0100
0001
,
1000
0010
1000
0001
1000
0100
0010
0001
1000
0100
1000
0010
0100
0001
1000
0001
,
1000
0001
0000
0001
0010
0100
0000
0100
,
1000
0001
1000
0001
1000
0M00
00M0
000M
;
