#TITLE:Lazy Summer Days;
#SUBTITLE:;
#ARTIST:cornandbeans;
#TITLETRANSLIT:;
#SUBTITLETRANSLIT:;
#ARTISTTRANSLIT:;
#CREDIT:;
#BANNER:../fthescorept1bn.png;
#BACKGROUND:../fthescorept1bg.png;
#LYRICSPATH:;
#CDTITLE:;
#MUSIC:Lazy Summer Days.ogg;
#OFFSET:-0.058;
#SAMPLESTART:15.580;
#SAMPLELENGTH:7.690;
#SELECTABLE:YES;
#BPMS:0.000=247.170;
#STOPS:;
#BGCHANGES:;
// cache tags:
#FIRSTBEAT:0.000;
#LASTBEAT:143.000;
#SONGFILENAME:Songs/Fuck The Score Part I/Lazy Summer Days [Dossar]/Lazy Summer Days.sm;
#HASMUSIC:1;
#HASBANNER:1;
#MUSICLENGTH:35.474;
// end cache tags

//---------------dance-single - ----------------
#NOTES:
     dance-single:
     :
     Challenge:
     17:
     1.000,1.000,0.000,0.000,1.000,417.000,0.000,0.000,0.000,0.000:
1000
0001
0100
0000
0001
1000
0000
0100
,
0000
0010
0100
0000
1000
0001
0000
0100
,
0000
0010
1000
0001
0010
0100
0010
0001
,
1000
0010
0100
0001
0010
0100
0010
0001
,
1000
0000
0010
0100
0001
0000
0000
0000
1000
0000
0010
0100
0001
0000
0000
0000
,
1000
0000
0100
0010
0001
0000
0000
0000
1000
0000
0100
0010
0001
0000
0000
0000
,
1000
0010
0100
0001
0100
0010
1000
0001
0100
0001
1000
0010
0100
0001
1000
0001
,
1000
0100
1000
0001
0100
0010
1000
0001
0100
0010
0100
0001
1000
0000
0000
0000
,
0001
0010
0001
0010
0001
0010
0001
0010
,
0100
1000
0100
1000
0100
1000
0100
1000
,
0001
0100
0001
0100
0001
0100
0001
0100
,
0010
1000
0010
1000
0010
1000
0010
1000
,
0001
0010
0001
0010
0001
0010
0001
0010
,
0100
1000
0100
1000
0100
1000
0100
1000
,
0010
0100
0010
0100
0010
0100
0010
0100
,
0001
1000
0001
1000
0001
1000
0001
1000
,
0001
0100
0001
1000
0001
1000
0010
0100
0001
1000
0010
1000
0001
0100
0010
0100
,
0001
1000
0010
1000
0001
0100
0001
1000
0010
0100
0010
1000
0001
0100
0001
1000
,
0001
0010
0100
1000
0001
1000
0100
1000
0001
0010
0100
1000
0001
1000
0100
0010
,
0001
0010
0100
1000
0001
1000
0100
0010
0001
1000
0100
1000
0001
0010
0100
1000
,
0001
0100
0010
1000
0001
1000
0010
0100
0001
1000
0010
0100
0001
0100
0001
1000
,
0001
0100
0010
1000
0001
1000
0010
0100
0001
1000
0010
0100
0001
1000
0001
1000
,
0001
0010
0100
1000
0001
1000
0100
0010
0001
0010
0100
1000
0001
1000
0100
0010
,
0001
0010
0100
1000
0001
1000
0100
0010
0001
0010
0100
1000
0001
1000
0100
1000
,
0001
0100
0010
1000
0001
1000
0010
0100
0001
1000
0001
1000
0010
0100
0010
1000
,
0001
0100
0010
1000
0001
1000
0010
0100
0001
1000
0010
0100
0010
0100
0001
1000
,
0001
0010
0100
1000
0001
0010
0001
1000
0100
1000
0001
1000
0100
0010
0100
1000
,
0001
0010
0100
1000
0001
0010
0001
1000
0100
1000
0001
1000
0100
0010
0100
1000
,
0001
1000
0010
1000
0001
0100
0010
1000
0001
0100
0001
1000
0010
1000
0010
0100
,
0001
1000
0010
1000
0001
0100
0010
1000
0001
0100
0010
1000
0010
0100
0001
1000
,
0100
1000
0100
0010
0001
1000
0100
1000
0001
0010
0100
1000
0001
0010
0001
0010
,
0100
1000
0100
0010
0001
1000
0100
1000
0001
0010
0100
1000
0001
0010
0100
0010
,
0001
1000
0001
1000
0001
1000
0001
1000
,
0010
0000
0100
0000
0010
0000
0100
0000
0010
0000
0100
0000
0010
0100
0010
0100
,
0001
1000
1000
1000
,
1000
1000
1000
1000
;

//---------------dance-single - ----------------
#NOTES:
     dance-single:
     :
     Hard:
     15:
     1.000,1.000,0.000,0.000,1.000,369.000,0.000,0.000,0.000,0.000:
1000
0001
0100
0000
0001
1000
0000
0100
,
0000
0010
0100
0000
1000
0001
0000
0100
,
0000
0010
1000
0001
0010
0100
0010
0001
,
1000
0010
0100
0001
0010
0100
0010
0001
,
1000
0000
0010
0100
0001
0000
0000
0000
1000
0000
0010
0100
0001
0000
0000
0000
,
1000
0000
0100
0010
0001
0000
0000
0000
1000
0000
0100
0010
0001
0000
0000
0000
,
1000
0010
0100
0001
0100
0010
1000
0001
0100
0001
1000
0010
0100
0001
1000
0001
,
1000
0100
1000
0001
0100
0010
1000
0001
0100
0010
0100
0001
1000
0000
0000
0000
,
0001
0010
0001
0010
0001
0010
0001
0010
,
0100
1000
0100
1000
0100
1000
0100
1000
,
0001
0100
0001
0100
0001
0100
0001
0100
,
0010
1000
0010
1000
0010
1000
0010
1000
,
0001
0010
0001
0010
0001
0010
0001
0010
,
0100
1000
0100
1000
0100
1000
0100
1000
,
0010
0100
0010
0100
0010
0100
0010
0100
,
0001
1000
0001
1000
0001
1000
0001
1000
,
0001
0100
0001
1000
0001
1000
0010
0100
0001
1000
0010
1000
0001
0000
0000
0000
,
1000
0010
0100
0001
1000
0001
1000
0010
0100
0001
1000
0100
1000
0000
0000
0000
,
0001
0010
0100
1000
0001
1000
0100
1000
0001
0010
0100
1000
0001
0000
0000
0000
,
1000
0001
0010
0001
1000
0001
0010
0100
1000
0001
0010
0001
1000
0000
0000
0000
,
0001
0100
0010
1000
0001
1000
0010
0100
0001
1000
0010
0100
0001
0000
0000
0000
,
1000
0010
0100
0001
1000
0001
0100
0010
1000
0001
0100
0010
1000
0000
0000
0000
,
0001
0010
0100
1000
0001
1000
0100
0010
0001
0010
0100
1000
0001
0000
0000
0000
,
1000
0100
0010
0001
1000
0001
0010
0100
1000
0100
0010
0001
1000
0000
0000
0000
,
0001
0100
0010
1000
0001
1000
0010
0100
0001
1000
0100
1000
0001
0000
0000
0000
,
1000
0010
0100
0001
1000
0001
0100
0010
1000
0001
0010
0001
1000
0000
0000
0000
,
0001
0010
0100
1000
0001
0010
0001
1000
0100
1000
0001
1000
0100
0000
0000
0000
,
1000
0100
0010
0001
1000
0100
1000
0001
0010
0001
1000
0001
0010
0000
0000
0000
,
0001
1000
0010
1000
0001
0100
0010
1000
0001
0100
0001
1000
0100
0000
0000
0000
,
1000
0001
0100
0001
1000
0010
0100
0001
1000
0010
1000
0001
0010
0000
0000
0000
,
0100
1000
0100
0010
0001
1000
0100
1000
0001
0010
0100
1000
0001
0000
0000
0000
,
0010
0001
0010
0100
1000
0001
0010
0001
1000
0100
0010
0001
1000
0000
0000
0000
,
0001
0100
0001
0100
0001
0100
0001
0100
,
0010
0000
1000
0000
0010
0000
1000
0000
0010
0000
1000
0000
0010
1000
0010
1000
,
0001
0100
0100
0100
,
0100
0100
0100
0100
;

//---------------dance-single - ----------------
#NOTES:
     dance-single:
     :
     Medium:
     13:
     1.000,1.000,0.000,0.000,1.000,331.000,0.000,0.000,0.000,0.000:
1000
0001
0100
0000
0001
1000
0000
0100
,
0000
0010
0100
0000
1000
0001
0000
0100
,
0000
0010
1000
0001
0010
0100
0010
0001
,
1000
0010
0100
0001
0010
0100
0010
0001
,
1000
0000
0010
0100
0001
0000
0000
0000
1000
0000
0010
0100
0001
0000
0000
0000
,
1000
0000
0100
0010
0001
0000
0000
0000
1000
0000
0100
0010
0001
0000
0000
0000
,
1000
0010
0100
0001
0100
0000
0010
0000
1000
0001
0100
0001
1000
0000
0001
0000
,
0010
0100
0010
0001
1000
0000
0100
0000
0010
0001
0010
0100
1000
0000
0000
0000
,
0001
0010
0001
0010
0001
0010
0001
0010
,
0100
1000
0100
1000
0100
1000
0100
1000
,
0001
0100
0001
0100
0001
0100
0001
0100
,
0010
1000
0010
1000
0010
1000
0010
1000
,
0001
0010
0001
0010
0001
0010
0001
0010
,
0100
1000
0100
1000
0100
1000
0100
1000
,
0010
0100
0010
0100
0010
0100
0010
0100
,
0001
1000
0001
1000
0001
1000
0001
1000
,
0001
0100
0010
1000
0001
1000
0010
0100
0001
0000
1000
0000
0010
0000
0000
0000
,
1000
0010
0100
0001
1000
0001
1000
0010
0100
0000
0001
0000
1000
0000
0000
0000
,
0001
1000
0100
1000
0001
1000
0100
0010
0001
0000
1000
0000
0100
0000
0000
0000
,
1000
0001
0010
0001
1000
0001
0010
0100
1000
0000
0001
0000
0010
0000
0000
0000
,
0001
1000
0010
0100
0001
0100
0001
1000
0010
0000
0100
0000
0001
0000
0000
0000
,
1000
0010
0100
0001
0100
0001
1000
0010
0100
0000
0001
0000
1000
0000
0000
0000
,
0001
0010
0100
1000
0001
0010
0100
0010
0001
0000
1000
0000
0100
0000
0000
0000
,
1000
0100
0010
0001
1000
0100
0010
0100
1000
0000
0001
0000
0010
0000
0000
0000
,
0001
1000
0010
1000
0001
0100
0001
1000
0010
0000
0100
0000
0001
0000
0000
0000
,
1000
0001
0100
0001
1000
0010
0100
0010
1000
0000
0001
0000
0100
0000
0000
0000
,
0001
1000
0100
1000
0001
0010
0100
1000
0001
0000
0010
0000
0001
0000
0000
0000
,
1000
0001
0010
0001
1000
0100
0010
0001
1000
0000
0100
0000
1000
0000
0000
0000
,
0001
0100
0010
0100
0001
1000
0010
0100
0001
0000
1000
0000
0010
0000
0000
0000
,
1000
0010
0100
0010
1000
0001
0100
0010
1000
0000
0001
0000
0100
0000
0000
0000
,
0001
1000
0100
0010
0001
0010
0100
1000
0001
0000
0010
0000
0001
0000
0000
0000
,
1000
0001
0010
0100
1000
0100
0010
0001
1000
0000
0100
0000
1000
0000
0000
0000
,
0001
0100
0001
0100
0001
0100
0001
0100
,
0010
0000
1000
0000
0010
0000
1000
0000
0010
0000
1000
0000
0010
1000
0010
1000
,
0001
0100
0100
0100
,
0100
0100
0100
0100
;
