#TITLE:SHINE!!;
#SUBTITLE:;
#ARTIST:DJ Sharpnel;
#TITLETRANSLIT:;
#SUBTITLETRANSLIT:;
#ARTISTTRANSLIT:;
#CREDIT:;
#BANNER:shine bn.png;
#BACKGROUND:shine bg.png;
#LYRICSPATH:;
#CDTITLE:;
#MUSIC:SHINE!!.ogg;
#OFFSET:-0.046;
#SAMPLESTART:19.788;
#SAMPLELENGTH:18.991;
#SELECTABLE:YES;
#BPMS:0.000=202.195;
#STOPS:;
#BGCHANGES:;
// cache tags:
#FIRSTBEAT:32.000;
#LASTBEAT:886.250;
#SONGFILENAME:Songs/SHARPNELSTREAMZ v2/Shine!!/SHINE!!.sm;
#HASMUSIC:1;
#HASBANNER:1;
#MUSICLENGTH:265.874;
// end cache tags

//---------------dance-single - 17 (CTalon)----------------
#NOTES:
     dance-single:
     17 (CTalon):
     Challenge:
     17:
     1.000,1.000,0.079,0.038,1.000,2792.000,21.000,10.000,46.000,0.000:
0000
0000
0000
0000
,
0000
0000
0000
0000
,
0000
0000
0000
0000
,
0000
0000
0000
0000
,
0000
0000
0000
0000
,
0000
0000
0000
0000
,
0000
0000
0000
0000
,
0000
0000
0000
0000
,
0001
1000
0010
0000
0000
0100
0001
0010
,
0000
0000
0100
0000
1000
0000
0001
0000
0000
0000
0100
0000
0010
0000
1000
0001
,
0010
0100
1000
0000
0000
0100
1000
0001
,
0000
0000
0100
0000
0010
0000
1000
0000
0100
0000
0100
0010
0001
0000
1000
0000
,
0001
1000
0010
0000
0000
1000
0100
0010
,
0000
0000
0001
0000
0010
0000
0001
0000
0000
0000
1000
0000
0010
0000
0100
0001
,
0100
0001
1000
0000
0000
0001
0010
0100
,
0000
0000
0010
0000
0001
0000
1000
0000
0010
0000
0010
0100
0001
0000
1000
0000
,
0001
0000
0010
0000
0001
0000
1000
0010
1000
0001
1000
0000
0100
0000
0010
0000
,
0001
1000
0001
1000
0010
0100
0001
0010
0100
1000
0010
1000
0001
1000
0001
0010
,
0001
0100
0010
1000
0001
0010
0100
1000
0001
0100
0001
0100
0010
1000
0010
1000
,
0001
0100
0001
0010
0100
1000
0100
1000
0010
0100
0001
1000
0100
1000
0001
0010
,
0100
1000
0010
1000
0001
0010
0001
0010
0100
1000
0010
1000
0001
0010
0001
0010
,
0001
1000
0001
1000
0010
0100
0001
0010
0100
1000
0010
1000
0001
1000
0001
0010
,
0001
0100
0010
1000
0001
0010
0100
1000
0001
0100
0001
0010
0001
1000
0001
0100
,
0001
0010
0100
1000
0001
0100
0010
0100
0001
0010
0001
1000
0010
1000
0001
0010
,
0001
0010
0001
0010
0001
0010
0100
1000
0100
1000
0100
1000
0100
1000
0010
0100
,
0001
1000
0001
1000
0100
0010
0001
0100
0010
1000
0100
1000
0001
1000
0001
0100
,
0001
0010
0100
1000
0001
0100
0010
1000
0001
0010
0001
0010
0100
1000
0100
1000
,
0001
0010
0001
0100
0010
1000
0010
1000
0100
0010
0001
1000
0010
1000
0001
0100
,
0010
1000
0100
1000
0001
0100
0001
0100
0010
1000
0100
1000
0001
0100
0001
0100
,
0001
1000
0001
1000
0100
0010
0001
0100
0010
1000
0100
1000
0001
1000
0001
0100
,
0001
0010
0100
1000
0001
0100
0010
1000
0001
0010
0001
0100
0001
1000
0001
0010
,
0001
0100
0010
1000
0001
0010
0100
0010
0001
0100
0001
1000
0100
1000
0001
0100
,
0001
0100
0001
0100
0001
0100
0010
1000
0010
1000
0010
1000
0010
1000
0100
0010
,
0001
1000
0001
1000
0010
0100
0001
0010
0100
1000
0010
1000
0001
1000
0001
0010
,
0001
0100
0010
1000
0001
0010
0100
1000
0001
0100
0001
0100
0010
1000
0010
1000
,
0001
0100
0001
0010
0100
1000
0100
1000
0010
0100
0001
1000
0100
1000
0001
0010
,
0100
1000
0010
1000
0001
0010
0001
0010
0100
1000
0010
1000
0001
0010
0001
0010
,
0001
1000
0001
1000
0010
0100
0001
0010
0100
1000
0010
1000
0001
1000
0001
0010
,
0001
0100
0010
1000
0001
0010
0100
1000
0001
0100
0001
0010
0001
1000
0001
0100
,
0001
0010
0100
1000
0001
0100
0010
0100
0001
0010
0001
1000
0010
1000
0001
0010
,
0001
0010
0001
0010
0001
0010
0100
1000
0100
1000
0100
1000
0100
1000
0010
0100
,
0001
1000
0001
1000
0100
0010
0001
0100
0010
1000
0100
1000
0001
1000
0001
0100
,
0001
0010
0100
1000
0001
0100
0010
1000
0001
0010
0001
0010
0100
1000
0100
1000
,
0001
0010
0001
0100
0010
1000
0010
1000
0100
0010
0001
1000
0010
1000
0001
0100
,
0010
1000
0100
1000
0001
0100
0001
0100
0010
1000
0100
1000
0001
0100
0001
0100
,
0001
1000
0001
1000
0100
0010
0001
0100
0010
1000
0100
1000
0001
1000
0001
0100
,
0001
0010
0100
1000
0001
0100
0010
1000
0001
0010
0001
0100
0001
1000
0001
0010
,
0001
0100
0010
1000
0001
0010
0100
0010
0001
0100
0001
1000
0100
1000
0001
0100
,
0001
0010
0100
1000
0010
0100
0010
1000
0100
0010
0001
0100
0010
0100
0001
0010
,
0001
1000
0010
0100
0001
1000
0100
0010
0001
0100
0001
1000
0100
1000
0100
0010
,
0001
0100
0010
1000
0001
1000
0100
0010
0100
1000
0100
1000
0001
0100
0010
0100
,
0001
1000
0010
0100
0001
1000
0100
0010
0001
0100
0001
1000
0100
1000
0100
0010
,
0001
0100
0010
1000
0001
1000
0100
0010
0100
1000
0100
1000
0001
0100
0010
0100
,
0001
1000
0100
0010
0001
1000
0010
0100
0001
0010
0001
1000
0010
1000
0010
0100
,
0001
0010
0100
1000
0001
1000
0010
0100
0010
1000
0010
1000
0001
0010
0100
0010
,
0001
1000
0100
0010
0001
1000
0010
0100
0001
0010
0001
1000
0010
1000
0010
0100
,
0001
0010
0100
1000
0001
1000
0010
0100
0010
1000
0010
1000
0001
0010
0100
0010
,
0001
1000
0010
0100
0010
1000
0100
0010
0001
0010
0100
0010
0001
0100
0001
1000
,
0001
0100
0001
1000
0100
0010
0100
1000
0010
0100
0010
1000
0001
0010
0100
1000
,
0001
1000
0010
0100
0010
1000
0100
0010
0001
0010
0100
0010
0001
0100
0001
1000
,
0001
0100
0001
1000
0100
0010
0100
1000
0010
0100
0010
1000
0001
0010
0100
1000
,
0001
1000
0100
0010
0100
1000
0010
0100
0001
0100
0010
0100
0001
0010
0001
1000
,
0001
0010
0001
1000
0010
0100
0010
1000
0100
0010
0100
1000
0001
0100
0010
1000
,
0001
1000
0100
0010
0100
1000
0010
0100
0001
0100
0010
0100
0001
0010
0001
1000
,
0001
0010
0001
0100
0010
0100
0001
0010
0100
1000
0010
0100
0010
1000
0100
0010
,
0001
1000
0010
0000
0100
0000
0001
0010
,
0100
1000
0100
0020
0001
0030
0001
0000
,
0001
1000
0010
0000
0100
0000
0001
0010
,
0100
0000
1000
0000
0001
0000
2000
0000
0100
0000
3100
0010
0001
0000
0001
0010
,
0100
0010
0001
0000
1000
0000
0100
0010
,
0000
0001
0000
1000
0020
0000
0030
0000
,
0000
1000
0001
0000
0100
0000
0010
1000
,
0000
0000
0001
0000
0000
0000
0010
0000
0100
1000
0100
1000
0001
0100
0001
0100
,
0001
1000
0100
0000
0010
0000
0001
0100
,
0010
1000
0010
0200
0001
0300
0001
0000
,
0001
1000
0100
0000
0010
0000
0001
0100
,
0010
0000
1000
0000
0001
0000
2000
0000
0010
0000
3010
0100
0001
0000
0001
0100
,
0010
0100
0000
0001
1000
0000
0010
0100
,
0000
0001
1000
0001
0020
0000
0030
0000
,
0000
0001
1000
0100
0010
0000
0100
1000
,
0000
0000
0001
0000
0000
0000
0100
0000
0010
1000
0010
1000
0001
0010
0100
1000
,
0001
0000
1001
1000
0000
1000
1010
0000
,
0010
0000
0110
0100
0000
0100
0101
0000
,
0001
0000
1001
1000
0000
1000
1100
0000
,
0100
0000
1100
1000
0000
1000
1010
0000
,
0010
0000
0110
0100
0000
0100
0101
0000
,
0001
0000
0011
0010
0000
0010
0110
0000
,
0100
0000
1100
1000
0000
1000
1001
0000
,
0001
0000
0101
0100
0000
0100
0110
0000
,
0010
1000
0100
0010
0001
0100
0001
0010
0001
1000
0100
1000
0010
0100
0001
0010
,
0001
1000
0001
1000
0010
0100
0001
0010
0100
1000
0010
1000
0001
1000
0001
0010
,
0001
0100
0010
1000
0001
0010
0100
1000
0001
0100
0001
0100
0010
1000
0010
1000
,
0001
0100
0001
0010
0100
1000
0100
1000
0010
0100
0001
1000
0100
1000
0001
0010
,
0100
1000
0010
1000
0001
0010
0001
0010
0100
1000
0010
1000
0001
0010
0001
0010
,
0001
1000
0001
1000
0010
0100
0001
0010
0100
1000
0010
1000
0001
1000
0001
0010
,
0001
0100
0010
1000
0001
0010
0100
1000
0001
0100
0001
0010
0001
1000
0001
0100
,
0001
0010
0100
1000
0001
0100
0010
0100
0001
0010
0001
1000
0010
1000
0001
0010
,
0001
0010
0001
0010
0001
0010
0100
1000
0100
1000
0100
1000
0100
1000
0010
0100
,
0001
1000
0001
1000
0100
0010
0001
0100
0010
1000
0100
1000
0001
1000
0001
0100
,
0001
0010
0100
1000
0001
0100
0010
1000
0001
0010
0001
0010
0100
1000
0100
1000
,
0001
0010
0001
0100
0010
1000
0010
1000
0100
0010
0001
1000
0010
1000
0001
0100
,
0010
1000
0100
1000
0001
0100
0001
0100
0010
1000
0100
1000
0001
0100
0001
0100
,
0001
1000
0001
1000
0100
0010
0001
0100
0010
1000
0100
1000
0001
1000
0001
0100
,
0001
0010
0100
1000
0001
0100
0010
1000
0001
0010
0001
0100
0001
1000
0001
0010
,
0001
0100
0010
1000
0001
0010
0100
0010
0001
0100
0001
1000
0100
1000
0001
0100
,
0001
0010
0100
1000
0010
0100
0010
1000
0100
0010
0001
0100
0010
0100
0001
0010
,
0001
1000
0010
0100
0001
1000
0100
0010
0001
0100
0001
1000
0100
1000
0100
0010
,
0001
0100
0010
1000
0001
1000
0100
0010
0100
1000
0100
1000
0001
0100
0010
0100
,
0001
1000
0010
0100
0001
1000
0100
0010
0001
0100
0001
1000
0100
1000
0100
0010
,
0001
0100
0010
1000
0001
1000
0100
0010
0100
1000
0100
1000
0001
0100
0010
0100
,
0001
1000
0100
0010
0001
1000
0010
0100
0001
0010
0001
1000
0010
1000
0010
0100
,
0001
0010
0100
1000
0001
1000
0010
0100
0010
1000
0010
1000
0001
0010
0100
0010
,
0001
1000
0100
0010
0001
1000
0010
0100
0001
0010
0001
1000
0010
1000
0010
0100
,
0001
0010
0100
1000
0001
1000
0010
0100
0010
1000
0010
1000
0001
0010
0100
0010
,
0001
1000
0010
0100
0010
1000
0100
0010
0001
0010
0100
0010
0001
0100
0001
1000
,
0001
0100
0001
1000
0100
0010
0100
1000
0010
0100
0010
1000
0001
0010
0100
1000
,
0001
1000
0010
0100
0010
1000
0100
0010
0001
0010
0100
0010
0001
0100
0001
1000
,
0001
0100
0001
1000
0100
0010
0100
1000
0010
0100
0010
1000
0001
0010
0100
1000
,
0001
1000
0100
0010
0100
1000
0010
0100
0001
0100
0010
0100
0001
0010
0001
1000
,
0001
0010
0001
1000
0010
0100
0010
1000
0100
0010
0100
1000
0001
0100
0010
1000
,
0001
1000
0100
0010
0100
1000
0010
0100
0001
0100
0010
0100
0001
0010
0001
1000
,
0001
0010
0001
0100
0010
0100
0001
0010
0100
1000
0010
0100
0010
1000
0100
0010
,
0001
1000
0010
0100
0001
1000
0100
0010
0001
0100
0001
1000
0100
1000
0100
0010
,
0001
0100
0010
1000
0001
1000
0100
0010
0100
1000
0100
1000
0001
0100
0010
0100
,
0001
1000
0010
0100
0001
1000
0100
0010
0001
0100
0001
1000
0100
1000
0100
0010
,
0001
0100
0010
1000
0001
1000
0100
0010
0100
1000
0100
1000
0001
0100
0010
0100
,
0001
1000
0100
0010
0001
1000
0010
0100
0001
0010
0001
1000
0010
1000
0010
0100
,
0001
0010
0100
1000
0001
1000
0010
0100
0010
1000
0010
1000
0001
0010
0100
0010
,
0001
1000
0100
0010
0001
1000
0010
0100
0001
0010
0001
1000
0010
1000
0010
0100
,
0001
0010
0100
1000
0001
1000
0010
0100
0010
1000
0010
1000
0001
0010
0100
0010
,
0001
1000
0010
0100
0010
1000
0100
0010
0001
0010
0100
0010
0001
0100
0001
1000
,
0001
0100
0001
1000
0100
0010
0100
1000
0010
0100
0010
1000
0001
0010
0100
1000
,
0001
1000
0010
0100
0010
1000
0100
0010
0001
0010
0100
0010
0001
0100
0001
1000
,
0001
0100
0001
1000
0100
0010
0100
1000
0010
0100
0010
1000
0001
0010
0100
1000
,
0001
1000
0100
0010
0100
1000
0010
0100
0001
0100
0010
0100
0001
0010
0001
1000
,
0001
0010
0001
1000
0010
0100
0010
1000
0100
0010
0100
1000
0001
0100
0010
1000
,
0001
1000
0100
0010
0100
1000
0010
0100
0001
0100
0010
0100
0001
0010
0001
1000
,
0001
0010
0001
0100
0010
0100
0001
0010
0100
1000
0010
0100
0010
1000
0100
0010
,
M001
0000
0000
0M00
0000
0000
0M00
0000
0000
0000
0000
0000
0000
0000
0000
0000
,
000M
0000
000M
0000
0000
M000
0000
0M00
0000
0000
0M00
0000
0000
0000
0000
0000
,
0000
0000
0000
00M0
000M
0000
M000
0000
0000
0000
0000
0M00
00M0
0000
00M0
0000
,
0M00
0000
M000
0000
0M00
0000
00M0
000M
0000
000M
0000
000M
0000
0M00
0000
0000
,
0000
0000
00M0
0000
0000
0000
0000
MMMM
0000
0000
0000
0000
0000
0000
0000
0000
,
0000
0000
0000
0000
,
0000
0000
0000
M000
0000
M000
0M00
0000
0000
00M0
0000
000M
0000
00M0
000M
0000
,
0000
0M00
0000
0000
00M0
000M
0000
0000
M000
0000
0000
0000
0000
0000
0000
0000
,
0M01
1000
0001
0010
0100
0000
1000
0000
00M1
0100
0001
0000
1001
0000
0000
0000
,
1000
1000
1000
1000
,
0010
0010
0010
0010
,
1000
1000
1000
1000
,
0100
0100
0100
0100
,
0010
0001
0010
0001
0010
0001
0010
0001
,
1000
0010
1000
0010
1000
0010
1000
0010
,
0100
0010
0100
0010
0100
0010
0100
0010
,
1000
0001
1000
0001
1000
0001
1000
0001
1000
0100
0010
0001
0010
0100
1000
0100
,
1000
0001
1000
0001
0100
0010
1000
0100
0010
0001
0100
0001
1000
0001
1000
0100
,
1000
0010
0100
0001
1000
0100
0010
0001
1000
0010
1000
0010
0100
0001
0100
0001
,
1000
0010
1000
0100
0010
0001
0010
0001
0100
0010
1000
0001
0010
0001
1000
0100
,
0010
0001
0100
0001
1000
0100
1000
0100
0010
0001
0100
0001
1000
0100
1000
0100
,
1000
0001
1000
0001
0100
0010
1000
0100
0010
0001
0100
0001
1000
0001
1000
0100
,
1000
0010
0100
0001
1000
0100
0010
0001
1000
0010
1000
0100
1000
0001
1000
0010
,
1000
0100
0010
0001
1000
0010
0100
0010
1000
0100
1000
0001
0100
0001
1000
0100
,
1000
0100
1000
0100
1000
0100
0010
0001
0010
0001
0010
0001
0010
0001
0100
0010
,
1000
0001
1000
0001
0010
0100
1000
0010
0100
0001
0010
0001
1000
0001
1000
0010
,
1000
0100
0010
0001
1000
0010
0100
0001
1000
0100
1000
0100
0010
0001
0010
0001
,
1000
0100
1000
0010
0100
0001
0100
0001
0010
0100
1000
0001
0100
0001
1000
0010
,
0100
0001
0010
0001
1000
0010
1000
0010
0100
0001
0010
0001
1000
0010
1000
0010
,
1000
0001
1000
0001
0010
0100
1000
0010
0100
0001
0010
0001
1000
0001
1000
0010
,
1000
0100
0010
0001
1000
0010
0100
0001
1000
0100
1000
0010
1000
0001
1000
0100
,
1000
0010
0100
0001
1000
0100
0010
0100
1000
0010
1000
0001
0010
0001
1000
0010
,
1000
0010
1000
0010
1000
0010
0100
0001
0100
0001
0100
0001
0100
0001
0010
0100
,
1000
0001
1000
0001
0100
0010
1000
0100
0010
0001
0100
0001
1000
0001
1000
0100
,
1000
0010
0100
0001
1000
0100
0010
0001
1000
0010
1000
0010
0100
0001
0100
0001
,
1000
0010
1000
0100
0010
0001
0010
0001
0100
0010
1000
0001
0010
0001
1000
0100
,
0010
0001
0100
0001
1000
0100
1000
0100
0010
0001
0100
0001
1000
0100
1000
0100
,
1000
0001
1000
0001
0100
0010
1000
0100
0010
0001
0100
0001
1000
0001
1000
0100
,
1000
0010
0100
0001
1000
0100
0010
0001
1000
0010
1000
0100
1000
0001
1000
0010
,
1000
0100
0010
0001
1000
0010
0100
0010
1000
0100
1000
0001
0100
0001
1000
0100
,
1000
0100
1000
0100
1000
0100
0010
0001
0010
0001
0010
0001
0010
0001
0100
0010
,
1000
0001
1000
0001
0010
0100
1000
0010
0100
0001
0010
0001
1000
0001
1000
0010
,
1000
0100
0010
0001
1000
0010
0100
0001
1000
0100
1000
0100
0010
0001
0010
0001
,
1000
0100
1000
0010
0100
0001
0100
0001
0010
0100
1000
0001
0100
0001
1000
0010
,
0100
0001
0010
0001
1000
0010
1000
0010
0100
0001
0010
0001
1000
0010
1000
0010
,
1000
0001
1000
0001
0010
0100
1000
0010
0100
0001
0010
0001
1000
0001
1000
0010
,
1000
0100
0010
0001
1000
0010
0100
0001
1000
0100
1000
0010
1000
0001
1000
0100
,
1000
0010
0100
0001
1000
0100
0010
0100
1000
0010
1000
0001
0010
0001
1000
0010
,
1000
0010
1000
0010
1000
0010
0100
0001
0100
0001
0100
0001
0100
0001
0010
0100
,
1000
0100
1000
0010
0100
0001
0010
0001
,
1000
0010
1000
0100
0010
0001
0100
0001
,
1000
0100
1000
0010
0100
0001
0010
0001
,
1000
0010
1000
0100
0010
0001
2000
0000
,
3001
0100
0010
0100
0001
0010
0001
0100
0010
1000
0100
0010
0100
1000
0001
1000
,
0001
1000
0001
0010
0001
0100
0010
0100
0001
0010
0100
1000
0010
0100
0010
1000
,
0001
0010
0100
0010
0001
0100
0001
0010
0100
1000
0010
0100
0010
1000
0001
1000
,
0001
1000
0001
0100
0001
0010
0100
0010
0001
0100
0010
1000
0100
0010
0100
1000
,
0001
0100
0010
0100
0001
0010
0001
0100
0010
1000
0100
0010
0100
1000
0001
1000
,
0001
1000
0001
0010
0001
0100
0010
0100
0001
0010
0100
1000
0010
0100
0010
1000
,
0001
0010
0100
0010
0001
0100
0001
0010
0100
1000
0010
0100
0010
1000
0001
1000
,
0001
1000
0001
0100
0001
0010
0100
0010
0001
0100
0010
1000
0100
0010
0100
1000
,
0001
0100
0010
0100
0001
0010
0001
0100
0010
1000
0100
0010
0100
1000
0001
1000
,
0001
1000
0001
0010
0001
0100
0010
0100
0001
0010
0100
1000
0010
0100
0010
1000
,
0001
0010
0100
0010
0001
0100
0001
0010
0100
1000
0010
0100
0010
1000
0001
1000
,
0001
1000
0001
0100
0001
0010
0100
0010
0001
0100
0010
1000
0100
0010
0100
1000
,
0001
0010
0001
0100
0010
1000
0100
1000
,
0001
0100
0001
0010
0100
1000
0010
1000
,
0001
0010
0001
0100
0010
1000
0100
1000
,
0001
0100
0001
0010
0100
1000
0002
0000
,
1003
0010
0100
0010
1000
0100
1000
0010
0100
0001
0010
0100
0010
0001
1000
0001
,
1000
0001
1000
0100
1000
0010
0100
0010
1000
0100
0010
0001
0100
0010
0100
0001
,
1000
0100
0010
0100
1000
0010
1000
0100
0010
0001
0100
0010
0100
0001
1000
0001
,
1000
0001
1000
0010
1000
0100
0010
0100
1000
0010
0100
0001
0010
0100
0010
0001
,
1000
0010
0100
0010
1000
0100
1000
0010
0100
0001
0010
0100
0010
0001
1000
0001
,
1000
0001
1000
0100
1000
0010
0100
0010
1000
0100
0010
0001
0100
0010
0100
0001
,
1000
0100
0010
0100
1000
0010
1000
0100
0010
0001
0100
0010
0100
0001
1000
0001
,
1000
0001
1000
0010
1000
0100
0010
0100
1000
0010
0100
0001
0010
0100
0010
0001
,
1000
0010
0100
0010
1000
0100
1000
0010
0100
0001
0010
0100
0010
0001
1000
0001
,
1000
0001
1000
0100
1000
0010
0100
0010
1000
0100
0010
0001
0100
0010
0100
0001
,
1000
0100
0010
0100
1000
0010
1000
0100
0010
0001
0100
0010
0100
0001
1000
0001
,
1000
0001
1000
0010
1000
0100
0010
0100
1000
0010
0100
0001
0010
0100
0010
0001
,
1000
0000
0000
0011
0000
0000
1100
1100
,
0000
2002
0000
0000
,
3003
0000
00M0
0M00
00M0
000M
0000
M000
0000
00M0
0000
0000
0000
0000
0000
0000
;
