#TITLE:Jetstream!;
#SUBTITLE:;
#ARTIST:Dimrain47;
#TITLETRANSLIT:;
#SUBTITLETRANSLIT:;
#ARTISTTRANSLIT:;
#CREDIT:owenviau1;
#BANNER:BG.PNG;
#BACKGROUND:BG.PNG;
#LYRICSPATH:;
#CDTITLE:ov1_title.png;
#MUSIC:Jetstream!.mp3;
#OFFSET:-11.340;
#SAMPLESTART:100.000;
#SAMPLELENGTH:29.999;
#SELECTABLE:YES;
#BPMS:0.000=170.000;
#STOPS:;
#BGCHANGES:;
// cache tags:
#FIRSTBEAT:0.000;
#LASTBEAT:720.000;
#SONGFILENAME:Songs/Owenviau1 Simfiles 4/Jetstream - Dimrain47  [owenviau1]/Jetstream!.sm;
#HASMUSIC:1;
#HASBANNER:1;
#MUSICLENGTH:269.766;
// end cache tags

//---------------dance-single - ----------------
#NOTES:
     dance-single:
     :
     Challenge:
     13:
     1.000,1.000,0.137,0.137,1.000,2262.000,37.000,37.000,0.000,19.000:

1000
0100
0010
0001
1000
0010
1000
0001
0100
0001
0010
0100
1000
0100
0010
0001
,
1000
0010
0100
0001
0100
0010
1000
0001
1000
0010
0100
0001
0010
0100
1000
0010
,
1000
0100
0010
0001
0100
0001
0010
0100
1000
0100
0010
0001
1000
0100
1000
0010
,
0100
0001
0010
0001
1000
0010
1000
0001
0100
0001
0010
0100
1000
0100
0010
0001
,
1000
0010
0100
0001
0010
0001
1000
0100
1000
0010
0100
0001
0010
0100
1000
0010
,
1000
0001
0100
0001
0010
0100
1000
0100
0010
0001
1000
0010
1000
0100
0010
0001
,
0100
0001
0010
0100
1000
0100
0010
0001
1000
0010
0100
0001
0010
0100
1000
0100
,
0010
0001
0010
0100
1000
0001
0010
0100
1000
0100
0001
0010
0100
1000
0100
0010
,
0001
1000
0010
0100
0001
0100
0010
1000
0001
1000
0010
0100
0001
0010
0100
1000
,
0010
1000
0100
0010
0001
0100
0001
0010
0100
1000
0100
0010
0001
1000
0100
1000
,
0010
0100
0001
0010
0001
1000
0010
1000
0001
0100
0001
0010
0100
1000
0100
0010
,
0001
1000
0010
0100
0001
0010
0001
1000
0100
1000
0010
0100
0001
0010
0100
1000
,
0010
1000
0001
0100
0001
0010
0100
1000
0100
0010
0001
1000
0010
1000
0100
0010
,
0001
0100
0001
0010
0100
1000
0100
0010
0001
1000
0010
0100
0001
0010
0100
1000
,
0100
0010
0001
1000
0010
1000
0100
0010
0001
0100
0001
0010
0100
1000
0100
0010
,
0001
1000
0100
1000
0010
0100
0001
0010
0001
0100
0010
1000
0100
0010
0001
0100
,
0001
2000
0000
0000
,
3001
0010
0100
1000
0001
0100
0010
1000
0100
1000
0010
0100
0001
0010
0001
1000
,
0010
1000
0001
0100
0001
0010
0100
1000
0100
0010
0001
1000
0010
0100
0001
0100
,
0010
1000
0100
0010
0001
0100
0001
0010
0100
1000
0010
1000
0100
0010
0001
0100
,
0010
1000
0100
0010
0001
0100
0001
0010
0100
1000
0010
1000
0100
0010
0001
0010
,
0100
1000
0001
0010
0001
0100
0010
1000
0100
1000
0010
0100
0001
0010
0001
1000
,
0010
1000
0100
0010
0001
0010
0100
1000
0010
1000
0100
0010
0001
0100
0001
0010
,
0100
1000
0010
0100
0001
1000
0001
0100
0010
1000
0100
0010
0001
1000
0001
0010
,
0100
1000
0100
0010
0001
0100
0010
1000
0001
0100
0001
1000
0010
1000
0100
0010
,
1001
0100
0010
1000
0001
0010
0100
1000
0001
1000
0100
0010
0001
0100
0010
1000
,
0001
0010
0001
0100
0010
1000
0100
1000
0100
0010
0001
0100
0001
0010
0100
1000
,
0010
1000
0100
0010
0001
0010
0100
1000
0001
0010
0001
0100
0010
1000
0100
1000
,
0010
0100
0001
0010
0001
1000
0100
1000
0010
0100
0010
1000
0001
1000
0100
0010
,
0001
0010
0100
1000
0001
1000
0010
0100
0001
0100
0010
1000
0010
0100
0001
1000
,
0100
0010
0001
1000
0001
0100
0010
1000
0010
0100
0001
0010
0100
1000
0100
0010
,
0001
1000
0010
1000
0100
0010
0001
0100
0001
0010
0100
1000
0100
0010
0001
1000
,
0100
1000
0010
0100
0001
0010
0001
1000
0010
0100
0001
0010
0100
1000
0010
0100
,
1001
0010
0100
1000
0001
0000
0010
0000
0100
1000
0100
0010
0001
0000
1000
0000
,
0010
0100
0001
0010
0100
0000
1000
0000
0001
0100
0010
1000
0010
0000
0100
0000
,
0001
0010
0100
1000
0001
0000
0100
0000
1000
0100
1000
0010
0100
0000
0001
0000
,
0010
0100
1000
0100
0010
0000
0001
0000
1000
0010
0100
0001
1000
0000
0100
0000
,
0010
1000
0100
0010
0001
0000
0100
0000
1000
0010
0100
0001
0100
0000
0010
0000
,
1000
0100
0010
0001
0100
0000
0010
0000
1000
0001
0100
0010
1000
0000
0100
0000
,
0010
0001
0010
0100
1000
0000
0001
0000
0100
0010
1000
0010
0100
0000
0001
0000
,
1000
0100
0010
0001
0100
0000
0010
0000
1000
0100
0010
0001
1000
0001
1000
0010
,
1001
0010
0100
1000
0001
0000
0010
0000
0100
1000
0100
0010
0001
0000
1000
0000
,
0010
0100
0001
0010
0100
0000
1000
0000
0001
0100
0010
1000
0010
0000
0100
0000
,
0001
0010
0100
1000
0001
0000
0100
0000
1000
0100
1000
0010
0100
0000
0001
0000
,
0010
0100
1000
0100
0010
0000
0001
0000
1000
0010
0100
0001
1000
0000
0100
0000
,
0010
1000
0100
0010
0001
0000
0100
0000
1000
0010
0100
0001
0100
0000
0010
0000
,
1000
0100
0010
0001
0100
0000
0010
0000
1000
0001
0100
0010
1000
0000
0100
0000
,
0010
0001
0010
0100
1000
0000
0001
0000
0100
0010
1000
0010
0100
0000
0001
0000
,
1000
0100
0010
0001
0100
0000
0010
0000
1000
0100
0010
0001
1000
0010
1000
0001
,
1100
0001
1000
0010
0100
0001
1000
0100
0010
0001
1000
0010
1000
0100
0010
0001
,
0100
0001
0010
0100
1000
0001
0010
0001
0100
0010
1000
0100
1000
0010
0100
0001
,
0100
0010
1000
0010
0100
0001
0010
0100
1000
0100
0010
0001
1000
0010
0100
0001
,
0100
0010
1000
0001
0100
0010
1000
0001
0010
0100
1000
0010
1000
0100
0010
0001
,
0100
0010
1000
0100
0010
0001
0100
0001
0010
0100
1000
0010
1000
0100
0010
0001
,
0010
0100
1000
0001
0100
0001
0010
0100
1000
0100
0010
0001
1000
0100
1000
0010
,
0100
0001
0010
0001
0100
0010
1000
0100
0010
0001
0010
0100
1000
0001
0100
0001
,
1000
0010
1000
0100
0010
0001
1000
0001
0100
0010
1000
0100
0010
0001
0010
0100
,
1010
0100
0010
0001
1000
0010
0100
0001
0010
0001
1000
0010
1000
0100
0010
0001
,
0010
0100
1000
0010
0100
0001
0100
0010
1000
0010
0100
0001
1000
0100
0010
0001
,
0100
0001
1000
0010
1000
0001
0100
0010
1000
0100
0010
0001
0010
0100
1000
0010
,
0100
0001
1000
0100
0010
0001
1000
0001
0010
0100
1000
0010
1000
0001
0010
0100
,
1000
0001
0100
0010
1000
0001
0010
0100
1000
0100
0010
1000
0001
0010
0100
1000
,
0010
0100
0001
1000
0010
0100
0001
0010
0100
1000
0100
0010
0001
1000
0010
0100
,
0001
0100
0010
1000
0010
0100
0001
1000
0001
0010
0100
1000
0010
1000
0100
0010
,
0001
0100
0001
1000
0100
0010
0001
0010
0100
1000
0010
0100
0001
1000
0001
0010
,
1001
0010
0100
1000
0001
0000
0010
0000
0100
1000
0100
0010
0001
0000
1000
0000
,
0010
0100
0001
0010
0100
0000
1000
0000
0001
0100
0010
1000
0010
0000
0100
0000
,
0001
0010
0100
1000
0001
0000
0100
0000
1000
0100
1000
0010
0100
0000
0001
0000
,
0010
0100
1000
0100
0010
0000
0001
0000
1000
0010
0100
0001
1000
0000
0100
0000
,
0010
1000
0100
0010
0001
0000
0100
0000
1000
0010
0100
0001
0100
0000
0010
0000
,
1000
0100
0010
0001
0100
0000
0010
0000
1000
0001
0100
0010
1000
0000
0100
0000
,
0010
0001
0010
0100
1000
0000
0001
0000
0100
0010
1000
0010
0100
0000
0001
0000
,
1000
0100
0010
0001
0100
0000
0010
0000
1000
0100
0010
0001
0010
0100
1000
0010
,
0101
1000
0100
0010
0001
1000
0010
1000
0100
0010
0001
0100
0001
0010
0100
1000
,
0100
0010
0001
1000
0100
1000
0010
0100
0001
0010
0001
0100
0010
1000
0100
0010
,
0001
0010
0100
1000
0001
1000
0010
0100
0001
0100
0010
1000
0100
0010
0001
0100
,
0001
0010
0100
1000
0010
1000
0100
0010
0001
0100
0001
1000
0010
1000
0100
0010
,
0001
0010
0100
1000
0001
0100
0010
1000
0001
0100
0001
0010
0100
1000
0010
1000
,
0001
0100
0010
1000
0100
0010
0001
0010
0100
1000
0001
0100
0001
0010
0100
1000
,
0100
0010
0001
1000
0010
1000
0100
0010
0001
0100
0001
0010
0100
1000
0001
0010
,
0001
0100
0010
1000
0100
1000
0001
0010
0100
1000
0001
1000
0010
0100
0001
0010
,
1001
0100
0010
0001
1000
0010
1000
0001
0100
0001
0010
0100
1000
0100
0010
0001
,
1000
0010
0100
0001
0100
0010
1000
0001
1000
0010
0100
0001
0010
0100
1000
0010
,
1000
0100
0010
0001
0100
0001
0010
0100
1000
0100
0010
0001
1000
0100
1000
0010
,
0100
0001
0010
0001
1000
0010
1000
0001
0100
0001
0010
0100
1000
0100
0010
0001
,
1000
0010
0100
0001
0010
0001
1000
0100
1000
0010
0100
0001
0010
0100
1000
0010
,
1000
0001
0100
0001
0010
0100
1000
0100
0010
0001
1000
0010
1000
0100
0010
0001
,
0100
0001
0010
0100
1000
0100
0010
0001
1000
0010
0100
0001
0010
0100
1000
0100
,
0010
0001
0010
0100
1000
0001
0010
0100
1000
0100
0010
0001
1000
0001
0100
0010
,
1001
1000
0010
0100
0001
0100
0010
1000
0001
1000
0010
0100
0001
0010
0100
1000
,
0010
1000
0100
0010
0001
0100
0001
0010
0100
1000
0100
0010
0001
1000
0100
1000
,
0010
0100
0001
0010
0001
1000
0010
1000
0001
0100
0001
0010
0100
1000
0100
0010
,
0001
1000
0010
0100
0001
0010
0001
1000
0100
1000
0010
0100
0001
0010
0100
1000
,
0010
1000
0001
0100
0001
0010
0100
1000
0100
0010
0001
1000
0010
1000
0100
0010
,
0001
0100
0001
0010
0100
1000
0100
0010
0001
1000
0010
0100
0001
0010
0100
1000
,
0100
0010
0001
1000
0010
1000
0100
0010
0001
0100
0001
0010
0100
1000
0100
0010
,
0001
1000
0100
1000
0010
0100
0001
0010
0001
0100
0010
1000
0100
0010
0001
0100
,
1001
1000
0100
0010
0001
1000
0010
1000
0100
0010
0001
0100
0001
0010
0100
1000
,
0100
0010
0001
1000
0100
1000
0010
0100
0001
0010
0001
0100
0010
1000
0100
0010
,
0001
0010
0100
1000
0001
1000
0010
0100
0001
0100
0010
1000
0100
0010
0001
0100
,
0001
0010
0100
1000
0010
1000
0100
0010
0001
0100
0001
1000
0010
1000
0100
0010
,
0001
0010
0100
1000
0001
0100
0010
1000
0001
0100
0001
0010
0100
1000
0010
1000
,
0001
0100
0010
1000
0100
0010
0001
0010
0100
1000
0001
0100
0001
0010
0100
1000
,
0100
0010
0001
1000
0010
1000
0100
0010
0001
0100
0001
0010
0100
1000
0001
0010
,
0001
0100
0010
1000
0100
1000
0001
0010
0100
1000
0001
1000
0010
0100
0001
0010
,
2001
0000
0000
0000
,
0000
3020
0000
0000
0000
0000
0000
0000
,
0000
0230
0000
0000
0000
0000
0000
0000
,
0000
0302
0000
0000
0000
0000
0000
0000
,
0000
2003
0000
0000
0000
0000
0000
0000
,
0000
3020
0000
0000
0000
0000
0000
0000
,
0000
0230
0000
0000
0000
0000
0000
0000
,
0000
0000
0000
0000
0000
0000
0302
0000
0000
0000
0000
0000
0000
0000
0000
0000
0000
0000
0000
0000
0000
0000
0000
0000
0000
0000
0000
0000
0000
0000
0000
0000
0000
0000
0000
0000
0000
0000
0000
0000
2003
3000
0000
0000
0200
0300
0000
0000
,
2001
0000
0000
0000
,
3120
0000
0000
0000
,
2031
0000
0000
0000
,
3102
0000
0000
0000
,
0213
0000
0000
0000
,
1302
0000
0000
0000
,
0123
0000
0000
0000
,
2130
0000
0000
0000
,
3210
0000
0000
0000
,
1320
0000
0000
0000
0000
0000
0000
0000
0000
0000
0000
0000
0000
0000
0000
0000
2000
3000
0000
0000
0000
0000
0000
0000
0200
0300
0000
0000
0000
0000
0000
0000
,
1032
0000
0000
0000
,
2013
0000
0000
0000
0000
0000
0000
0000
0002
0003
0000
0000
0000
0000
0000
0000
0200
0300
0000
0000
0000
0000
0000
0000
0020
0030
0000
0000
0000
0000
0000
0000
,
3102
0000
0000
0000
,
2013
0000
0000
0000
0000
0000
0000
0000
0000
0000
0000
0000
0000
0000
0000
0000
0002
0003
0000
0000
0000
0000
0000
0000
0000
0000
0000
0000
0000
0000
0000
0000
,
3210
0000
0000
0000
,
1320
0000
0000
0000
,
0132
0000
0000
0000
,
2013
0000
0000
0000
,
3220
0000
0000
0000
,
1331
0010
0100
1000
0001
0000
0010
0000
0100
1000
0100
0010
0001
0000
1000
0000
,
0010
0100
0001
0010
0100
0000
1000
0000
0001
0100
0010
1000
0010
0000
0100
0000
,
0001
0010
0100
1000
0001
0000
0100
0000
1000
0100
1000
0010
0100
0000
0001
0000
,
0010
0100
1000
0100
0010
0000
0001
0000
1000
0010
0100
0001
1000
0000
0100
0000
,
0010
1000
0100
0010
0001
0000
0100
0000
1000
0010
0100
0001
0100
0000
0010
0000
,
1000
0100
0010
0001
0100
0000
0010
0000
1000
0001
0100
0010
1000
0000
0100
0000
,
0010
0001
0010
0100
1000
0000
0001
0000
0100
0010
1000
0010
0100
0000
0001
0000
,
1000
0100
0010
0001
0100
0000
0010
0000
1000
0100
0010
0001
1000
0001
0010
0100
,
1001
0010
0100
1000
0001
0000
0010
0000
0100
1000
0100
0010
0001
0000
1000
0000
,
0010
0100
0001
0010
0100
0000
1000
0000
0001
0100
0010
1000
0010
0000
0100
0000
,
0001
0010
0100
1000
0001
0000
0100
0000
1000
0100
1000
0010
0100
0000
0001
0000
,
0010
0100
1000
0100
0010
0000
0001
0000
1000
0010
0100
0001
1000
0000
0100
0000
,
0010
1000
0100
0010
0001
0000
0100
0000
1000
0010
0100
0001
0100
0000
0010
0000
,
1000
0100
0010
0001
0100
0000
0010
0000
1000
0001
0100
0010
1000
0000
0100
0000
,
0010
0001
0010
0100
1000
0000
0001
0000
0100
0010
1000
0010
0100
0000
0001
0000
,
1000
0100
0010
0001
0100
0000
0010
0000
1000
0100
0010
0001
1000
0010
0100
0010
,
1001
0100
0010
0001
1000
0010
1000
0001
0100
0001
0010
0100
1000
0100
0010
0001
,
1000
0010
0100
0001
0100
0010
1000
0001
1000
0010
0100
0001
0010
0100
1000
0010
,
1000
0100
0010
0001
0100
0001
0010
0100
1000
0100
0010
0001
1000
0100
1000
0010
,
0100
0001
0010
0001
1000
0010
1000
0001
0100
0001
0010
0100
1000
0100
0010
0001
,
1000
0010
0100
0001
0010
0001
1000
0100
1000
0010
0100
0001
0010
0100
1000
0010
,
1000
0001
0100
0001
0010
0100
1000
0100
0010
0001
1000
0010
1000
0100
0010
0001
,
0100
0001
0010
0100
1000
0100
0010
0001
1000
0010
0100
0001
0010
0100
1000
0100
,
0010
0001
0010
0100
1000
0001
0010
0100
1000
0100
0001
0010
0100
1000
0100
0010
,
0101
1000
0010
0100
0001
0100
0010
1000
0001
1000
0010
0100
0001
0010
0100
1000
,
0010
1000
0100
0010
0001
0100
0001
0010
0100
1000
0100
0010
0001
1000
0100
1000
,
0010
0100
0001
0010
0001
1000
0010
1000
0001
0100
0001
0010
0100
1000
0100
0010
,
0001
1000
0010
0100
0001
0010
0001
1000
0100
1000
0010
0100
0001
0010
0100
1000
,
0010
1000
0001
0100
0001
0010
0100
1000
0100
0010
0001
1000
0010
1000
0100
0010
,
0001
0100
0001
0010
0100
1000
0100
0010
0001
1000
0010
0100
0001
0010
0100
1000
,
0100
0010
0001
1000
0010
1000
0100
0010
0001
0100
0001
0010
0100
1000
0100
0010
,
0001
1000
0100
1000
0010
0100
0001
0010
0001
0100
0010
1000
0100
0010
0001
0100
,
1001
0010
0100
1000
0001
0000
0010
0000
0100
1000
0100
0010
0001
0000
1000
0000
,
0010
0100
0001
0010
0100
0000
1000
0000
0001
0100
0010
1000
0010
0000
0100
0000
,
0001
0010
0100
1000
0001
0000
0100
0000
1000
0100
1000
0010
0100
0000
0001
0000
,
0010
0100
1000
0100
0010
0000
0001
0000
1000
0010
0100
0001
1000
0000
0100
0000
,
0010
1000
0100
0010
0001
0000
0100
0000
1000
0010
0100
0001
0100
0000
0010
0000
,
1000
0100
0010
0001
0100
0000
0010
0000
1000
0001
0100
0010
1000
0000
0100
0000
,
0010
0001
0010
0100
1000
0000
0001
0000
0100
0010
1000
0010
0100
0000
0001
0000
,
1000
0100
0010
0001
0100
0000
0010
0100
1000
0100
0010
0001
1000
0001
0010
0100
,
1001
0010
0100
1000
0001
0000
0010
0000
0100
1000
0100
0010
0001
0000
1000
0000
,
0010
0100
0001
0010
0100
0000
1000
0000
0001
0100
0010
1000
0010
0000
0100
0000
,
0001
0010
0100
1000
0001
0000
0100
0000
1000
0100
1000
0010
0100
0000
0001
0000
,
0010
0100
1000
0100
0010
0000
0001
0000
1000
0010
0100
0001
1000
0000
0100
0000
,
0010
1000
0100
0010
0001
0000
0100
0000
1000
0010
0100
0001
0100
0000
0010
0000
,
1000
0100
0010
0001
0100
0000
0010
0000
1000
0001
0100
0010
1000
0000
0100
0000
,
0010
0001
0010
0100
1000
0000
0001
0000
0100
0010
1000
0010
0100
0000
0001
0000
,
1000
0100
0010
0001
0100
0000
0010
0100
1000
0100
0010
0001
1000
0001
0010
0100
,
1001
0000
0000
0000
;

//---------------dance-single - ----------------
#NOTES:
     dance-single:
     :
     Hard:
     9:
     0.527,0.534,0.015,0.133,0.004,955.000,4.000,36.000,0.000,2.000:

1000
0100
0010
0001
1000
0000
0010
0000
,
0100
0001
0010
0100
1000
0000
0001
0000
,
0100
0001
0010
0100
0010
0000
0001
0000
,
1000
0001
0100
0001
0010
0100
0010
0100
,
0010
0001
1000
0001
0100
0000
0010
0000
,
1000
0010
0100
0001
0010
0000
0001
0000
,
1000
0001
0100
0001
0010
0000
0001
0000
,
1000
0100
1000
0100
0010
0000
0001
0000
,
0100
0001
0100
0001
0010
0000
0100
0000
,
1000
0100
1000
0100
1000
0000
0010
0000
,
0100
0010
0100
0010
0100
0000
0010
0000
,
0001
1000
0001
0010
0001
0000
0100
0000
,
0010
1000
0010
0100
0010
0000
1000
0000
,
0001
0100
0001
0010
0001
0000
0010
0000
,
0100
1000
0100
0010
0001
0000
0100
0000
,
0010
1000
0010
0000
0100
0000
0001
1000
,
0001
0000
0000
0000
,
1000
0000
0010
0000
0100
0001
0010
0000
,
0100
1000
0100
0010
0001
0000
0100
0000
,
0010
1000
0010
0100
0001
0000
0010
0000
,
0001
1000
0001
0100
0001
0000
0010
0000
,
0100
1000
0100
0010
0001
0000
0100
0000
,
0010
1000
0010
0100
0001
0000
1000
0000
,
0100
1000
0100
0010
0001
0000
0100
0000
,
0010
1000
0010
0000
0100
0000
0001
0000
,
1000
0001
1000
0001
0010
0000
0100
0000
,
1000
0100
0010
0001
0010
0000
0001
0000
,
1000
0100
0001
0100
1000
0000
0010
0000
,
1000
0010
0001
0010
1000
0000
0010
0000
,
0001
0100
0001
0010
0001
0000
0100
0000
,
1000
0010
1000
0100
1000
0000
0010
0000
,
0100
0001
0010
0100
1000
0000
0001
0000
,
1000
0100
0001
0000
0100
0001
1000
0000
,
1000
0000
0010
0100
0001
0000
0010
0000
,
0100
1000
0100
0010
0001
0000
0100
0000
,
0010
0000
1000
0001
1000
0001
0010
0100
,
1000
0000
0001
0000
0100
0000
0010
1000
,
0010
0000
0100
0001
0010
0100
0010
0001
,
1000
0000
0001
0000
0100
0000
0010
1000
,
0001
0000
1000
0001
0010
0001
0100
0010
,
1000
0000
0010
0000
0100
0000
0001
1000
,
0001
0000
0010
0100
1000
0100
0010
0001
,
0100
0000
0010
0000
1000
0000
0001
0100
,
0010
0000
1000
0100
0001
0100
0010
0001
,
0010
0000
1000
0000
0001
0000
0100
0001
,
0010
0000
1000
0001
0010
0100
1000
0001
,
0100
0000
0010
0000
1000
0000
0001
0010
,
0100
0000
1000
0100
0010
0001
0100
0010
,
1000
0000
0001
0000
0100
0001
0010
0100
,
1000
0000
0001
0100
0010
0000
1000
0000
,
0001
0000
0010
0000
0100
1000
0001
0000
,
0100
0000
0010
1000
0010
0100
0001
0010
,
0100
0000
1000
0000
0001
0000
0100
0001
,
0010
0000
0100
1000
0100
0010
0001
0100
,
0010
0000
1000
0000
0001
0000
1000
0010
,
0100
0000
0001
0100
0001
0010
0100
1000
,
0001
0000
0001
0000
0100
0001
1000
0100
,
1001
0000
0010
0100
0001
0000
0010
0000
,
0100
1000
0100
0010
0001
0000
0100
0000
,
0010
0000
1000
0001
1000
0001
0010
0100
,
1000
0000
0001
0000
0100
0001
0010
0001
,
0100
0000
0010
1000
0010
0100
0001
0010
,
0100
0000
1000
0000
0001
0000
0100
0001
,
0010
0000
1000
0100
0010
0001
0010
0100
,
1000
0000
0001
0000
0100
0010
1000
0010
,
0100
0000
0001
1000
0001
0000
0010
0100
,
1000
0000
0001
0000
0100
0000
0010
1000
,
0010
0000
0100
0001
1000
0001
0010
0100
,
1000
0000
0001
0000
0100
0001
0010
0100
,
1000
0000
0001
0100
0001
0010
0100
1000
,
0001
0000
0100
0010
1000
0010
0100
0001
,
0010
0000
0100
1000
0001
1000
0001
0100
,
0010
0000
1000
0000
0100
1000
0100
0000
,
1000
0001
0100
0001
0010
0000
0100
0000
,
1000
0001
1000
0001
0010
0100
1000
0001
,
0100
0000
0010
0000
1000
0001
1000
0001
,
0010
0000
0100
0000
1000
0001
1000
0001
,
0010
0000
0100
1000
0100
0010
0001
0100
,
0010
0000
1000
0001
0100
0001
0010
0100
,
1000
0000
0001
0000
0100
0001
0010
0100
,
1000
0000
0001
0000
0100
0010
1000
0000
,
0001
1000
0001
0010
0100
1000
0001
0000
,
0100
0010
1000
0010
0100
0001
0010
0100
,
1000
0000
0001
0100
0001
0000
0010
0000
,
0100
1000
0100
0010
0001
0000
0100
0000
,
0010
1000
0010
0100
0010
0000
1000
0000
,
0001
1000
0001
0000
0010
0000
0100
0000
,
1000
0001
0100
0001
0010
0000
0100
0000
,
1000
0001
0100
0001
0010
0100
1000
0001
,
0100
0000
0010
1000
0001
0000
0010
0000
,
0100
1000
0100
0010
0001
0000
0100
0000
,
0010
1000
0010
0100
0001
0000
0010
0000
,
0001
1000
0001
0100
0010
0000
1000
0000
,
0100
1000
0100
0010
0001
0000
0100
0000
,
0010
1000
0010
0100
0001
0000
0010
0000
,
0100
1000
0001
0100
0001
0000
0010
0000
,
0100
1000
0001
0100
0001
0000
0010
0000
,
0100
1000
0001
0100
0010
0000
1000
0000
,
0001
1000
0001
0100
0001
0000
0010
0000
,
1000
0001
1000
0001
0100
0000
0010
0000
,
1000
0010
1000
0010
0001
0000
0100
0000
,
0010
0100
0010
0100
0010
0000
0001
0000
,
1000
0010
1000
0010
0001
0000
0001
0000
,
0100
0010
0100
0010
1000
0000
0001
0000
,
0100
0001
0100
0001
0010
0000
0100
0000
,
2001
0000
0000
0000
,
0000
3020
0000
0000
0000
0000
0000
0000
,
0000
0230
0000
0000
0000
0000
0000
0000
,
0000
0302
0000
0000
0000
0000
0000
0000
,
0000
2003
0000
0000
0000
0000
0000
0000
,
0000
3020
0000
0000
0000
0000
0000
0000
,
0000
0230
0000
0000
0000
0000
0000
0000
,
0000
0000
0000
0000
0000
0000
0302
0000
0000
0000
0000
0000
0000
0000
0000
0000
0000
0000
0000
0000
0000
0000
0000
0000
0000
0000
0000
0000
0000
0000
0000
0000
0000
0000
0000
0000
0000
0000
0000
0000
2003
3000
0000
0000
0200
0300
0000
0000
,
2000
0000
0000
0000
,
3020
0000
0000
0000
,
2030
0000
0000
0000
,
3002
0000
0000
0000
,
0203
0000
0000
0000
,
0302
0000
0000
0000
,
0023
0000
0000
0000
,
2030
0000
0000
0000
,
3200
0000
0000
0000
,
0320
0000
0000
0000
0000
0000
0000
0000
0000
0000
0000
0000
0000
0000
0000
0000
2000
3000
0000
0000
0000
0000
0000
0000
0200
0300
0000
0000
0000
0000
0000
0000
,
0032
0000
0000
0000
,
2003
0000
0000
0000
0000
0000
0000
0000
0002
0003
0000
0000
0000
0000
0000
0000
0200
0300
0000
0000
0000
0000
0000
0000
0020
0030
0000
0000
0000
0000
0000
0000
,
3002
0000
0000
0000
,
2003
0000
0000
0000
0000
0000
0000
0000
0000
0000
0000
0000
0000
0000
0000
0000
0002
0003
0000
0000
0000
0000
0000
0000
0000
0000
0000
0000
0000
0000
0000
0000
,
3200
0000
0000
0000
,
0320
0000
0000
0000
,
0032
0000
0000
0000
,
2003
0000
0000
0000
,
3220
0000
0000
0000
,
1330
0001
0010
0100
1000
0000
0001
0000
,
0100
0001
0010
0100
1000
0000
0001
0000
,
0100
0010
1000
0010
0100
0000
0001
0000
,
1000
0001
0010
0100
1000
0000
0001
0000
,
0100
0001
0010
0001
0100
0000
0010
0000
,
1000
0010
0100
0010
1000
0000
0100
0000
,
1000
0100
0010
0001
0100
0000
0001
0000
,
1000
0001
0100
0001
0010
0000
0100
0000
,
1001
0010
0100
0001
0010
0000
0100
0000
,
1000
0001
0100
0001
0010
0000
0100
0000
,
1000
0100
1000
0100
1000
0000
0001
0000
,
0100
0001
0100
0001
0010
0000
1000
0000
,
0010
0100
0001
0000
0010
0000
0100
0000
,
1000
0001
0100
0001
0010
0000
0100
0000
,
1000
0100
0010
0001
0100
0010
1000
0000
,
0001
0100
0001
0010
0100
1000
0001
0010
,
0100
0000
1000
0001
0100
0000
0010
0000
,
1000
0100
1000
0100
0010
0000
0001
0000
,
0100
0010
1000
0010
0100
0000
0001
0000
,
1000
0100
0001
0100
1000
0000
0010
0000
,
1000
0010
0001
0010
1000
0000
0010
0000
,
0100
0001
0010
0100
0010
0000
0001
0000
,
1000
0010
0100
0010
1000
0000
0100
0000
,
0001
0100
0010
0100
0001
0000
0010
0000
,
0100
1000
0001
0100
0010
0000
1000
0000
,
0001
0100
0001
0010
0100
0000
1000
0000
,
0010
1000
0010
0100
0010
0000
1000
0000
,
0001
0100
0001
0010
0100
0000
1000
0000
,
0010
0100
0010
1000
0001
0000
0010
0000
,
0100
1000
0100
0010
0001
0000
0100
0000
,
0001
1000
0001
0010
0100
0000
1000
0000
,
0010
1000
0010
0100
0010
0001
0010
1000
,
0001
0000
0100
0010
1000
0000
0001
0000
,
0100
0000
0010
0000
1000
0000
0001
0010
,
0100
0000
1000
0100
0010
0000
0001
0000
,
0100
0000
0010
1000
0001
0000
0001
0100
,
0010
0000
1000
0001
0010
0000
0100
0000
,
1000
0001
0010
0000
0100
0000
1000
0010
,
0100
0000
0001
0100
0010
0000
1000
0000
,
0001
0000
1000
0000
0100
0010
0001
0000
,
0100
0010
1000
0001
0010
0000
0100
0000
,
1000
0001
0100
0001
0010
0000
0100
0000
,
1000
0001
0100
0001
0010
0000
0100
0000
,
1000
0100
0010
0001
0100
0000
0010
0000
,
1000
0001
0100
0001
0010
0000
0001
0000
,
1000
0100
0010
0001
0100
0000
0010
0000
,
1000
0100
1000
0100
0010
0000
0001
0000
,
0100
0010
1000
0010
0100
0001
0010
0100
,
1000
0000
0000
0000
;
