#TITLE:Towards Dead End;
#SUBTITLE:By Nicholas Mihaila;
#ARTIST:Children of Bodom;
#TITLETRANSLIT:;
#SUBTITLETRANSLIT:;
#ARTISTTRANSLIT:;
#CREDIT:;
#BANNER:TDE - Banner.gif;
#BACKGROUND:TDE - Background.gif;
#LYRICSPATH:;
#CDTITLE:cdtitle.gif;
#MUSIC:Children of Bodom - Towards Dead End.mp3;
#OFFSET:-0.080;
#SAMPLESTART:100.000;
#SAMPLELENGTH:12.000;
#SELECTABLE:YES;
#BPMS:0.000=215.000,59.000=216.000,140.000=216.100,156.000=216.200,304.000=215.900,596.000=107.950,612.000=215.900,642.000=216.100,817.000=277.661,875.000=277.501,915.500=138.751,931.500=277.501,1052.000=277.102;
#STOPS:748.000=1.960
,817.000=1.300
;
#BGCHANGES:;
// cache tags:
#FIRSTBEAT:0.000;
#LASTBEAT:1064.000;
#SONGFILENAME:Songs/toune 5/COB - Towards Dead End/Children of Bodom - Towards Dead End.sm;
#HASMUSIC:1;
#HASBANNER:1;
#MUSICLENGTH:293.855;
// end cache tags

//---------------dance-single - ----------------
#NOTES:
     dance-single:
     :
     Hard:
     12:
     0.970,1.000,1.000,0.626,0.679,1517.000,295.000,184.000,40.000,48.000:
1000
0001
1000
0001
1000
0001
1000
0001
1000
0001
1000
0001
,
0220
0000
0000
0000
0000
0000
0000
0330
0101
0000
0000
0000
1010
0000
0000
0000
,
2200
0000
0000
3300
,
0220
0000
0000
0000
0000
0000
0000
0330
1010
0000
0000
0000
0101
0000
0000
0000
,
0022
0000
0000
1033
,
1000
0100
0010
0001
0010
0100
1000
0100
0010
0001
0010
0100
,
1000
0100
0010
0001
0010
0100
1000
0100
0010
0001
0010
0100
,
1000
0001
0100
0010
1000
0001
0100
0010
1000
0001
0100
0010
,
1000
0001
0100
0010
1000
0001
0100
0010
1000
0001
0100
0010
,
2020
0000
0000
0000
0000
0000
0000
3030
0101
0000
0000
0000
1010
0000
0000
0000
,
2000
0000
0000
0000
0000
0000
0000
0000
0200
0000
0000
0000
0000
0000
0000
3300
,
0022
0000
0000
0000
0000
0000
0000
0033
1100
0000
0000
0000
0011
0000
0000
0000
,
0220
0000
0000
0000
0000
0000
0000
0000
0000
0000
0000
0000
0000
0000
0000
0330
,
2020
0000
0000
0000
0000
0000
0000
3030
0101
0000
0000
0000
1010
0000
0000
0000
,
2000
0000
0200
3301
,
0001
0010
0100
1000
0100
0010
0001
0010
0100
1000
0100
0010
,
0001
0010
0100
1000
0001
0010
0100
1000
0001
0010
0100
1000
,
0220
0000
0000
0000
0000
0000
0000
0330
0101
0000
0000
0000
1010
0000
0000
0000
,
2200
0000
0000
0000
0000
0000
3301
0010
1000
0001
0010
1000
,
0220
0000
0000
0000
0000
0000
0000
0330
1010
0000
0000
0000
0101
0000
0000
0000
,
0022
0000
0000
1033
,
1000
0100
0010
0001
0010
0100
1000
0100
0010
0001
0010
0100
,
1000
0100
0010
0001
0010
0100
1000
0100
0010
0001
0010
0100
,
1000
0001
0100
0010
1000
0001
0100
0010
1000
0001
0100
0010
,
1000
0001
0100
0010
1000
0001
0100
0010
1000
0001
0100
0010
,
2020
0000
0000
0000
0000
0000
0000
3030
0101
0000
0000
0000
1010
0000
0000
0000
,
2000
0000
0000
0000
0000
0000
0000
0000
0200
0000
0000
0000
0000
0000
0000
3300
,
0022
0000
0000
0000
0000
0000
0000
0033
1100
0000
0000
0000
0011
0000
0000
0000
,
1010
0101
1001
0110
,
2020
0000
0000
0000
0000
0000
0000
3030
0101
0000
0000
0000
1010
0000
0000
0000
,
2000
0000
0200
3301
,
0001
0010
0100
1000
0100
0010
0001
0010
0100
1000
0100
0010
,
0001
0010
0100
1000
0100
0010
0001
0010
0100
1000
0100
0010
,
0001
0010
0100
0001
1000
0100
0001
0010
0100
0001
1000
0100
,
0001
0010
0100
0001
1000
0100
0002
0000
0000
0000
0000
0000
,
2103
0000
0000
0000
,
0100
0010
0001
0010
0100
0010
0001
0010
,
0100
0010
0001
0010
0100
0010
0001
0010
,
0100
0010
0001
0010
0100
0010
0001
0010
,
3200
0000
0000
0000
0000
0000
0000
0020
,
0000
0000
0302
0000
,
1033
0100
0000
0011
0000
0000
1000
0010
0000
0101
0000
0000
,
0001
0100
0000
1010
0000
0000
0001
0010
0000
1100
0000
0000
,
0200
0000
0000
0000
0000
0000
0000
0020
,
0000
0000
0302
0000
,
1033
0100
0000
0011
0000
0000
1000
0010
0000
0101
0000
0000
,
0001
0100
0000
1010
0000
0000
0001
0010
0000
1100
0000
0000
,
0101
0000
0000
0110
0000
0000
0110
0000
,
1001
0000
0000
1010
0000
0000
1100
0000
,
0001
0010
1000
0100
0010
0001
1000
0010
,
0100
0000
0000
0001
0000
0000
1000
0000
0000
0100
0000
0000
0001
0000
0010
0000
0100
0000
2000
0000
0000
0000
0000
0000
,
3101
0000
0000
0110
0000
0000
0110
0000
,
1001
0000
0000
1010
0000
0000
1100
0000
,
0001
0010
1000
0100
0010
0001
1000
0010
,
0100
0000
0000
0001
0000
0000
1000
0000
0000
0100
0000
0000
0001
0000
0010
0000
0100
0000
2000
0000
0000
0000
0000
0000
,
3101
0000
0000
0110
0000
0000
0110
0000
,
1001
0000
0000
1010
0000
0000
1100
0000
,
0001
0010
1000
0100
0010
0001
1000
0010
,
0100
0000
0000
0001
0000
0000
1000
0000
0000
0100
0000
0000
0001
0000
0010
0000
0100
0000
2000
0000
0000
0000
0000
0000
,
3101
0000
0000
0110
0000
0000
0110
0000
,
1001
0000
0000
1010
0000
0000
1100
0000
,
0001
0010
0100
1000
0100
0010
0001
0010
,
1100
1010
0110
0101
,
0011
0100
1MM1
0010
,
0001
0010
M11M
0100
,
0001
0000
0100
0000
1MM1
0000
0001
1000
,
0000
1000
M11M
0010
,
0100
0010
1MM1
0010
,
1000
0000
0000
0000
0010
0000
0000
0000
0100
0010
0100
0010
0100
0010
0100
0010
,
1001
0010
0000
0000
1001
0100
0000
0000
,
1001
0010
0000
0000
1001
0100
0000
0000
,
0001
1000
M11M
0010
,
0100
0010
1MM1
1000
,
0001
0000
1000
0000
M11M
0000
0010
0100
,
0000
0100
1MM1
0001
,
0010
0001
M11M
0100
,
2002
3003
2002
3003
,
1000
0001
1000
0001
1000
0001
1000
0001
1000
0001
1000
0001
,
1000
0001
1000
0001
1000
0001
1000
0001
1000
0001
1000
0001
,
2000
3020
0230
0302
,
2003
0000
0000
3001
,
1100
0011
0101
1010
,
2000
0000
0000
0000
0000
0000
0000
0000
0002
0000
0000
0000
0000
0000
0000
3003
,
0220
0000
0000
0000
0000
0000
0000
0330
1010
0000
0000
0000
0101
0000
0000
0000
,
0022
0000
0000
0000
0000
0000
0000
0000
0000
0000
0000
0033
1010
0000
0000
0000
,
2200
0000
0000
0000
0000
0000
0000
3300
0011
0000
0000
0000
1100
0000
0000
0000
,
0101
1010
0101
0110
,
2002
0000
0000
3103
,
0100
0010
1000
0001
0100
0010
1000
0001
0100
0010
1000
0001
,
1100
0011
0101
1010
,
2000
0000
0000
0000
0000
0000
0000
0000
0200
0000
0000
0000
0000
0000
0000
3300
,
0022
0000
0000
0000
0000
0000
0000
0033
1000
0000
0100
0000
0010
0000
0000
0000
,
2020
0000
0000
0000
0000
0000
0000
0000
0000
0000
0000
0000
0000
0000
0000
3030
,
0011
1100
0101
1010
,
0101
0000
0000
0110
0000
0000
1000
0100
0001
0010
1000
0010
,
0100
0001
0100
0010
1000
0100
0001
0010
1000
0100
0010
0001
,
0010
0100
0010
1000
0001
0100
0001
1000
0010
0100
0001
0100
,
1000
0100
0001
0010
1000
0010
0100
1000
0001
0010
0001
0100
,
1000
0010
1000
0010
1000
0010
2000
0000
0000
0000
0000
0000
,
3220
0000
0000
0000
0000
0000
0000
0330
0101
0000
0000
0000
1010
0000
0000
0000
,
2200
0000
0000
3300
,
0220
0000
0000
0000
0000
0000
0000
0330
1010
0000
0000
0000
0101
0000
0000
0000
,
0022
0000
0000
1033
,
1000
0100
0010
0001
0010
0100
1000
0100
0010
0001
0010
0100
,
1000
0100
0010
0001
0010
0100
1000
0100
0010
0001
0010
0100
,
1000
0001
0100
0010
1000
0001
0100
0010
1000
0001
0100
0010
,
1000
0001
0100
0010
1000
0001
0100
0010
1000
0001
0100
0010
,
2020
0000
0000
0000
0000
0000
0000
3030
0101
0000
0000
0000
1010
0000
0000
0000
,
2000
0000
0000
0000
0000
0000
0000
0000
0200
0000
0000
0000
0000
0000
0000
3300
,
0022
0000
0000
0000
0000
0000
0000
0033
1100
0000
0000
0000
0011
0000
0000
0000
,
0220
0000
0000
0000
0000
0000
0000
0000
0000
0000
0000
0000
0000
0000
0000
0330
,
2020
0000
0000
0000
0000
0000
0000
3030
0101
0000
0000
0000
1010
0000
0000
0000
,
2000
0000
0200
3301
,
0001
0010
0100
1000
0100
0010
0001
0010
0100
1000
0100
0010
,
0001
0010
0100
1000
0001
0010
0100
1000
0001
0010
0100
1000
,
0220
0000
0000
0000
0000
0000
0000
0330
0101
0000
0000
0000
1010
0000
0000
0000
,
2200
0000
0000
0000
0000
0000
3301
0010
1000
0001
0010
1000
,
0220
0000
0000
0000
0000
0000
0000
0330
1010
0000
0000
0000
0101
0000
0000
0000
,
0022
0000
0000
1033
,
1000
0100
0010
0001
0010
0100
1000
0100
0010
0001
0010
0100
,
1000
0100
0010
0001
0010
0100
1000
0100
0010
0001
0010
0100
,
1000
0001
0100
0010
1000
0001
0100
0010
1000
0001
0100
0010
,
1000
0001
0100
0010
1000
0001
0100
0010
1000
0001
0100
0010
,
2020
0000
0000
0000
0000
0000
0000
3030
0101
0000
0000
0000
1010
0000
0000
0000
,
2000
0000
0000
0000
0000
0000
0000
0000
0200
0000
0000
0000
0000
0000
0000
3300
,
0022
0000
0000
0000
0000
0000
0000
0033
1100
0000
0000
0000
0011
0000
0000
0000
,
1010
0101
1001
0110
,
2020
0000
0000
0000
0000
0000
0000
3030
0101
0000
0000
0000
1010
0000
0000
0000
,
2000
0000
0200
3301
,
0001
0010
0100
1000
0100
0010
0001
0010
0100
1000
0100
0010
,
0001
0010
0100
1000
0100
0010
0001
0010
0100
1000
0100
0010
,
1001
0000
0000
0101
0000
0000
1100
0000
,
0000
0101
0000
0000
1010
0000
0110
0000
,
0200
0000
0000
0000
0000
0000
0000
0020
,
0000
0000
0302
0000
,
1033
0100
0000
0011
0000
0000
1000
0010
0000
0101
0000
0000
,
0001
0100
0000
1010
0000
0000
0001
0010
0000
1100
0000
0000
,
0200
0000
0000
0000
0000
0000
0000
0020
,
0000
0000
0302
0000
,
1033
0100
0000
0011
0000
0000
1000
0010
0000
0101
0000
0000
,
0001
0100
0000
1010
0000
0000
0001
0010
0000
1100
0000
0000
,
0002
0000
0000
0200
0000
0000
0000
0023
,
0000
0000
2300
0000
,
3031
0010
0000
1100
0000
0000
0001
0100
0000
1010
0000
0000
,
1000
0010
0000
0101
0000
0000
1000
0100
0000
0011
0000
0000
,
0002
0000
0000
0200
0000
0000
0000
0023
,
0000
0000
2300
0000
,
3031
0010
0000
1100
0000
0000
0001
0100
0000
1010
0000
0000
,
1000
0010
0000
0101
0000
0000
1000
0100
0000
0011
0000
0000
,
1000
0100
0010
0001
0000
0000
0001
0010
0100
1000
0000
0000
1000
0010
1000
0100
,
0001
0010
0100
1000
0000
0000
0010
0100
0010
1000
0000
0000
0001
0100
0001
0010
,
1000
0100
0010
0001
0000
0000
0100
0010
0100
0001
0000
0000
1000
0010
1000
0100
,
0001
0010
0100
1000
0000
0000
0010
0100
0010
1000
0000
0000
0001
0100
0001
0010
,
0001
0010
0100
1000
0000
0000
1000
0100
,
0010
0001
0000
0000
1000
0010
1000
0100
,
0001
0010
0100
1000
0000
0000
0010
0100
,
0010
1000
0000
0000
0001
0100
0001
0010
,
1000
0100
0010
0001
0000
0000
0100
0010
,
0100
0001
0000
0000
1000
0010
1000
0100
,
0001
0010
0100
1000
0000
0000
0010
0100
,
0010
0000
1000
0000
0000
0000
0000
0000
2002
3003
0000
0000
2002
3003
0000
0000
,
1010
0010
0101
0100
,
1010
1000
0101
0001
,
1010
0010
0101
0100
,
1010
1000
0101
0001
,
1010
0010
0101
0100
,
1010
0000
0000
0000
1000
0000
0001
0010
0101
0000
0000
0000
0001
0000
0000
0000
,
1100
0001
0010
0100
1010
0100
0001
0010
,
0101
0010
0100
1000
0011
0100
0010
0100
,
1001
0110
0000
0110
0000
1001
0000
0110
,
1000
0100
0010
0001
1000
0100
0010
0001
,
1000
0100
1MM1
0100
,
0001
0100
M11M
0010
,
0100
0000
0010
0000
1MM1
0000
0100
0001
,
0000
0001
M11M
0010
,
0100
0010
1MM1
0010
,
1000
0000
0000
0000
0010
0000
0000
0000
0100
0010
0100
0010
0100
0010
0100
0010
,
1001
0010
0000
0000
1001
0100
0000
0000
,
1001
0010
0000
0000
1001
0100
0000
0000
,
0100
0000
0000
0000
0001
0000
0000
0000
0100
0010
0100
0010
0100
0010
0100
0010
,
0100
1000
1MM1
1000
,
0001
0000
1000
0000
M11M
0000
0010
0100
,
0000
0100
1MM1
0001
,
0010
0001
M11M
1000
,
0100
1000
1MM1
0010
,
1000
0001
1000
0001
1000
0001
1000
0001
1000
0001
1000
0001
,
1000
0001
1000
0001
1000
0001
1000
0001
1000
0001
1000
0001
,
1000
1100
0011
0101
,
1010
2000
0000
0002
,
0000
0000
0000
3003
0220
0000
0000
0000
0000
0000
0000
0330
1010
0000
0000
0000
,
0101
0000
0000
0000
0022
0000
0000
0000
0000
0000
0000
0000
0000
0000
0000
0033
,
1010
0000
0000
0000
2200
0000
0000
0000
0000
0000
0000
3300
0011
0000
0000
0000
,
1100
0101
1010
0101
,
0110
0000
2002
0000
0000
0100
0010
0000
,
0000
0100
0010
0000
0000
0100
0010
0000
,
3003
1100
0011
0101
,
1010
2000
0000
0200
,
0000
0000
0000
3300
0022
0000
0000
0000
0000
0000
0000
0033
1000
0000
0100
0000
,
0010
2020
0000
0000
,
0000
0000
0000
3030
0011
0000
0000
0000
1100
0000
0000
0000
0101
0000
0000
0000
,
1010
0101
0110
1010
,
1001
0120
0000
0000
,
0000
0000
0000
0000
,
0000
0000
0000
0000
,
0000
1030
0002
0000
,
0000
0000
0000
0000
0013
0100
1000
0100
,
0010
0001
0100
1000
0010
0100
0001
1000
,
0010
0100
1000
0010
0001
0010
0100
1000
,
0001
0100
1000
0010
0100
0001
0010
0100
,
1000
0010
0100
0001
0010
1000
0010
0001
,
0100
0010
0001
2000
0000
0000
3100
0010
,
0200
0000
0000
0000
0310
0001
0020
0000
,
0000
0000
0000
0000
0000
0000
1030
0100
0010
0100
0010
0001
,
1000
0010
0100
0001
0010
0100
0010
1000
0001
0100
1000
0001
,
0010
0000
1000
0000
0100
0000
0001
0000
0010
0000
0100
0000
1000
0000
0000
0001
0000
0000
0100
0000
0000
0010
0000
0000
,
1000
0100
0001
0010
0100
1000
0001
0100
,
0010
1000
0200
0000
0020
0000
1331
1000
,
0100
1000
1001
0100
1000
0100
1001
0010
,
0100
0010
1001
0001
0010
0001
2002
0000
,
0000
0000
0000
0000
,
0000
0000
0000
3113
,
1000
0000
1000
0100
0001
0000
0110
0000
,
0001
0000
0001
0100
1000
0000
1001
0000
,
0000
0000
0100
0000
0010
0001
0020
0000
,
0000
0000
0000
2000
0000
0000
3031
0010
,
0100
0010
1000
0001
0100
0010
1000
0100
,
0010
0100
0001
1000
0010
0100
0002
0000
,
1003
0000
0000
0100
0000
0000
0010
0000
0000
0001
0000
0000
0010
0000
0000
0100
0000
0000
1000
0000
0001
0000
1000
0000
,
0001
0000
1000
0000
0001
0000
1000
0000
0001
0000
1000
0000
0001
0000
1000
0000
0001
0000
1000
0000
0000
0001
0000
0000
,
0010
0100
1000
0100
0010
0001
0010
0100
,
1000
0000
0100
0000
0010
0000
0001
0000
0220
0330
2002
3003
0000
0000
1100
0000
,
1010
0110
0101
0011
0101
0110
1010
1100
,
1010
0000
0110
0000
0101
0000
0011
0000
2020
3030
0202
0303
0000
0000
1000
0000
,
0001
0100
0001
0010
1000
0001
1000
0010
,
1000
0100
0001
1000
0001
0100
0001
0010
,
1000
0001
1000
0010
1000
0100
0001
1000
,
0000
0110
1001
0110
0000
0000
0000
0001
,
1000
0010
1000
0100
0001
1000
0001
0100
,
0001
0010
1000
0001
1000
0010
1000
0100
,
0001
1000
0001
0100
0001
0010
1000
0001
,
0000
0110
1001
0110
0000
0000
0000
1000
,
0000
0010
0000
0100
0000
0010
0000
0001
,
0000
0010
0000
0100
0000
1000
0220
0330
,
2002
3103
0000
0010
0000
0100
0000
0001
,
0000
1000
0000
0100
0000
0010
2002
3003
,
0220
0331
0000
0010
0000
0001
0000
1000
,
0000
0100
0000
0010
0000
0001
0000
0010
,
2200
0000
3020
0000
,
0302
0000
0000
0133
1000
0000
0010
0000
,
1001
0001
0100
0001
0010
1000
0001
1000
,
0010
1000
0100
0001
1000
0001
0100
0001
,
1001
1000
0010
1000
0100
0001
1000
0001
,
0100
0001
0010
1000
0001
1000
0010
1000
,
1001
1000
0010
0001
0100
1000
0010
0001
,
0100
1000
0010
0001
0100
1000
0010
0001
,
2200
0000
3020
0000
,
0302
0000
2030
0000
,
3113
0001
1000
0001
0100
0001
0010
1000
,
0001
1000
0010
1000
0100
0001
1000
0001
,
0110
1000
0001
1000
0010
1000
0100
0001
,
1000
0001
0100
0001
0010
1000
0001
1000
,
0110
0010
0100
0010
0100
0010
1000
0001
,
1000
0001
1000
0001
1000
0001
1000
0001
,
1000
0100
0010
0001
0010
0100
1000
0100
0010
0001
0010
0100
,
1000
0000
0000
0000
,
0001
1000
0010
0100
0001
1000
0010
0100
0001
1000
0010
0100
,
0001
0000
0000
0000
;
