#TITLE:Fury of the Storm;
#SUBTITLE:8-Arrowed;
#ARTIST:Dragonforce;
#TITLETRANSLIT:;
#SUBTITLETRANSLIT:;
#ARTISTTRANSLIT:;
#CREDIT:Izzy;
#BANNER:Fury of the Storm-bn.png;
#BACKGROUND:Fury of the Storm-bg.png;
#LYRICSPATH:;
#CDTITLE:!IzzyTitle.png;
#MUSIC:Fury of the Storm.mp3;
#OFFSET:-0.291;
#SAMPLESTART:110.900;
#SAMPLELENGTH:15.800;
#SELECTABLE:YES;
#BPMS:0.000=200.000;
#STOPS:;
#BGCHANGES:;
// cache tags:
#FIRSTBEAT:0.000;
#LASTBEAT:1344.500;
#SONGFILENAME:Songs/Izzy's 8-Arrowed Pack Volume 1/Fury of The Storm/Fury.sm;
#HASMUSIC:1;
#HASBANNER:1;
#MUSICLENGTH:405.853;
// end cache tags

//---------------dance-double - 8-Arrowed----------------
#NOTES:
     dance-double:
     8-Arrowed:
     Hard:
     15:
     1.000,1.000,1.000,1.000,1.000,4192.000,1742.000,1304.000,0.000,2743.000:
10010000
00000000
00001010
00001010
00001010
00001010
10010000
10010000
,
10010000
00000000
00000101
00000101
00000101
00000101
00000101
00000000
,
20020000
00000000
00000000
00000000
,
00000001
00000010
00000100
00001000
00000010
00001000
00000100
00001000
00000010
00001000
00000100
00000010
30030001
00000000
00000000
00000000
,
10011001
00000000
00001010
00000100
00000110
00000100
00001001
00000000
,
20021001
00000000
00000000
00000000
00000101
00000000
00000010
00000000
00000110
00000000
00000010
00000000
00001001
00000000
00000000
30030000
,
11010101
11010011
11011010
11011100
,
11010110
00000000
00000000
00000000
00000000
00000000
11011001
00000000
00000000
00000000
00000000
00000000
11011101
00000000
00000000
00000001
00001000
00000001
11010000
00000000
00000000
00000000
00000000
00000000
,
00000011
00001100
00000011
00001100
00000011
00001100
00000011
00001100
,
01010000
00110000
01010000
00110000
01010000
00110000
01010000
00110000
,
00001010
00000101
00001100
00000011
00000110
00000110
00001001
00001001
,
11111101
00000000
11111101
00000000
11111101
00000000
11111101
00000000
11111101
00000000
11111101
00000000
22222202
00000000
00000000
33333303
,
01110000
01110000
01110000
01110000
01110000
01110000
01110000
01110000
,
00001101
00001101
00001101
00001101
00001101
00001101
00001101
00001101
,
11100000
11100000
11100000
11100000
11100000
11100000
11100000
11100000
,
11111001
00000000
11111001
00000000
11111010
00000000
11111010
00000000
11110101
00000000
11110101
00000000
22222002
00000000
00000000
33333003
,
00010100
00000010
00010100
00000001
00011000
00000010
00010100
00000001
00010010
00000100
00011000
00000100
00010010
00000000
00010002
00000003
,
00110001
00000010
00110100
00001000
00110001
00000010
00110100
00001000
00110100
00000010
00110001
00001000
00110010
00000000
00112000
00003000
,
00111000
00000100
00110010
00000001
00110010
00000100
00111000
00000010
00110100
00000010
00110001
00001000
00110001
00001000
00110020
00000030
,
10001000
00000010
10001000
00000010
10000100
00000001
10000100
00000001
10001000
00000010
10001000
00000010
10000202
00000000
00000000
00000303
,
10010001
00000010
10010100
00001000
10010001
00000010
10010100
00001000
10010001
00000010
10010100
00001000
10010010
00000000
10010200
00000300
,
11010010
00000100
11011000
00000001
11010100
00000010
11010001
00001000
11010100
00000010
11010001
00001000
11010001
00000100
11010020
00000030
,
11111000
00000000
00000010
00000000
00001000
00000000
11110010
00000000
00000000
00000000
00000000
00000000
11111000
00000000
00000010
00000000
00001000
00000000
11110010
00000000
00000000
00000000
00000000
00000000
11111000
00000000
00000000
00000001
00000000
00000000
11111000
00000000
00000001
00000000
00001000
00000000
11110001
00000000
00000000
00000000
00000000
00000000
11110010
00000000
00000000
00000100
00000000
00000000
,
20001002
00000000
02000020
00000000
,
00022000
00000000
00000000
00000000
00000000
00000000
00000000
00000000
00000000
00000000
00000000
00000000
00000000
00000000
00000000
33033033
,
11001000
00000100
11001000
00000100
11001000
00000010
11001000
00000010
11001000
00000001
11001000
00000001
11001000
00000100
11001000
00000100
,
00111001
00000010
00110001
00000010
00110001
00000100
00110001
00000100
00110001
00001000
00110001
00001000
00110001
00000010
00110001
00000010
,
11001001
00000100
11001000
00000100
11001000
00000010
11001000
00000010
11001000
00000100
11001000
00000100
11001000
00000010
11001000
00000010
,
00111001
00000100
00110001
00000100
00110001
00000010
00110001
00000010
00110001
00000100
00110001
00000100
00110001
00000010
00110001
00000010
,
10011001
00000010
10010100
00000001
10011000
00000010
10010100
00000001
10011000
00000010
10010100
00000001
10011000
00000010
10010100
00000001
,
10011000
00000100
10010010
00000001
10011000
00000100
10010010
00000001
10011000
00000100
10010010
00000001
10011000
00000100
10010010
00000001
,
11011000
00000001
11010010
00000100
11011000
00000001
11010010
00000100
11011000
00000001
11010010
00000100
11011000
00000001
11010010
00000100
,
11011000
00000100
11011000
00000010
11011000
00000100
11011000
00000010
11011000
00000100
11011000
00000010
11011000
00000100
11011000
00000010
,
11111000
00000001
11111000
00000001
11111000
00000001
11111000
00000001
11111000
00000001
11111000
00000001
11111000
00000001
11111000
00000001
,
11111000
00000010
11111000
00000010
11111000
00000010
11111000
00000010
11111000
00000010
11111000
00000010
11111000
00000010
11111000
00000010
,
11110100
00000001
11110100
00000001
11110100
00000001
11110100
00000001
11110100
00000001
11110100
00000001
11110100
00000001
11110100
00000001
,
11110000
00001001
00000000
10010000
10010000
00000000
10010000
10010000
,
00001000
00000100
00001000
00000000
10010000
00000000
10010000
00000000
00000001
00000010
00000001
00000000
10010000
00000000
10010000
00000000
,
00000010
00001000
00000010
00000000
10010000
00000000
10010000
00000000
00000100
00000001
00000100
00000000
10010000
00000000
10010000
00000000
,
11110001
00000010
11110100
00001000
11110010
00000100
11110001
00001000
11110010
00000100
11110001
00001000
11110001
00000010
11110100
00001000
,
11110001
00000010
00000100
11111000
00000001
00000010
11110100
00001000
00000001
11110010
00000100
00001000
11110001
00000010
00000100
11111000
00000001
00000010
11110100
00001000
00000001
11110010
00000100
00001000
,
22220001
00000010
00000100
00001000
00000001
00000010
00000100
00001000
00000001
00000010
00000100
00001000
00000001
00000010
00000100
33331000
,
20022002
00000000
00000000
30033003
20022002
00000000
00000000
30033003
20022002
00000000
00000000
30033003
20022002
00000000
00000000
30033003
,
10010100
00001000
10010010
00001000
10010001
00000100
10010010
00001000
10010001
00000100
10010010
00001000
10010001
00000100
10010010
00000100
,
20020001
00001000
00000010
30030100
10010001
00001000
20020010
00000100
00000001
30030010
20020100
00001000
00000001
00000010
00000100
30031000
,
10010100
00000010
10010001
00000100
10010010
00001000
10010100
00001000
10010001
00000010
10010100
00001000
10010001
00000010
10010100
00001000
,
20020200
00000000
00000000
30030002
20020000
30030000
20022000
00000000
00000000
30030000
00000000
00000000
00000000
00000000
00000000
00003303
,
11111000
00000010
11111000
00000010
11111000
00000010
11111000
00000010
11111000
00000010
11111000
00000010
11111000
00000010
11111000
00000010
,
22221000
00000001
00001000
33330001
22221000
33330001
22221000
00000001
00001000
33330001
22221000
00000001
00001000
00000001
00001000
33330001
,
11111000
00000010
11111000
00000010
11111000
00000010
11111000
00000010
11111000
00000010
11111000
00000010
11111000
00000010
11111000
00000010
,
22221000
00000001
00001000
33330001
22221000
33330001
22221000
00000001
00001000
00000001
00001000
00000001
00001000
00000001
00001000
33330001
,
00011000
10000001
00011000
00000000
00011000
10000001
00011000
00000000
00011000
10000001
00011000
00000000
00011000
10000001
00011000
00000000
,
00011000
10000001
00011000
00000000
00011000
10000001
00011000
00000000
00011000
10000001
00011000
00000000
00011000
10000001
00011000
00000000
,
00011000
10000001
00011000
00000000
00011000
10000001
00011000
00000000
00011000
10000001
00011000
00000000
00011000
10000001
00011000
00000000
,
00011000
10000001
00011000
00000000
00011000
10000001
00011000
00000000
00011000
10000001
00011000
00000000
00011000
10000001
00011000
00000000
,
11011000
00000001
11011000
00000000
11011000
00000001
11011000
00000000
11011000
00000001
11011000
00000000
11011000
00000001
11011000
00000000
,
11011000
00000001
11011000
00000000
11011000
00000001
11011000
00000000
11011000
00000001
11011000
00000000
11011000
00000001
11011000
00000000
,
11011000
00000001
11011000
00000000
11011000
00000001
11011000
00000000
11011000
00000001
11011000
00000000
11011000
00000001
11011000
00000000
,
22020001
00000010
00000100
00001000
00000001
00000010
00000100
00001000
00000001
00000010
00000100
00001000
00000001
00000010
00000100
33031000
,
10010001
00001000
10010010
00000100
10010001
00001000
10010100
00000010
10010001
00001000
10010001
00000010
10010100
00001000
10010001
00000010
,
20020100
00000010
00000001
30031000
10010100
00000010
20020001
00001000
00000001
30030010
20020100
00001000
00000001
00000100
00000010
30031000
,
10010010
00000100
10010001
00000010
10010100
00001000
10010010
00000100
10010001
00001000
10010010
00000100
10010001
00001000
10010001
00000010
,
20020100
00000000
00000000
00000000
00000000
00000000
00000100
00000000
00000000
30030000
00000000
00000000
10011000
00000000
00000010
00000000
00001000
00000000
20020010
00000000
00000000
00000000
00000000
00000000
00000100
00000000
00000000
00000000
00000000
00000000
00001000
00000000
00000001
00000000
00001000
00000000
30030001
00000000
00000000
00000000
00000000
00000000
00001000
00000000
00000000
00000000
00000000
00000000
,
10010010
00000100
10010001
00001000
10010010
00000100
10010001
00001000
10010001
00000010
10010100
00001000
10010001
00000010
10010100
00001000
,
20020010
00000100
00000010
30031000
10010100
00001000
20020010
00001000
00000001
30030100
20020010
00000001
00001000
00000010
00000100
30030001
,
10011000
00000010
10010100
00000001
10010010
00000100
10011000
00000001
10010010
00000001
10010010
00000001
10010010
00000100
10011000
00000100
,
20021000
00000000
00000000
00000000
00000000
00000000
00001000
00000000
00000010
30030000
00001000
00000000
10010010
00000000
00000000
00000000
00000000
00000000
20021001
00000000
00000000
00000000
00000000
00000000
00001000
00000000
00000000
00000100
00000000
00000000
00001000
00000000
00000000
00000010
00000000
00000000
30031000
00000000
00000000
00000001
00000000
00000000
00001000
00000000
00000000
00000010
00000000
00000000
,
22021000
00000000
00000000
00000000
00000000
00000000
00000100
00000000
00000000
00000000
00000000
00000000
00000100
00000000
00000000
33030000
00000000
00000000
22021001
00000000
00000000
00000000
00000000
00000000
00000010
00000000
00000000
00000000
00000000
00000000
00000010
00000000
00000000
33030000
00000000
00000000
22021100
00000000
00000000
00000000
00000000
00000000
00001000
00000000
00000001
33030000
00001000
00000000
,
22020001
00000000
00000000
00000000
00000000
00000000
00000100
00000000
00000000
00000000
00000000
00000000
00000010
00000000
00000000
33030000
00000000
00000000
22020110
00000000
00000000
00000000
00000000
00000000
00000001
00000000
00000000
00000000
00000000
00000000
00000001
00000000
00000000
33030000
00000000
00000000
22021010
00000000
00000000
00000000
00000000
00000000
00001000
00000000
00000010
33030000
00001000
00000000
,
22020010
00000000
00000000
00000000
00000000
00000000
00000001
00000000
00000000
00000000
00000000
00000000
00000100
00000000
00000000
33030000
00000000
00000000
22020101
00000000
00000000
00000000
00000000
00000000
00000010
00000000
00000000
00000000
00000000
00000000
00000010
00000000
00000000
33030000
00000000
00000000
22020110
00000000
00000000
00000000
00000000
00000000
00001000
00000000
00000001
33030000
00001000
00000000
,
22020001
00001000
00000010
00001000
00000010
00001000
00000010
00001000
00000001
00001000
00000001
00001000
00000001
00000000
00000000
33030000
,
20021001
00000000
00000100
30030000
20020100
30030000
20020110
30030000
20020010
00000000
00000010
30030000
20020011
00000000
00001010
30030000
,
20020101
30030000
20020001
00000000
00000001
30030000
20020011
00000000
00001000
00000000
00001000
30030000
20021001
00000000
00000011
30030000
,
20021100
00000000
00001000
30030000
20021000
30030000
20020101
00000000
00000010
00000000
00000010
30030000
20020011
00000000
00001001
30030000
,
00020001
00000010
00000100
00001000
00200001
00000010
02000100
00001000
20000001
00000010
00000100
00001000
00000001
00000010
33330100
00001000
,
22220001
00000000
00000001
00000000
00001001
00000000
00001000
00000000
00001001
00000000
00001000
00000000
00001000
00000001
00001000
00000000
,
00001001
00000000
00000100
00000000
00000110
00000000
00000001
00000000
00001001
00000000
00000100
00000000
00001000
00000010
00001000
33330000
,
22220101
00000000
00000010
00000000
00000110
00000000
00001000
00000000
00001001
00000000
00000100
00000000
00001000
00000001
00001000
00000000
,
00000010
00001000
00000010
00000000
00001001
00000000
00001001
00000000
00000001
00001000
00000001
00000000
00001000
00000010
00000100
33330000
,
22220110
00000000
00000001
00000000
00001000
00000010
00001000
00000000
00000101
00000000
00000010
00000000
00000010
00001000
00000010
00000000
,
00000101
00000000
00000010
00000000
00001000
00000100
00001000
00000000
00000110
00000000
00000010
00000000
00001000
00000001
00000010
33330000
,
22220110
00000000
00001001
00000000
00000001
00001000
00000100
00000000
00000110
00000000
00001001
00000000
00000010
00000100
00000010
00000000
,
00001000
00000000
00000010
00000000
00001000
00000000
00000010
00000000
00000000
00001000
00000000
00000000
00000010
00000000
00000000
00001000
00000000
00000000
00000001
00000000
00001000
00000000
00000001
00000000
00001000
00000000
00000000
00000001
00000000
00000000
00001000
00000000
00000000
00000001
00000000
00000000
00000010
00000000
00000100
00000000
00001000
00000000
00000001
00000000
00000000
33330010
00000000
00000000
,
22221000
00000000
00001010
00000000
00001000
00000100
00001000
00000100
00001000
00000000
00000110
00000000
00001000
00000010
00001000
00000010
,
00001000
00000000
00000101
00000000
00000100
00000001
00000100
00000001
00000100
00000000
00001010
00000000
00000001
00001000
00000001
33331000
,
22220001
00000000
00000110
00000000
00001000
00000001
00001000
00000001
00001000
00000000
00001001
00000000
00000001
00000010
00000100
00001000
,
00000001
00000000
00000110
00000000
00000010
00000100
00000001
00001000
00000010
00000000
00000110
00000000
00000100
00000010
00000100
33330000
,
22220001
00000010
00000100
00001000
00000010
00000100
00000001
00001000
00000100
00001000
00000100
00001000
00000010
00001000
00000010
00001000
,
00000001
00000100
00000010
00001000
00000001
00000100
00000010
00000100
00000001
00001000
00000010
00000100
00000001
00000010
00000100
33331000
,
10000001
00011000
10000001
00011000
10000001
00011000
10000001
00011000
10000001
00011000
10000001
00011000
10000001
00011000
10000001
00011000
,
10000001
00000000
00000000
00000000
20000002
00000000
00000000
00000000
02000020
00000000
00000000
00000000
00022000
00000000
00000000
33033033
,
20021000
00000010
00001000
00000010
00001000
30030010
20021000
00000010
00001000
00000010
00001000
30030010
20021000
00000010
00001000
30030010
,
10011000
00000001
20021000
00000001
00001000
30030001
00001000
00000001
20021000
00000001
00001000
30030001
20021000
00000001
00001000
30030001
,
20021000
00000010
00001000
00000010
00001000
30030010
20021000
00000010
00001000
00000010
00001000
30030010
20021000
00000010
00001000
30030010
,
10011000
00000001
20021000
00000001
00001000
00000001
00001000
30030001
20021000
00000001
00001000
30030001
20021000
00000001
00001000
30030001
,
22221000
00000001
00000010
33330100
11111000
00000001
22220010
00000100
00001000
00000001
00000010
33330100
22221000
00000001
00000010
33330100
,
22221000
00000010
00000100
33330001
11111000
00000010
22220100
00000001
00001000
00000010
00000100
33330001
22221000
00000010
00000100
33330001
,
22221000
00000001
00000010
33330100
00001000
00000001
00020010
00000100
00001000
00000001
00000010
00000100
00201000
00000001
00000010
00000100
,
02001000
00000010
20000100
00000001
00001000
00000010
00000100
33330001
20021000
00000010
00000100
30030001
20021000
00000010
00000100
30030001
,
20021000
00000000
00000001
00000000
00000100
30030001
20021000
00000000
00000010
00000000
00000110
30030000
20020001
00001000
00000010
30030000
,
10010100
00000000
20020101
00000000
00001000
00000001
00000010
30030000
20020100
00000000
00000101
30030000
20021000
00000100
00001000
30030000
,
20020010
00000000
00001001
00000000
00001000
30030001
20021000
00000000
00000001
00000000
00001000
30030000
20020001
00001000
00000001
30030000
,
10010101
00000000
20021010
00000000
00001000
00000010
00001000
00000010
00001000
00000001
00000010
30030100
20021000
00000001
00001000
30030010
,
20020100
00000000
00000000
30030000
10011001
00000000
10011001
00000000
00000000
00000000
00000000
00000000
10011001
00000000
00000000
00000000
,
11111101
00000000
10011001
10011001
,
20020010
00000100
00000001
30031000
10010001
00000010
20020100
00001000
00000010
30030100
10010001
00001000
10010100
00000010
10010001
00001000
,
20020100
00001000
00000010
30031000
10010001
00000010
20020100
00001000
00000010
30030000
10011001
00000000
10010001
00000010
10010100
00001000
,
20020010
00001000
00000100
30031000
10010010
00001000
20020100
00001000
00000001
30030010
10010100
00001000
10010010
00000100
10010001
00001000
,
20020010
00000100
00000001
30031000
10010100
00000010
20020001
00001000
00000100
30030000
11011001
00000000
11011000
00000010
11011000
00000001
,
22021000
00000100
00001000
33030010
11010100
00000001
22021000
00000010
00000100
33030001
11010010
00000100
11011000
00000010
11010100
00000001
,
22020010
00000100
00001000
33030010
11011000
00000010
22021000
00000010
00001000
33030100
11011000
00000100
11011000
00000001
11011000
00000001
,
22021000
00000001
00001000
33030010
11011000
00000100
22021000
00000001
00000010
33030100
11111000
00000010
11110100
00000001
11111000
00000100
,
22221000
00000000
00000000
00000000
00000000
00000000
00000010
00000000
00000000
33330000
00001000
00000000
11110001
00000000
00001000
00000000
00000000
00000000
22220010
00000000
00000000
00000000
00000000
00000000
00001001
00000000
00000000
33330000
00000000
00000000
11111000
00000000
00000010
00000000
00001000
00000000
11110001
00000000
00000000
00000000
00000000
00000000
11110001
00000000
00000000
00000000
00000000
00000000
,
22220001
00000010
00000100
33331000
11110001
00000010
22220100
00001000
00000001
33330100
11110010
00000001
11111000
00000010
11111000
00000100
,
11111000
00000010
11110100
00000001
11111000
00000010
22220100
00000001
00001000
33330100
11111000
00000001
11111000
00000010
11111000
00000001
,
11111000
00000100
11110010
00000001
11111000
00000100
22220010
00000001
00001000
33330010
11110100
00001000
11110010
00000100
11110001
00001000
,
11110001
00000010
11110100
00001000
11110001
00000010
22220100
00001000
00000001
33330100
11110010
00001000
11110100
00000010
11111000
00000001
,
22221000
00000100
00001000
33330100
11111000
00000100
22221000
00000100
00000010
33330001
11111000
00000010
11110100
00000001
11110100
00000010
,
11111000
00000010
11111000
00000010
11111000
00000010
11111000
00000010
11111000
00000001
11110010
00000100
11111000
00000001
11110010
00000100
,
11111000
00000001
11110010
00000100
11111000
00000001
11110010
00000100
11111000
00000001
11110010
00000100
11111000
00000001
11110010
00000100
,
20002000
00000000
00000000
00000000
00020002
00000000
00000000
00000000
00000000
00000000
00000000
00000000
00000000
00000000
00000000
30033003
,
11010001
00000010
11010100
00001000
11010100
00001000
11010001
00000010
11010001
00001000
11010010
00001000
11010010
00001000
11010010
00000100
,
22020010
00001000
00000001
33031000
11010010
00000100
22020001
00001000
00000010
33030100
22020001
00000010
00000100
00001000
00000010
33030100
,
11010010
00001000
11010010
00000100
11010001
00001000
11010010
00000100
11010001
00000010
11010100
00001000
11010100
00001000
11010001
00000010
,
11010001
00001000
11010010
00001000
11010100
00001000
22020010
00001000
00000010
00001000
00000100
00000010
00000001
00000010
00000001
33030100
,
11011000
00000100
11011000
00000100
11011000
00000100
11011000
00000100
11011000
00000100
11011000
00000100
11011000
00000100
11011000
00000100
,
22021000
00000010
00001000
33030010
11011000
00000010
22021000
00000010
00001000
33030010
22021000
00000010
00001000
00000010
00001000
33030010
,
11011000
00000001
11011000
00000001
11011000
00000001
11011000
00000001
11011000
00000001
11011000
00000001
11011000
00000001
11011000
00000001
,
22021000
00000010
00000100
33030001
11011000
00000001
22020010
00000001
00001000
00000010
00001000
00000001
00000100
00000010
00001000
33030000
,
00021010
00000000
00001010
00000000
00001010
00030000
00020101
00000000
00000101
00000000
00000101
00030000
00201001
00000000
00001001
00300000
,
00201001
00000000
00001001
00000000
00001001
00300000
02000110
00000000
00000110
00000000
00000110
03000000
02000011
00000000
00000011
03000000
,
20001010
00000000
00001010
00000000
00000101
30000000
20000011
00000000
00001100
00000000
00000110
30000000
20021001
00000000
00001001
30030000
,
20021000
00000010
00001000
00000010
00001000
00000010
00001000
00000010
00001000
00000010
00001000
00000010
00001000
00000010
00001000
30030010
,
10011000
00000000
00001010
00000000
10010101
00000000
10010011
00000000
20021100
00000000
00000110
30030000
20020110
00000000
00001001
30030000
,
20021010
00000000
00000101
30030000
10010011
00000000
20020011
00000000
00001100
00000000
00001010
30030000
20020101
00000000
00000110
30030000
,
20021001
00000000
00000101
30030000
10011010
00000000
20020011
00000000
00001100
00000000
00000110
30030000
20021001
00000000
00001001
30030000
,
00021001
00000000
00000011
00000000
00201100
00000000
02000011
00000000
20002002
00000000
00000000
00000000
00000000
00000000
00000000
33333003
,
22221000
00000010
00001000
00000010
00001000
00000010
00001000
00000010
00001000
00000010
00001000
00000010
00001000
00000010
00001000
00000010
,
00001000
00000010
00001000
00000010
00001000
00000010
00001000
00000010
00001000
00000010
00001000
00000010
00001000
00000010
00001000
33330010
,
22221000
00000100
00001000
00000100
00001000
00000100
00001000
00000100
00001000
00000100
00001000
00000100
00001000
00000100
00001000
00000100
,
00001000
00000100
00001000
00000100
00001000
00000100
00001000
00000100
00001000
00000100
00001000
00000100
00001000
00000100
00001000
33330100
,
22221000
00000001
00001000
00000001
00001000
00000001
00001000
00000001
00001000
00000001
00001000
00000001
00001000
00000001
00001000
00000001
,
00001000
00000001
00001000
00000001
00001000
00000001
00001000
00000001
00001000
00000001
00001000
00000001
00001000
00000001
00001000
33330001
,
22221000
00000001
00000010
00000100
00001000
00000001
00000010
00000100
00001000
00000001
00000010
00000100
00001000
00000001
00000010
00000100
,
00001000
00000001
00000010
00000100
00001000
00000001
00000010
00000100
00001000
00000001
00000010
00000100
00001000
00000001
00000010
33330100
,
11111000
00000001
00000100
00000010
11111000
00000100
00000010
00000001
11111000
00000100
00001000
00000010
11111000
00000001
00000100
00000010
,
11111000
00000001
00000100
00000010
11111000
00000001
00000010
00000100
11111000
00000100
00000010
00000001
11111000
00000010
00000100
00000001
,
11111000
00000010
00000100
00000001
11111000
00000001
00000010
00000001
11110100
00000010
00000100
00000010
11111000
00000100
00001000
00000001
,
11111000
00000010
00000100
00000010
11111000
00000001
00000100
00000010
11111000
00000100
00001000
00000001
11111000
00000001
00001000
00000010
,
11111000
00000010
11110100
00000001
11110100
00000001
11111000
00000100
11111000
00000001
11110100
00000001
11111000
00000010
11111000
00000001
,
11110100
00000001
11111000
00000100
11110010
00000001
11111000
00000010
11110100
00000001
11111000
00000010
11110100
00000001
11111000
00000001
,
11111000
11110010
11110100
11110001
11111000
11110001
11110010
11110100
11111000
11110001
11110010
11110100
11111000
11110010
11110100
11110010
,
11110100
00000000
00000000
00000000
00200020
00000000
00000000
00000000
02000200
00000000
00000000
03300330
02200220
00000000
00000000
03300330
,
20020001
00000100
00000010
00001000
00000010
30030100
20020001
00001000
00000010
00000100
00000001
30030010
20020001
00000010
00000001
30030010
,
20020100
30031000
20020100
00001000
00000100
00001000
00000001
30030010
20020100
00001000
00000001
30030010
20020001
00001000
00000010
30031000
,
20020010
00000100
00000010
00000100
00000001
30031000
20020010
00000100
00000001
00000010
00000100
30031000
20020100
00000010
00000001
30030100
,
20020010
30030100
20020001
00000010
00000100
00001000
00000100
30031000
20020001
00000010
00000001
30030100
20020010
00001000
00000001
30030100
,
20020001
00000100
00000001
30030100
20020001
30030100
20020001
00000100
00000001
00000100
00000001
30030100
20020001
00000100
00000001
30030100
,
20020010
00001000
00000010
30031000
20020010
30031000
20020010
00001000
00000010
00001000
00000010
30031000
20020010
00001000
00000010
30031000
,
20020100
00001000
00000100
00001000
00000100
30031000
00020100
00001000
00000100
00001000
00000100
00001000
00200100
00001000
00000100
00001000
,
02000001
00001000
20000001
00001000
00000001
00001000
00000001
33331000
20020001
00001000
00000001
30031000
20020001
00001000
00000001
30031000
,
22220001
00000000
00000101
00000000
00001000
33330010
22220100
00000000
00000110
00000000
00001001
33330000
22220001
00000100
00000010
33330000
,
11111010
00000000
22220101
00000000
00000100
00000010
00000100
33330000
22220110
00000000
00001001
33330000
22221000
00000001
00001000
33330000
,
22220011
00000000
00001100
00000000
00001000
33330100
22220001
00000000
00000110
00000000
00001001
33330000
22220001
00000100
00001000
33330000
,
11110110
00000000
22221001
00000000
00000001
00000100
00000001
00000000
00000110
00000000
00001000
33330010
22220100
00000001
00000100
33330010
,
11111101
00000000
00000000
00000000
,
10011001
00000000
00000000
00000000
,
20020010
00000100
00000001
30031000
10010010
00000100
20020001
00001000
00000010
00000100
00000001
00001000
00000010
00000100
00000001
30031000
,
22000010
33001100
00001100
00001100
00001100
00001100
00001100
00001100
,
22000110
00000000
00000110
33000000
22001001
00000000
00001001
33000000
11001010
00000000
11000110
00000000
11001001
00000000
11001100
00000000
,
22001010
00000011
33000011
00000011
00000011
00000011
00000011
00000011
,
22001010
00000000
00001010
33000000
22000101
00000000
00000101
33000000
11001010
00000000
11001001
00000000
22002002
00000000
00000000
33003003
,
20201010
00001010
30301010
00001010
00001010
00001010
00001010
00001010
,
20201001
00000000
00001001
30300000
20200110
00000000
00000110
30300000
10100101
00000000
10101010
00000000
10101001
00000000
10100110
00000000
,
20200011
00000000
00000011
00000000
30300011
00000000
00000011
00000000
00000011
00000000
00000011
00000000
10010001
00000010
10010100
00001000
,
20020010
00000100
00000001
30031000
20020001
00000010
00000100
30031000
20020010
00000100
00000001
30031000
20020001
00000000
00000000
30030000
,
00000011
00000011
00001010
00001010
00000101
00000101
00000110
00000110
,
10010000
10010000
10010000
10010000
11010000
11010000
11010000
11010000
,
00001001
00000000
00001001
00000000
00220000
00000000
00000000
00330000
22000000
00000000
00000000
33000000
20020000
00000000
00000000
30030000
,
01000000
00000000
01000000
00000000
02000000
00000000
20022002
03000000
00000000
00000000
00000000
00000000
00000000
00000000
00000000
30033003
,
10011001
00000000
10011001
00000000
20022002
00000000
00000000
30033003
00220022
00000000
00000000
00330033
00220022
00000000
00000000
00330033
,
00220022
00000000
00000000
00330033
22002200
33003300
22002200
00000000
00000000
33003300
22002200
00000000
00000000
00000000
00000000
33003300
,
00001011
00001011
00001011
00001011
00001011
00001011
00001011
00001011
,
11010000
11010000
11010000
11010000
11010000
11010000
11010000
11010000
,
11111100
00001100
00001100
11111010
00001010
00001010
11111001
00001001
,
11110011
00000011
11110011
00000110
11110110
00000110
11110110
00000101
,
11111100
00001100
00001100
11110011
00001001
00001001
11110110
00000110
,
11111100
00001100
11110110
00000101
11111010
00000011
11110011
00001010
,
00001100
00001010
00001001
00000011
00001100
00000011
00001100
00001010
,
00001001
00000101
00001001
00001010
00001001
00000011
00001001
00001001
,
20021010
30030000
20020101
30030000
20020011
30030000
20021100
00000000
00001010
30030000
20020101
00000000
00001001
30030000
20020110
30030000
,
20020110
30030000
20021001
30030000
20020011
30030000
20021010
00000000
00000101
30030000
20020101
00000000
00000011
00000000
00001100
30030000
,
11111000
00000100
00001000
00000100
00001000
00000000
00000000
00000000
11111000
00000010
00001000
00000010
00001000
00000000
00000000
00000000
,
11111000
00000001
00000010
00000100
00001000
00000010
00000100
00000001
00001000
00000001
00000010
00000100
11111000
00000000
00000000
00000000
,
11111000
00000001
00001000
00000001
00001000
00000000
00000000
00000000
11111000
00000001
00001000
00000001
00001000
00000000
00000000
00000000
,
11111000
00000001
00001000
00000001
00001000
00000001
00000010
00000100
00001000
00000010
00000100
00000001
11111000
00000000
00000000
00000000
,
11110010
00000000
00000000
00000100
00000000
00000000
00000000
00000000
00001000
00000000
00000000
00000000
00000001
00000000
00000000
00000000
00000100
00000000
00000000
00000000
00000010
00000000
00000000
00000000
11111000
00000000
00000000
00000001
00000000
00000000
00000000
00000000
00000010
00000000
00000000
00000000
00000100
00000000
00000000
00000000
00000001
00000000
00000000
00000000
00000010
00000000
00000000
00000000
,
11110001
00000010
00001000
00000001
00000100
00000010
00000100
00000010
00000100
11111010
00000000
00000000
,
11110001
00000000
00000000
00000010
00000000
00000000
00000000
00000000
00001000
00000000
00000000
00000000
00000010
00000000
00000000
00000000
00000100
00000000
00000000
00000000
00000001
00000000
00000000
00000000
11111000
00000000
00000000
00000100
00000000
00000000
00000000
00000000
00000001
00000000
00000000
00000000
00001000
00000000
00000000
00000000
00000010
00000000
00000000
00000000
00000100
00000000
00000000
00000000
,
11110001
00000010
00000100
00001000
00000010
00000100
00000001
00001000
00000001
00000010
00000100
00000001
22222200
00000000
00000000
33333300
,
11001000
00000100
00001000
00000010
11001000
00000001
00000100
00000010
11001000
00000001
11000010
00000100
11001000
00000001
00000010
00000001
,
11001000
00000100
00001000
00000010
11000100
00000010
00001000
00000001
11000100
00000010
11000100
00000001
22002200
00000000
00000000
33003300
,
10010001
00000010
00000100
00001000
10010001
00000010
00000100
00001000
10010100
00001000
10010010
00001000
10010001
00000100
00001000
00000001
,
10010100
00000010
00001000
00000001
10010010
00000100
00001000
00000010
10010200
00000000
10010000
00000300
10012002
00000000
00000000
00003003
,
11011101
00001101
11010000
00001001
11010000
11010110
11010110
00000110
,
11012020
00000000
00003030
00002020
11010000
00003030
00002020
00003030
11010202
00000000
11010000
00000000
11010000
00000000
00000000
00000303
,
11110001
00000010
00000100
00001000
11110010
00000100
00000001
00001000
11110001
00000010
11110100
00001000
11110010
00000100
00000001
00001000
,
11110100
00000010
00001000
00000001
11111000
00000100
00000010
00000001
11110100
00000010
11111000
00000001
11110100
00000010
00001000
00000100
,
20021000
00000000
00000000
30030000
20020000
00000000
00000000
30030000
20020000
00000000
00000000
30030000
11111101
00000000
11111101
00000000
,
11111101
00000000
11111101
00000000
11111101
00000000
22222202
00000000
00000000
33333303
20022002
30033003
20022002
30033003
20022002
30033003
,
00000002
00000023
00000230
00002300
,
00023000
00000000
00000000
00000000
00230000
00000000
02300000
00000000
00000000
03000000
10011001
00000000
10011001
00000000
10011001
00000000
,
00000001
00000000
00000010
00000000
00000100
00000000
20021000
00000000
00000000
30030000
10000000
00000000
10000000
00000000
10000000
00000000
,
01000000
01000000
01000000
00100000
00100000
00100000
00010000
00010000
,
11111000
11111000
11111000
11111100
11111100
11111100
11111101
11111101
,
11111000
00000010
11111000
00000000
11111001
00000000
11111001
00000000
11110100
00000001
11110100
00000000
11110110
00000000
11110110
00000000
,
22220001
00000010
33330100
00001000
00000010
00000100
00000001
00001000
00000001
00000010
00000100
00001000
00000010
00000100
00000001
00001000
,
22220100
00000010
33331000
00000001
00001000
00000100
00000010
00000001
00000100
00000010
00001000
00000001
00001000
00000100
00000010
00000001
,
22221000
00000001
33330010
00000100
00001000
00000010
00000100
00000001
00000010
00000100
00001000
00000010
00000100
00000001
00001000
00000001
,
22220010
00000100
00001000
00000010
00001000
00000100
00000010
00001000
00000001
00000010
00000100
00001000
00000001
00000010
00000100
33331000
,
22220001
00000010
33330100
00001000
00000010
00000100
00000001
00000010
00000001
00001000
00000100
00001000
00000010
00001000
00000001
00000100
,
22220010
00000100
33330001
00000010
00000100
00000010
00000001
00001000
00000100
00000010
00001000
00000100
00001000
00000001
00000010
00000100
,
22220001
00000010
33330001
00001000
00000100
00001000
00000010
00000100
00000001
00001000
00000100
00001000
00000001
00000010
00000100
00001000
,
22220001
00000010
00000100
00001000
00000001
00000010
00000100
00001000
00000100
00000010
00000001
00001000
00000001
00000100
00000010
33330100
,
10101000
00000010
10101000
00000010
10101000
00000010
10101000
00000010
10101000
00000010
10101000
00000010
10101000
00000010
10101000
00000010
,
10101000
00000010
10101000
00000010
10101000
00000010
10101000
00000010
10101000
00000010
10101000
00000010
10101000
00000010
10101000
00000010
,
01010100
00000001
01010100
00000001
01010100
00000001
01010100
00000001
01010100
00000001
01010100
00000001
01010100
00000001
01010100
00000001
,
01010100
00000001
01010100
00000001
01010100
00000001
01010100
00000001
01010100
00000001
01010100
00000001
01010100
00000001
01010100
00000001
,
10011000
00000001
10011000
00000001
10011000
00000001
10011000
00000001
10011000
00000001
10011000
00000001
10011000
00000001
10011000
00000001
,
10011000
00000001
10011000
00000001
10011000
00000001
10011000
00000001
10011000
00000001
10011000
00000001
10011000
00000001
10011000
00000001
,
11011000
00000001
11010010
00000100
11011000
00000001
11010010
00000100
11011000
00000001
11010010
00000100
11011000
00000001
11010010
00000100
,
11011000
00000001
11010010
00000100
11011000
00000001
11010010
00000100
11011000
00000001
11010010
00000100
11011000
00000001
11010010
00000100
,
11111000
00000100
11110010
00000001
11111000
00000100
11110010
00000001
11111000
00000100
11110010
00000001
11111000
00000100
11110010
00000001
,
11111000
00000100
11110010
00000001
11111000
00000100
11110010
00000001
11111000
00000100
11110010
00000001
11111000
00000100
11110010
00000001
,
10001000
00000010
10000100
00000001
10001000
00000100
10001000
00000001
10000010
00000001
10001000
00000001
10000010
00000100
10001000
00000001
,
10000010
00000001
10000100
00000001
10001000
00000010
10000100
00000001
10001000
00000010
10000100
00000001
10000010
00000100
10001000
00000100
,
11000001
00000010
11000100
00001000
11000001
00000010
11000100
00001000
11000001
00000010
11000100
00001000
11000001
00000010
11000100
00001000
,
11000001
00000010
11000100
00001000
11000001
00000010
11000100
00001000
11000001
00000010
11000100
00001000
11000001
00000010
11000100
00001000
,
11010001
00000010
11010100
00001000
11010001
00000010
11010001
00000100
11010001
00001000
11010001
00000100
11010010
00001000
11010001
00001000
,
11010100
00001000
11010100
00001000
11010010
00001000
11010010
00001000
11010001
00000100
11010001
00000100
11010010
00001000
11010001
00000010
,
11110100
00001000
11110001
00000100
11110001
00001000
11110010
00001000
11110100
00000001
11110100
00000010
11111000
00000001
11110100
00000010
,
11111000
00000100
11111000
00000010
11111000
00000001
11111000
00000010
11111000
00000100
11110010
00000001
11111000
00000001
11110010
00000100
,
11111000
00000010
11110100
00000001
11111000
00000010
11110100
00000001
11111000
00000010
11110100
00000010
11110100
00000001
11111000
00000001
,
11111000
00000001
11110010
00000001
11111000
00000100
11111000
00000010
11110100
00000010
11111000
00000010
11111000
00000010
11110100
00000001
,
11111000
00000100
11110010
00000001
11111000
00000100
11110010
00000001
11111000
00000001
11110010
00000100
11111000
00000001
11110010
00000100
,
11111000
00000100
11110010
00000001
11110010
00000100
11111000
00000100
11110010
00000001
11110010
00000100
11111000
00000100
11110010
00000100
,
20020010
00001000
00000010
30031000
20020010
00001000
00000010
30031000
20020010
00001000
00000010
30031000
20020010
00001000
00000010
30031000
,
20020001
00000000
00000000
00000100
00000000
00000000
00000001
00000000
00000000
30030100
00000000
00000000
20020001
00000000
00000000
00000100
00000000
00000000
00000001
00000000
00000000
30030100
00000000
00000000
10010001
00000000
00000000
00000100
00000000
00000000
00010001
00000000
10000000
00000100
00010000
00000000
10000001
00000000
00000000
00000000
00000000
00000000
00000000
00000000
00000000
00000000
00000000
00000000
,
20021000
30030010
20020100
30030001
20021000
30030010
20020100
30030001
20021000
30030100
20021000
30030100
20020010
30030001
20020010
30030001
,
20020000
30030000
20020000
00000000
00000000
30030000
20021010
30030000
20021000
30030100
20021000
30030100
20021000
00000000
00000000
30030000
,
20021001
30030000
20021000
30030010
20021000
30030100
20021000
30030000
20021001
30030000
20020110
30030000
20021100
30030000
20020011
30030000
,
20021001
30030000
20021001
30030000
20020101
00000000
00000000
30030000
20020101
30030000
20020110
30030000
20021001
00000000
00000000
30030000
,
20020001
00000010
00000100
30031000
20020001
30030010
20020100
00001000
00000010
30030100
20020001
30031000
20020001
30030010
20020100
30031000
,
20020100
30031000
20020010
30031000
20020100
30031000
20020100
30030010
20020001
30031000
20020100
30030010
20020001
00001000
00000010
30030100
,
20020001
30031000
20020010
30031000
20020010
30030100
20020001
30030010
20020100
30031000
20020001
30030010
20020100
30031000
20020001
30030010
,
20020100
30031000
20020001
30031000
20020002
30030003
20021100
30030000
20021000
30030010
20021000
30030010
20022000
30033000
20020001
30030000
,
00020001
00000010
00000100
00001000
00200001
00000010
00000100
00001000
02000001
00000010
00000100
00001000
20000001
00000010
00000100
33331000
,
22222002
00000000
00000000
33333003
22222002
00000000
00000000
33333003
22222002
00000000
00000000
33333003
22222002
00000000
00000000
33333003
,
00001000
00000100
00000010
00000001
00001000
00000100
00000010
00000001
00001000
00000100
00000010
00000001
00002000
00000000
00000000
00003000
,
22220110
00000000
00000110
00000000
00000110
00000000
00000110
00000000
00000110
00000000
00000110
00000000
00000110
00000000
00000110
33330000
,
22221000
00000000
00000000
00000000
00000010
00000000
00000000
00000000
00001000
00000000
00000000
00000000
00000001
00000000
00000000
00000000
00000010
00000000
00000000
00000000
00000100
00000000
00000000
00000000
00000001
00000000
00000000
00000000
00000100
00000000
00000000
00000000
00000010
00000000
00000000
00000000
00001000
00000000
00000000
00000000
00000100
00000000
00000000
00000000
00001000
33330000
00000000
00000000
,
22220010
00000000
00000000
00000000
00000001
00000000
00000000
00000000
00001000
00000000
00000001
00000000
00001000
00000000
00000000
00000000
00000100
00000000
00000000
00000000
00001000
00000000
00000000
00000000
00000010
00000000
00000000
00000000
00000001
00000000
00000000
00000000
00000010
33330000
00000000
00000000
20022200
00000000
00000000
00000000
00000000
00000000
00000000
00000000
00003300
30030000
00000000
00000000
,
20020000
00000000
30030000
20020000
00000000
30030000
20020000
30030000
20020000
30030000
20020000
30030000
20020000
30030000
20020000
30030000
,
20021000
00000010
00001000
00000010
00001000
00000010
00001000
00000010
00000100
00000001
00000100
00000001
00000100
00000001
00001000
30030001
,
10010010
00000100
10011000
00000001
10010010
00000001
10011000
00000100
10011000
00000010
10010100
00000010
20020200
00000000
00000000
30030300
,
10010001
00000010
10010100
00001000
10010001
00000010
10010100
00001000
10010001
00000010
10010100
00001000
20022002
00000000
00000000
30033003
,
10011000
00000010
10011000
00000010
10011000
00000100
10011000
00000100
10011000
00000010
10011000
00000010
10011000
00000100
10011000
00000100
,
10011000
00000001
10010010
00000100
20001000
00000010
00020200
30030300
10010001
00000010
10010100
00001000
20000010
00000100
00020002
30030003
,
10011001
10011001
10011001
20022002
30033003
10010011
10010011
10010011
,
20020022
00000000
00000000
30030033
10010110
00000000
20022002
00000000
30033003
00000000
10010101
00000000
20022020
00000000
00000000
30033030
,
10010110
00000000
10010110
00000000
10010110
00000000
20020220
00000000
00000000
30030330
10000001
00000000
10000001
00000000
10000001
00000000
,
20000002
00000000
00022000
00000000
30033003
00000000
10010000
00000000
10011000
00000100
10011000
00000100
20021000
00000000
00000000
30030000
,
11011001
00000000
11010110
00000000
11011000
00000010
22020100
00000000
00001010
33030000
11010100
00000000
11010001
00000010
11010100
00001000
,
11010001
00000000
11011010
00000000
11010100
00000001
22020100
00000000
00001001
33030000
11011010
00000000
11010100
00001000
11010010
00001000
,
11010100
00000000
11011001
00000000
11010001
00001000
11010100
00000000
11011010
00000000
11010101
00000000
11011000
00000100
11010010
00000001
,
11011000
00000000
11010101
00000000
11010010
00001000
11010100
00000000
11010011
00000000
11011100
00000000
11010001
00001000
11010010
00000100
,
11010001
00000010
00000100
00001000
00000001
00000010
00000100
00001000
00000001
00000010
00000100
00001000
00000010
00000100
00000010
00000100
,
00000010
00000100
00000001
00001000
00000010
00000100
00000001
00001000
00000010
00000100
00000001
00001000
00000010
00000100
00000010
00000100
,
00001000
00000100
00000010
00000001
00001000
00000100
00000010
00000001
00001000
00000100
00000010
00000001
00001000
00000100
00000010
00000001
,
00001000
00000001
00000100
00000010
00001000
00000001
00000100
00000010
00000001
00000010
00000100
00001000
00000001
00000010
00000100
00001000
,
11110001
00000100
00000010
00001000
00000001
00000100
00000010
00001000
11110001
00000010
00000100
00001000
00000001
00001000
00000100
00000010
,
11111000
00000001
00000010
00000100
00001000
00000001
00000010
00000100
11111000
00000010
00000100
00000010
00001000
00000100
00001000
00000010
,
11111000
00000001
00001000
00000010
00001000
00000001
00000100
00000010
11111000
00000010
00000100
00000001
00001000
00000010
00000100
00000001
,
11110100
00000001
00000010
00000100
00001000
00000100
00000010
00000001
22220010
00000100
00001000
00000100
00000010
00000001
00001000
33330100
,
10010001
00000010
10010100
00001000
10010010
00000100
10010001
00001000
10010100
00001000
10010010
00001000
10010010
00001000
10010001
00000100
,
10010010
00000100
10010010
00001000
10010001
00001000
10010010
00000100
10010001
00000010
10010100
00001000
20020010
30030100
20020001
30030010
,
01100100
00001000
01100010
00000100
01100010
00000100
01100001
00001000
01100001
00000010
01100100
00001000
01100001
00000100
01100001
00000100
,
01100010
00001000
01100001
00000100
01100010
00001000
01100010
00000100
02200001
00001000
00000010
00000100
00000001
00001000
00000100
03301000
,
10010100
00001000
10010001
00000010
10010001
00000010
10010001
00001000
10010010
00001000
10010001
00000100
10010001
00000100
10010001
00000010
,
10010001
00000100
10010001
00001000
10010010
00001000
10010010
00000100
20020010
00001000
00000001
30030100
11110010
00001000
11110100
00000010
,
22220001
00000010
00000100
00001000
00000001
00000010
00000100
00001000
00000001
00000010
00000100
00001000
00000001
00000010
00000100
33331000
,
22220001
00001000
00000100
00000010
00000001
00001000
00000100
00000010
00000001
00001000
00000100
00000010
00000001
00001000
00000100
33330010
,
11111000
00000100
11111000
11110100
11111000
00000100
11111000
00000100
11111000
00000010
11111000
00000010
11111000
00000010
11111000
00000010
,
11110100
00000001
11110100
11110001
11110100
00000001
11110100
00000001
11111000
00000010
11111000
00000010
22221000
00000010
00001000
33330010
,
11110100
00000010
11110100
00000010
11110100
00000010
11110100
00000010
11111000
00000001
11111000
00000001
11111000
00000001
11111000
00000001
,
11110010
00000001
11110010
00000001
11110010
00000001
11110010
00000001
22221000
00000100
00001000
00000100
00001000
00000100
00001000
33330100
,
20021000
00000010
00000100
30030001
20021000
00000100
00001000
30030001
20020010
00000001
00000100
30030010
10010100
00000010
10011000
00000001
,
10011000
00000010
10010100
00000001
10011000
00000010
20020100
00000001
00001000
00000001
00000010
30030100
10011000
00000001
10010010
00000100
,
10011000
00000100
10010010
00000001
10011000
00000100
10010010
00000001
10011000
00000100
10011000
00000010
10010100
00000001
10011000
00000001
,
10011000
00000001
10011000
00000001
10010100
00000010
10010100
00000010
20020200
00000000
00000000
00000000
00000000
00000000
00000000
30030300
,
10010001
00000010
10010100
00001000
10010001
00000010
10010100
00001000
10010001
00001000
10010100
00000010
10010001
00001000
10010100
00000010
,
10010001
00000010
10010100
00001000
10010100
00000010
10010001
00000010
10010100
00001000
10010100
00000010
10010001
00001000
10010010
00001000
,
10010010
00001000
20020010
00001000
00000010
30030100
10010001
00000100
10010001
00001000
20020010
00001000
00000001
30030100
10010010
00001000
,
10010001
00000010
10010100
00001000
10010100
00000010
10010001
00001000
10010010
00001000
10010100
00000010
20020001
00001000
00000001
30030010
,
00020100
00001000
00000010
00000100
00000001
00001000
00000100
00000010
00000001
00001000
00000100
00001000
00000010
00001000
00000001
00000100
,
00200010
00000100
00000010
00000100
00000001
00000010
00000100
00001000
00000010
00000100
00000010
00001000
00000100
00000010
00000001
00001000
,
02000001
00000010
00000100
00001000
00000100
00000010
00000001
00001000
00000100
00000010
00000001
00001000
00000001
00000010
00000100
00001000
,
20000001
00000010
00000100
33331000
00020001
00000010
00000100
00001000
02200001
00000010
00000100
00001000
20000001
00000010
00000100
33331000
,
22222002
00000000
00000000
00000000
00000000
00000000
00000200
00000000
00000000
00000000
00000300
00000000
00000100
00000000
00000000
33333003
,
22222102
00000000
00000100
00000000
00000000
00000000
00000000
00000000
00000100
00000000
00000000
00000000
00000100
00000000
00000000
33333003
,
22222102
00000000
00000000
00000000
00000000
00000000
00000100
00000000
00000000
00000000
00000000
00000000
00000100
00000000
00000000
33333003
,
22222102
00000000
00000100
00000000
00000000
00000000
00000000
00000000
00000100
00000000
00000000
00000000
00000100
00000000
00000000
33333003
,
22222102
00000000
00000100
00000100
00000000
00000000
00000100
00000000
,
00000100
00000000
00000000
00000000
00000100
00000000
00000100
00000000
00000000
00000000
00000000
00000000
00000100
00000000
00000000
33333003
,
00020001
00000010
00000100
00001000
00000001
00000010
00200100
00001000
00000001
00000010
00000100
00001000
02000001
00000010
00000100
00001000
,
20000001
33330100
22220010
00001000
00000010
00000100
00000001
33331000
22220001
00000100
00000010
33331000
22220010
00000100
00000001
33330010
,
22221000
00000100
00001000
00000100
00001000
33330100
22221000
00000100
00001000
00000010
00001000
33330010
22221000
00000010
00001000
33330010
,
22220100
33330001
22220100
00000001
00000100
00000001
00000100
33330001
22221000
00000001
00001000
33330001
22221000
00000001
00001000
33330001
,
22221000
00000010
00001000
00000010
00001000
33330010
22221000
00000010
00001000
00000001
00001000
33330001
22221000
00000001
00001000
33330001
,
22220100
33330010
22220100
00000010
00000100
00000010
00000100
33330010
22221000
00000001
00001000
33330001
22221000
00000001
00001000
33330001
,
22221000
00000100
00000010
33330001
22220010
33330100
22221000
00000100
00000010
00000001
00000010
33330100
22221000
00000100
00000010
33330001
,
22220010
00000100
00001000
33330100
22220010
33330001
22220010
00000100
00001000
00000100
00000010
33330001
22220010
00000100
00001000
33330100
,
00020010
00000001
00001000
00000100
00000010
00000001
00201000
00000100
00000010
00000001
00001000
00000100
02000010
00000001
00001000
00000100
,
20000001
33330010
22220100
00001000
00000001
00000010
00000100
33331000
22220001
00000010
00000100
33331000
22220001
00000010
00000100
33331000
,
22220001
00000000
00000011
00000000
00001000
33330100
22221000
00000000
00000010
00000000
00000101
33330000
22220001
00001000
00000100
33330000
,
22220010
33330000
22221100
00000000
00000010
00000100
00000001
33330000
22220010
00000000
00000101
33330000
22221000
00000001
00001000
33330000
,
22220010
00000000
00000101
00000000
00000100
33330010
22220001
00000000
00001000
00000000
00000101
33330000
22220010
00001000
00000100
33330000
,
22221000
33330000
22220101
00000000
00000001
00000010
00000100
00000000
00000010
00000000
00000110
33330000
22220001
00001000
00000010
33330000
,
22220100
00000000
00001010
33330000
22220001
33331000
22220100
00000000
00000001
00000000
00000110
33330000
22220001
00000100
00000010
33330000
,
22221000
00000000
00000101
00000000
00001000
00000010
00000100
33330000
22220001
00000000
00001100
33330000
22220010
00000100
00000001
33330000
,
22221000
00000010
00001000
33330001
22220100
33330001
22221000
00000010
00000100
00000001
00001000
00000001
00000010
00000100
00001000
00000010
,
00000100
00000010
00001000
00000010
00001000
00000010
00000100
00000001
33331000
00000010
00000100
00000010
11111000
00000001
00000010
00000100
,
22221001
33330000
00000000
00000000
11110000
00000000
22220000
00000000
00000000
33330000
00000000
00000000
11110000
00000000
00000000
00000000
,
22221001
00000000
00000000
00000000
33330000
00000000
00000000
22220000
00000000
33330000
00000000
22220000
00000000
00000000
33330000
00000000
,
22220001
00000010
00000100
33331000
11110001
00000010
22220100
00001000
00000001
00000010
00000100
00001000
00000001
00000010
00000100
00001000
,
00000010
00000000
00000000
00002002
00000000
00003003
33332002
00000000
00003003
22222202
00000000
00000000
00000000
00000000
00000000
00000000
,
00000000
33333303
00000000
00000000
00000000
00000000
00000000
00000000
;

//---------------dance-double - IMHUMAN EDIT----------------
#NOTES:
     dance-double:
     IMHUMAN EDIT:
     Edit:
     30:
     1.000,1.000,1.000,1.000,1.000,4265.000,2434.000,1600.000,0.000,2708.000:
10010000
00000000
00001010
00001010
00001010
00001010
10010000
10010000
,
10010000
00000000
00000101
00000101
00000101
00000101
00000101
00000000
,
20020101
00000000
00001010
00001010
00000101
00000101
00001101
00001111
,
00200001
00000010
00000100
00301000
02000001
00000010
00000100
03001000
00200001
00000010
00000100
00301000
02000110
00000000
00000000
33030000
,
10011001
00000000
00001010
00000100
00000110
00000100
00001001
00000000
,
20021001
00000000
00000000
00000000
00000101
00000000
00000010
00000000
00000110
00000000
00000010
00000000
00001001
00000000
00000000
30030000
,
11010101
11010011
11011010
11011100
,
11010110
00000000
00000000
00000000
00000000
00000000
11011001
00000000
00000000
00000000
00000000
00000000
11011101
00000000
00000000
11011101
11011101
11011101
11011101
00000000
00000000
00000000
00000000
00000000
,
00001011
00001101
00001011
00001101
00001011
00001101
00001011
00001101
,
01110000
11100000
01110000
11100000
01110000
11100000
01110000
11100000
,
00110011
00110011
11001100
11001100
10111011
11011101
11111011
11111101
,
11111111
00000000
11111111
00000000
11111111
00000000
11111111
00000000
11111111
00000000
11111111
00000000
22222222
00000000
00000000
33333333
,
01110000
01110000
01110000
01110000
01110000
01110000
01110000
01110000
,
00001101
00001101
00001101
00001101
00001101
00001101
00001101
00001101
,
11100000
11100000
11100000
11100000
11100000
11100000
11100000
11100000
,
11111111
00000000
11111111
00000000
11111111
00000000
11111111
00000000
11111111
00000000
11111111
00000000
22222222
00000000
00000000
33333333
,
10000100
00000010
10000100
00000001
10001000
00000010
10000100
00000001
10000010
00000100
10001000
00000100
10000010
00000000
10000002
00000003
,
10010001
00000010
10010100
00001000
10010001
00000010
10010100
00001000
10010100
00000010
10010001
00001000
10010010
00000000
10012000
00003000
,
11011000
00000100
11010010
00000001
11010010
00000100
11011000
00000010
11010100
00000010
11010001
00001000
11010001
00001000
11010020
00000030
,
11111000
00000010
11111000
00000010
11110100
00000001
11110100
00000001
11111000
00000010
11111000
00000010
22220202
00000000
00000000
33330303
,
10010001
00000010
10010100
00001000
10010001
00000010
10010100
00001000
10010001
00000010
10010100
00001000
10010010
00000000
10010200
00000300
,
11010010
00000100
11011000
00000001
11010100
00000010
11010001
00001000
11010100
00000010
11010001
00001000
11010001
00000100
11010020
00000030
,
11111000
00000000
00000001
00000000
00000010
00000000
11110100
00000000
00000000
00000000
00000000
00000000
11111000
00000000
00000001
00000000
00000010
00000000
11110100
00000000
00000000
00000000
00000000
00000000
11111000
00000000
00000000
00000100
00000000
00000000
11110001
00000000
00000010
00000000
00000100
00000000
11111000
00000000
00000000
00000000
00000000
00000000
11110010
00000000
00000000
00000100
00000000
00000000
,
20001002
00000000
02200220
00000000
,
00022000
00000000
00000000
00000000
00000000
00000000
00000000
00000000
00000000
00000000
00000000
00000000
00000000
00000000
00000000
33333333
,
00011000
00100100
00011000
00100100
00011000
01000010
00011000
01000010
00011000
10000001
00011000
10000001
00011000
00100100
00011000
00100100
,
10011001
01000010
10000001
01000010
10000001
00100100
10000001
00100100
10000001
00011000
10000001
00011000
10000001
01000010
10000001
01000010
,
10011001
00100100
00011000
00100100
00011000
01000010
00011000
01000010
00011000
00100100
00011000
00100100
00011000
01000010
00011000
01000010
,
10011001
00100100
10000001
00100100
10000001
01000010
10000001
01000010
10000001
00100100
10000001
00100100
10000001
01000010
10000001
01000010
,
10011001
01000010
00100100
10000001
00011000
01000010
00100100
10000001
00011000
01000010
00100100
10000001
00011000
01000010
00100100
10000001
,
00011000
00100100
01000010
10000001
00011000
00100100
01000010
10000001
00011000
00100100
01000010
10000001
00011000
00100100
01000010
10000001
,
00011000
10000001
01000010
00100100
00011000
10000001
01000010
00100100
00011000
10000001
01000010
00100100
00011000
10000001
01000010
00100100
,
00011000
00100100
00011000
01000010
00011000
00100100
00011000
01000010
00011000
00100100
00011000
01000010
00011000
00100100
00011000
01000010
,
00011000
11000011
00011000
11000011
00011000
11000011
00011000
11000011
00011000
11000011
00011000
11000011
00011000
11000011
00011000
11000011
,
00011000
01100110
00011000
01100110
00011000
01100110
00011000
01100110
00011000
01100110
00011000
01100110
00011000
01100110
00011000
11000011
,
00111100
10000001
00111100
10000001
00111100
10000001
00111100
10000001
00111100
10000001
00111100
10000001
00111100
10000001
00111100
10000001
,
01100110
10000001
01100110
10000001
01100110
10000001
01100110
10000001
01100110
10000001
01100110
10000001
01100110
10000001
01100110
10000001
,
00111100
10000001
00111100
10000001
00111100
10000001
00111100
10000001
00111100
10000001
00111100
10000001
00111100
10000001
00111100
01000010
,
10011001
01000010
10011001
01000010
10011001
01000010
10011001
01000010
10011001
01000010
10011001
01000010
10011001
01000010
10011001
01000010
,
10000001
01000010
00100100
00011000
01000010
00100100
10000001
00011000
01000010
00100100
10000001
00011000
10000001
01000010
00100100
00011000
,
00010001
00100010
01000100
10001000
00010001
00100010
01000100
10001000
00010001
00100010
01000100
10001000
00010001
00100010
01000100
10001000
00010001
00100010
01000100
10001000
00010001
00100010
01000100
10001000
,
22220001
00000010
00000100
00001000
00000001
00000010
00000100
00001000
00000001
00000010
00000100
00001000
00000001
00000010
00000100
33331000
,
20022002
00000000
00000000
30033003
20022002
00000000
00000000
30033003
20022002
00000000
00000000
30033003
20022002
00000000
00000000
30033003
,
10010100
00001000
10010010
00001000
10010001
00000100
10010010
00001000
10010001
00000100
10010010
00001000
10010001
00000100
10010010
00000100
,
20020001
00001000
00000010
30030100
10010001
00001000
20020010
00000100
00000001
30030010
20020100
00001000
00000001
00000010
00000100
30031000
,
10010100
00000010
10010001
00000100
10010010
00001000
10010100
00001000
10010001
00000010
10010100
00001000
10010001
00000010
10010100
00001000
,
20020200
00000000
00000000
30030002
20020000
30030000
20022000
00000000
00000000
30030000
00000000
00000000
00000000
00000000
00000000
00003303
,
11111000
00000011
11111000
00000011
11111000
00000011
11111000
00000011
11111000
00000011
11111000
00000011
11111000
00000011
11111000
00000011
,
22221000
00000101
00001000
33330101
22221000
33330101
22221000
00000101
00001000
33330101
22221000
00000101
00001000
00000101
00001000
33330101
,
11111000
00000011
11111000
00000011
11111000
00000011
11111000
00000011
11111000
00000011
11111000
00000011
11111000
00000011
11111000
00000011
,
22221000
00000111
00001000
33330111
22221000
33330111
22221000
00000111
00001000
00000111
00001000
00000111
00001000
00000111
00001000
33330111
,
00011000
00100010
00010100
00100001
00011000
00100010
00010100
00100001
00011000
00100010
00010100
00100001
00011000
00100010
00010100
00100001
,
00011000
00100001
00010010
00100100
00011000
00100001
00010010
00100100
00011000
00100100
00010010
00100001
00011000
00100100
00010010
00100001
,
00011000
10000001
00010100
10000010
00011000
10000001
00010100
10000010
00011000
10000001
00010100
10000010
00011000
10000001
00010100
10000010
,
00011000
10000001
00010010
10000100
00011000
10000001
00010010
10000100
00011000
10000010
00010100
10000010
00010100
10000010
00010100
10000010
,
00010100
01000001
00010010
01000100
00011000
01000100
00010010
01000001
00010010
01000100
00011000
01000100
00010010
01000001
00010010
01000100
,
00011000
01000010
00011000
01000010
00010100
01000001
00010100
01000001
00011000
01000100
00011000
01000100
00010010
01000001
00010010
01000001
,
00011000
11000010
00010100
11000001
00011000
11000001
00010010
11000100
00011000
11000100
00010010
11000001
00011000
11000010
00010100
11001000
,
22020001
00000010
00000100
00001000
00000001
00000010
00000100
00001000
00000001
00000010
00000100
00001000
00000001
00000010
00000100
33031000
,
10010001
00001000
10010010
00000100
10010001
00001000
10010100
00000010
10010001
00001000
10010001
00000010
10010100
00001000
10010001
00000010
,
20020100
00000010
00000001
30031000
10010100
00000010
20020001
00001000
00000001
30030010
20020100
00001000
00000001
00000100
00000010
30031000
,
10010010
00000100
10010001
00000010
10010100
00001000
10010010
00000100
10010001
00001000
10010010
00000100
10010001
00001000
10010001
00000010
,
20020100
00000000
00000000
00000000
00000000
00000000
00000100
00000000
00000000
30030000
00000000
00000000
10011010
00000000
00001010
00000000
00001010
00000000
20021010
00000000
00000000
00000000
00000000
00000000
00000100
00000000
00000000
00000000
00000000
00000000
00001001
00000000
00001001
00000000
00001001
00000000
30031001
00000000
00000000
00000000
00000000
00000000
00001000
00000000
00000000
00000000
00000000
00000000
,
10010010
00000100
10010001
00001000
10010010
00000100
10010001
00001000
10010001
00000010
10010100
00001000
10010001
00000010
10010100
00001000
,
20020010
00000100
00000010
30031000
10010100
00001000
20020010
00001000
00000001
30030100
20020010
00000001
00001000
00000010
00000100
30030001
,
10011000
00000010
10010100
00000001
10010010
00000100
10011000
00000001
10010010
00000001
10010010
00000001
10010010
00000100
10011000
00000100
,
20021000
00000000
00000000
00000000
00000000
00000000
00001010
00000000
00001010
30030000
00001010
00000000
10011010
00000000
00000000
00000000
00000000
00000000
20021001
00000000
00000000
00000000
00000000
00000000
00001000
00000000
00000000
00000100
00000000
00000000
00001000
00000000
00000000
00000010
00000000
00000000
30031000
00000000
00000000
00000001
00000000
00000000
00001000
00000000
00000000
00000010
00000000
00000000
,
22021000
00000000
00000000
00000000
00000000
00000000
00000100
00000000
00000000
00000000
00000000
00000000
00000100
00000000
00000000
33030000
00000000
00000000
22021001
00000000
00000000
00000000
00000000
00000000
00000010
00000000
00000000
00000000
00000000
00000000
00000010
00000000
00000000
33030000
00000000
00000000
22021100
00000000
00000000
00000000
00000000
00000000
00001001
00000000
00001001
33030000
00001001
00000000
,
22021001
00000000
00000000
00000000
00000000
00000000
00000100
00000000
00000000
00000000
00000000
00000000
00000010
00000000
00000000
33030000
00000000
00000000
22020110
00000000
00000000
00000000
00000000
00000000
00000001
00000000
00000000
00000000
00000000
00000000
00000001
00000000
00000000
33030000
00000000
00000000
22021010
00000000
00000000
00000000
00000000
00000000
00001010
00000000
00001010
33030000
00001010
00000000
,
22021010
00000000
00000000
00000000
00000000
00000000
00000001
00000000
00000000
00000000
00000000
00000000
00000100
00000000
00000000
33030000
00000000
00000000
22020101
00000000
00000000
00000000
00000000
00000000
00000010
00000000
00000000
00000000
00000000
00000000
00000010
00000000
00000000
33030000
00000000
00000000
22020110
00000000
00000000
00000000
00000000
00000000
00001000
00000000
00000001
33030000
00001000
00000000
,
22020001
00001000
00000010
00001000
00000010
00001000
00000010
00001000
00000001
00001000
00000001
00001000
00000001
00000000
00000000
33030000
,
20021001
00000000
00000100
30030000
20020100
30030000
20020110
30030000
20020010
00000000
00000010
30030000
20020011
00000000
00001010
30030000
,
20020101
30030000
20020001
00000000
00000001
30030000
20020011
00000000
00001000
00000000
00001000
30030000
20021001
00000000
00000011
30030000
,
20021100
00000000
00001000
30030000
20021000
30030000
20020101
00000000
00000010
00000000
00000010
30030000
20020011
00000000
00001001
30030000
,
00020001
00000010
00000100
00001000
00200001
00000010
02000100
00001000
20000001
00000010
00000100
00001000
00000001
00000010
33330100
00001000
,
22220001
00000000
00000001
00000000
00001001
00000000
00001000
00000000
00001001
00000000
00001000
00000000
00001000
00000001
00001000
00000000
,
00001001
00000000
00000100
00000000
00000110
00000000
00000001
00000000
00001001
00000000
00000100
00000000
00001000
00000010
00001000
33330000
,
22220101
00000000
00000010
00000000
00000110
00000000
00001000
00000000
00001001
00000000
00000100
00000000
00001000
00000001
00001000
00000000
,
00000010
00001000
00000010
00000000
00001001
00000000
00001001
00000000
00000001
00001000
00000001
00000000
00001000
00000010
00000100
33330000
,
22220110
00000000
00000001
00000000
00001000
00000010
00001000
00000000
00000101
00000000
00000010
00000000
00000010
00001000
00000010
00000000
,
00000101
00000000
00000010
00000000
00001000
00000100
00001000
00000000
00000110
00000000
00000010
00000000
00001000
00000001
00000010
33330000
,
22220110
00000000
00001001
00000000
00000001
00001000
00000100
00000000
00000110
00000000
00001001
00000000
00000010
00000100
00000010
00000000
,
00000001
00000000
00000010
00000000
00000100
00000000
00001000
00000000
00000000
00000100
00000000
00000000
00000010
00000000
00000000
00001000
00000000
00000000
00000010
00000000
00000100
00000000
00000001
00000000
00001000
00000000
00000000
00000001
00000000
00000000
00001000
00000000
00000000
00000001
00000000
00000000
00000010
00000000
00000100
00000000
00001000
00000000
00000001
00000000
00000000
33330010
00000000
00000000
,
20021002
00230000
00321010
00230000
00321000
00230100
00321000
00230100
00321000
00230000
00320110
00230000
00321000
00230010
00321000
00230010
,
00321000
00230000
00321100
00230000
00320010
00231000
00320010
00231000
00320010
00230000
00321010
00230000
00320100
00231000
00320100
30231003
,
20320102
02030000
03020110
02030000
03021000
02030100
03021000
02030010
03021000
02030000
03021010
02030000
03021000
02030010
03020100
02031000
,
03020010
02030000
03020110
02030000
03020010
02030100
03020010
02031000
03020010
02030000
03020110
02030000
03020100
02030010
03020100
32030003
,
23021002
00230010
00320100
00231000
00320010
00230100
00320010
00231000
00320100
00231000
00320100
00231000
00320010
00231000
00320010
00231000
,
00320010
00230100
00320010
00231000
00320010
00230100
00320010
00230100
00320010
00231000
00320010
00230100
00321000
00230010
00320100
30031003
,
11111111
11111111
11111111
11111111
11111111
11111111
11111111
11111111
11111111
11111111
11111111
11111111
11111111
11111111
11111111
11111111
,
11111111
00000000
00000000
00000000
20000002
00000000
00000000
00000000
02200220
00000000
00000000
00000000
00022000
00000000
00000000
33333333
,
20021000
00000010
00001000
00000010
00001000
30030010
20021000
00000010
00001000
00000010
00001000
30030010
20021000
00000010
00001000
30030010
,
10011000
00000001
20021000
00000001
00001000
30030001
00001000
00000001
20021000
00000001
00001000
30030001
20021000
00000001
00001000
30030001
,
20021000
00000010
00001000
00000010
00001000
30030010
20021000
00000010
00001000
00000010
00001000
30030010
20021000
00000010
00001000
30030010
,
10011000
00000001
20021000
00000001
00001000
00000001
00001000
30030001
20021000
00000001
00001000
30030001
20021000
00000001
00001000
30030001
,
22221000
00000001
00000010
33330100
11111000
00000001
22220010
00000100
00001000
00000001
00000010
33330100
22221000
00000001
00000010
33330100
,
22221000
00000010
00000100
33330001
11111000
00000010
22220100
00000001
00001000
00000010
00000100
33330001
22221000
00000010
00000100
33330001
,
22221000
00000001
00000010
33330100
00001000
00000001
00020010
00000100
00001000
00000001
00000010
00000100
00201000
00000001
00000010
00000100
,
02001000
00000010
20000100
00000001
00001000
00000010
00000100
33330001
20021000
00000010
00000100
30030001
20021000
00000010
00000100
30030001
,
20021000
00000000
00000001
00000000
00000100
30030001
20021000
00000000
00000010
00000000
00000110
30030000
20020001
00001000
00000010
30030000
,
10010100
00000000
20020101
00000000
00001000
00000001
00000010
30030000
20020100
00000000
00000101
30030000
20021000
00000100
00001000
30030000
,
20020010
00000000
00001001
00000000
00001000
30030001
20021000
00000000
00000001
00000000
00001000
30030000
20020001
00001000
00000001
30030000
,
10010101
00000000
20021010
00000000
00001000
00000010
00001000
00000010
00001000
00000001
00000010
30030100
20021000
00000001
00001000
30030010
,
20020100
00000000
00000000
30030000
10011001
00000000
10011001
00000000
00000000
00000000
00000000
00000000
10011001
00000000
00000000
00000000
,
11111111
00000000
10011001
10011001
,
20020010
00000100
00000001
30031000
10010001
00000010
20020100
00001000
00000010
30030100
10010001
00001000
10010100
00000010
10010001
00001000
,
20020100
00001000
00000010
30031000
10010001
00000010
20020100
00001000
00000010
30030000
10011001
00000000
10010001
00000010
10010100
00001000
,
20020010
00001000
00000100
30031000
10010010
00001000
20020100
00001000
00000001
30030010
10010100
00001000
10010010
00000100
10010001
00001000
,
20020010
00000100
00000001
30031000
10010100
00000010
20020001
00001000
00000100
30030000
11011001
00000000
11011000
00000010
11011000
00000001
,
22021000
00000100
00001000
33030010
11010100
00000001
22021000
00000010
00000100
33030001
11010010
00000100
11011000
00000010
11010100
00000001
,
22020010
00000100
00001000
33030010
11011000
00000010
22021000
00000010
00001000
33030100
11011000
00000100
11011000
00000001
11011000
00000001
,
22021000
00000001
00001000
33030010
11011000
00000100
22021000
00000001
00000010
33030100
11111000
00000010
11110100
00000001
11111000
00000100
,
22221000
00000000
00000000
00000000
00000000
00000000
00000010
00000000
00000000
33330000
00001000
00000000
11110001
00000000
00001000
00000000
00000000
00000000
22220010
00000000
00000000
00000000
00000000
00000000
00001001
00000000
00000000
33330000
00000000
00000000
11111000
00000000
00000010
00000000
00001000
00000000
11110001
00000000
00000000
00000000
00000000
00000000
11110001
00000000
00000000
00000000
00000000
00000000
,
22220001
00000010
00000100
33331000
11110001
00000010
22220100
00001000
00000001
33330100
11110010
00000001
11111000
00000010
11111000
00000100
,
11111000
00000010
11110100
00000001
11111000
00000010
22220100
00000001
00001000
33330100
11111000
00000001
11111000
00000010
11111000
00000001
,
11111000
00000100
11110010
00000001
11111000
00000100
22220010
00000001
00001000
33330010
11110100
00001000
11110010
00000100
11110001
00001000
,
11110001
00000010
11110100
00001000
11110001
00000010
22220100
00001000
00000001
33330100
11110010
00001000
11110100
00000010
11111000
00000001
,
22221000
00000100
00001000
33330100
11111000
00000100
22221000
00000100
00000010
33330001
11111000
00000010
11110100
00000001
11110100
00000010
,
11111000
00000010
11111000
00000010
11111000
00000010
11111000
00000010
11111000
00000001
11110010
00000100
11111000
00000001
11110010
00000100
,
10001000
00100001
01000010
00010100
10001000
00100001
01000010
00010100
10001000
00100001
01000010
00010100
10001000
00100001
01000010
00010100
,
02200220
00000000
00000000
00000000
20022002
00000000
00000000
00000000
00000000
00000000
00000000
00000000
00000000
00000000
00000000
33333333
,
11010001
00000010
11010100
00001000
11010100
00001000
11010001
00000010
11010001
00001000
11010010
00001000
11010010
00001000
11010010
00000100
,
22020010
00001000
00000001
33031000
11010010
00000100
22020001
00001000
00000010
33030100
22020001
00000010
00000100
00001000
00000010
33030100
,
11010010
00001000
11010010
00000100
11010001
00001000
11010010
00000100
11010001
00000010
11010100
00001000
11010100
00001000
11010001
00000010
,
11010001
00001000
11010010
00001000
11010100
00001000
22020010
00001000
00000010
00001000
00000100
00000010
00000001
00000010
00000001
33030100
,
11011000
00000101
11011000
00000101
11011000
00000101
11011000
00000101
11011000
00000101
11011000
00000101
11011000
00000101
11011000
00000101
,
22021000
00000011
00001000
33030011
11011000
00000011
22021000
00000011
00001000
33030011
22021000
00000011
00001000
00000011
00001000
33030011
,
11011000
00000101
11011000
00000101
11011000
00000101
11011000
00000101
11011000
00000101
11011000
00000101
11011000
00000101
11011000
00000101
,
22021000
00000010
00000100
33030001
11011000
00000001
22020010
00000001
00001000
00000010
00001000
00000001
00000100
00000010
00001000
33030000
,
00021010
00000000
00001010
00000000
00001010
00030000
00020101
00000000
00000101
00000000
00000101
00030000
00201001
00000000
00001001
00300000
,
00201001
00000000
00001001
00000000
00001001
00300000
02000110
00000000
00000110
00000000
00000110
03000000
02000011
00000000
00000011
03000000
,
20001010
00000000
00001010
00000000
00000101
30000000
20000011
00000000
00001100
00000000
00000110
30000000
20021001
00000000
00001001
30030000
,
20021000
00000010
00001000
00000010
00001000
00000010
00001000
00000010
00001000
00000010
00001000
00000010
00001000
00000010
00001000
30030010
,
10011000
00000000
00001010
00000000
10010101
00000000
10010011
00000000
20021100
00000000
00000110
30030000
20020110
00000000
00001001
30030000
,
20021010
00000000
00000101
30030000
10010011
00000000
20020011
00000000
00001100
00000000
00001010
30030000
20020101
00000000
00000110
30030000
,
20021001
00000000
00000101
30030000
10011010
00000000
20020011
00000000
00001100
00000000
00000110
30030000
20021001
00000000
00001001
30030000
,
00021001
00000000
00000011
00000000
00201100
00000000
02000011
00000000
20002002
00000000
00000000
00000000
00000000
00000000
00000000
33333003
,
00022000
02033020
03022030
02033020
03022030
02033020
03022030
02033020
03022030
02033020
03022030
02033020
03022030
02033020
03022030
02033020
,
03022030
02033020
03022030
02033020
03022030
02033020
03022030
02033020
03022030
02033020
03022030
02033020
03022030
02033020
03022030
02033020
,
03022030
00233200
00322300
00233200
00322300
00233200
00322300
00233200
00322300
00233200
00322300
00233200
00322300
00233200
00322300
00233200
,
00322300
00233200
00322300
00233200
00322300
00233200
00322300
00233200
00322300
00233200
00322300
00233200
00322300
00233200
00322300
00233200
,
00322300
20033002
30022003
20033002
30022003
20033002
30022003
20033002
30022003
20033002
30022003
20033002
30022003
20033002
30022003
20033002
,
30022003
20033002
30022003
20033002
30022003
20033002
30022003
20033002
30022003
20033002
30022003
20033002
30022003
20033002
30022003
10033001
,
22221000
00000001
00000010
00000100
00001000
00000001
00000010
00000100
00001000
00000001
00000010
00000100
00001000
00000001
00000010
00000100
,
00001000
00000001
00000010
00000100
00001000
00000001
00000010
00000100
00001000
00000001
00000010
00000100
00001000
00000001
00000010
33330100
,
11111010
00000001
00000100
00000010
11111001
00000100
00000010
00000001
11111010
00000100
00001000
00000010
11111100
00000001
00000100
00000010
,
11111100
00000001
00000100
00000010
11111100
00000001
00000010
00000100
11111001
00000100
00000010
00000001
11111100
00000010
00000100
00000001
,
11111100
00000010
00000100
00000001
11111100
00000001
00000010
00000001
11111100
00000010
00000100
00000010
11111001
00000100
00001000
00000001
,
11111100
00000010
00000100
00000010
11111100
00000001
00000100
00000010
11111001
00000100
00001000
00000001
11111100
00000001
00001000
00000010
,
11111001
00000010
11111100
00000001
11110110
00000001
11111010
00000100
11111010
00000001
11111100
00000001
11111100
00000010
11111100
00000001
,
11110110
00000001
11111010
00000100
11111010
00000001
11111100
00000010
11111100
00000001
11111100
00000010
11111100
00000001
11111010
00000001
,
11111111
11111111
11111111
11111111
11111111
11111111
11111111
11111111
11111111
11111111
11111111
11111111
11111111
11111111
11111111
11111111
,
11111111
00000000
00000000
00000000
00022000
00000000
00000000
00000000
20000002
00000000
00000000
00000000
02200220
00000000
00000000
33333333
,
20020001
00000100
00000010
00001000
00000010
30030100
20020001
00001000
00000010
00000100
00000001
30030010
20020001
00000010
00000001
30030010
,
20020100
30031000
20020100
00001000
00000100
00001000
00000001
30030010
20020100
00001000
00000001
30030010
20020001
00001000
00000010
30031000
,
20020010
00000100
00000010
00000100
00000001
30031000
20020010
00000100
00000001
00000010
00000100
30031000
20020100
00000010
00000001
30030100
,
20020010
30030100
20020001
00000010
00000100
00001000
00000100
30031000
20020001
00000010
00000001
30030100
20020010
00001000
00000001
30031100
,
20020001
00001100
00000001
30031100
20020001
30031100
20020001
00001100
00000001
00001100
00000001
30031100
20020001
00001100
00000001
30031100
,
20020010
00001001
00000010
30031001
20020010
30031001
20020010
00001001
00000010
00001001
00000010
30031001
20020010
00001001
00000010
30031001
,
20020100
00001010
00000100
00001010
00000100
30031010
00020100
00001010
00000100
00001010
00000100
00001010
00200100
00001010
00000100
00001010
,
02000001
00001100
20000001
00001100
00000001
00001100
00000001
33331100
20020001
00001100
00000001
30031100
20020001
00001100
00000001
30031100
,
22220001
00000000
00000101
00000000
00001000
33330010
22220100
00000000
00000110
00000000
00001001
33330000
22220001
00000100
00000010
33330000
,
11111010
00000000
22220101
00000000
00000100
00000010
00000100
33330000
22220110
00000000
00001001
33330000
22221000
00000001
00001000
33330000
,
22220011
00000000
00001100
00000000
00001000
33330100
22220001
00000000
00000110
00000000
00001001
33330000
22220001
00000100
00001000
33330000
,
11110110
00000000
22221001
00000000
00000001
00000100
00000001
00000000
00000110
00000000
00001000
33330010
22220100
00000001
00000100
33330010
,
11111101
00000000
00000000
00000000
,
11111111
00000000
00000000
00000000
,
20020010
00000100
00000001
30031000
10010010
00000100
20020001
00001000
00000010
00000100
00000001
00001000
00000010
00000100
00000001
30031000
,
22000010
33001100
00001100
00001100
00001100
00001100
00001100
00001100
,
22001011
00000000
00000110
33000000
22001101
00000000
00001001
33000000
11001101
00000000
11001101
00000000
11001101
00000000
11001101
00000000
,
22001101
00000011
33000011
00000011
00000011
00000011
00000011
00000011
,
22001010
00000000
00001010
33000000
22000101
00000000
00000101
33000000
11001010
00000000
11001001
00000000
22002002
00000000
00000000
33003003
,
22221011
00001010
33331010
00001010
00001010
00001010
00001010
00001010
,
22221101
00000000
00001001
33330000
22221101
00000000
00000110
33330000
11111111
00000000
11111111
00000000
11111111
00000000
11111111
00000000
,
22221111
00000000
00000011
00000000
33330011
00000000
00000011
00000000
00000011
00000000
00000011
00000000
11111001
00000010
11110101
00001000
,
22220011
00000100
00000001
33331000
22220101
00000010
00000100
33331000
22220011
00000100
00000001
33331000
22220101
00000000
00000000
33330000
,
00000011
00000011
00001010
00001010
00000101
00000101
00000110
00000110
,
10010000
10010000
10010000
10010000
11010000
11010000
11010000
11010000
,
00001001
00000000
00001001
00000000
00220000
00000000
00000000
00330000
22000000
00000000
00000000
33000000
20020000
00000000
00000000
30030000
,
01000000
00000000
01000000
00000000
02000000
00000000
20022002
03000000
00000000
00000000
00000000
00000000
00000000
00000000
00000000
30033003
,
10011001
00000000
10011001
00000000
20022002
00000000
00000000
30033003
00220022
00000000
00000000
00330033
00220022
00000000
00000000
00330033
,
00220022
00000000
00000000
00330033
22002200
33003300
22002200
00000000
00000000
33003300
22002200
00000000
00000000
00000000
00000000
33003300
,
10011011
00001011
10011011
10011011
00001011
00001011
10011011
00001011
,
11011001
11010000
11011001
11011001
11010000
11010000
11011001
11010000
,
11111100
00001100
00001100
11111010
00001010
00001010
11111001
00001001
,
11110011
00000011
11110011
00000110
11110110
00000110
11110110
00000101
,
11111100
00001100
00001100
11110011
00001001
00001001
11110110
00000110
,
11111100
00001100
11110110
00000101
11111010
00000011
11110011
00001010
,
00001100
00001010
00001001
00000011
00001100
00000011
00001100
00001010
,
00001001
00000101
00001001
00001010
00001001
00000011
00001001
00001001
,
20021010
30030000
20020101
30030000
20020011
30030000
20021100
00000000
00001010
30030000
20020101
00000000
00001001
30030000
20020110
30030000
,
20020110
30030000
20021001
30030000
20020011
30030000
20021010
00000000
00000101
30030000
20020101
00000000
00000011
00000000
00001100
30030000
,
11111001
00000100
00001000
00000100
00001000
00000000
00000000
00000000
11111001
00000010
00001000
00000010
00001000
00000000
00000000
00000000
,
11111100
00000001
00000010
00000100
00001000
00000010
00000100
00000001
00001000
00000001
00000010
00000100
11111001
00000000
00000000
00000000
,
11111010
00000001
00001000
00000001
00001000
00000000
00000000
00000000
11111010
00000001
00001000
00000001
00001000
00000000
00000000
00000000
,
11111010
00000001
00001000
00000001
00001000
00000001
00000010
00000100
00001000
00000010
00000100
00000001
11111100
00000000
00000000
00000000
,
11110011
00000000
00000000
00000100
00000000
00000000
00000000
00000000
00001000
00000000
00000000
00000000
00000001
00000000
00000000
00000000
00000100
00000000
00000000
00000000
00000010
00000000
00000000
00000000
11111100
00000000
00000000
00000001
00000000
00000000
00000000
00000000
00000010
00000000
00000000
00000000
00000100
00000000
00000000
00000000
00000001
00000000
00000000
00000000
00000010
00000000
00000000
00000000
,
11111001
00000010
00001000
00000001
00000100
00000010
00000100
00000010
00000100
11111010
00000000
00000000
,
11111001
00000000
00000000
00000010
00000000
00000000
00000000
00000000
00001000
00000000
00000000
00000000
00000010
00000000
00000000
00000000
00000100
00000000
00000000
00000000
00000001
00000000
00000000
00000000
11111010
00000000
00000000
00000100
00000000
00000000
00000000
00000000
00000001
00000000
00000000
00000000
00001000
00000000
00000000
00000000
00000010
00000000
00000000
00000000
00000100
00000000
00000000
00000000
,
11111001
00000010
00000100
00001000
00000010
00000100
00000001
00001000
00000001
00000010
00000100
00000001
22222222
00000000
00000000
33333333
,
11001000
00000100
00001000
00000010
11001000
00000001
00000100
00000010
11001000
00000001
11000010
00000100
11001000
00000001
00000010
00000001
,
11001000
00000100
00001000
00000010
11000100
00000010
00001000
00000001
11000100
00000010
11000100
00000001
22002200
00000000
00000000
33003300
,
10010001
00000010
00000100
00001000
10010001
00000010
00000100
00001000
10010100
00001000
10010010
00001000
10010001
00000100
00001000
00000001
,
10010100
00000010
00001000
00000001
10010010
00000100
00001000
00000010
10010200
00000000
10010000
00000300
10012002
00000000
00000000
00003003
,
11011101
00001101
11010000
00001001
11010000
11010110
11010110
00000110
,
11012020
00000000
00003030
00002020
11010000
00003030
00002020
00003030
11010202
00000000
11010000
00000000
11010000
00000000
00000000
00000303
,
11110001
00000010
00000100
00001000
11110010
00000100
00000001
00001000
11110001
00000010
11110100
00001000
11110010
00000100
00000001
00001000
,
11110100
00000010
00001000
00000001
11111000
00000100
00000010
00000001
11110100
00000010
11111000
00000001
11110100
00000010
00001000
00000100
,
20022222
00000000
00000000
30030000
20020000
00000000
00000000
30030000
20020000
00000000
00000000
30033333
11111101
00000000
11111101
00000000
,
11111101
00000000
11111101
00000000
11111101
00000000
22222202
00000000
00000000
33333303
20022002
30033003
20022002
30033003
20022002
30033003
,
00000002
00000023
00000230
00002300
,
00023000
00000000
00000000
00000000
00230000
00000000
02300000
00000000
00000000
03000000
10011001
00000000
10011001
00000000
10011001
00000000
,
00000001
00000000
00000010
00000000
00000100
00000000
20021000
00000000
00000000
30030000
10000000
00000000
10000000
00000000
10000000
00000000
,
01000000
01000000
01000000
00100000
00100000
00100000
00010000
00010000
,
11111111
11111111
11111111
11111111
11111111
11111111
11111111
11111111
,
11111100
00000001
11111100
00000000
11111111
00000000
11111111
00000000
11111100
00000001
11111100
00000000
11111111
00000000
11111111
00000000
,
22221001
00000010
33330100
00001000
00000010
00000100
00000001
00001000
00000001
00000010
00000100
00001000
00000010
00000100
00000001
00001000
,
22220101
00000010
33331000
00000001
00001000
00000100
00000010
00000001
00000100
00000010
00001000
00000001
00001000
00000100
00000010
00000001
,
22221100
00000001
33330010
00000100
00001000
00000010
00000100
00000001
00000010
00000100
00001000
00000010
00000100
00000001
00001000
00000001
,
22221010
00000100
00001000
00000010
00001000
00000100
00000010
00001000
00000001
00000010
00000100
00001000
00000001
00000010
00000100
33331000
,
22220101
00000010
33330100
00001000
00000010
00000100
00000001
00000010
00000001
00001000
00000100
00001000
00000010
00001000
00000001
00000100
,
22221010
00000100
33330001
00000010
00000100
00000010
00000001
00001000
00000100
00000010
00001000
00000100
00001000
00000001
00000010
00000100
,
22221001
00000010
33330001
00001000
00000100
00001000
00000010
00000100
00000001
00001000
00000100
00001000
00000001
00000010
00000100
00001000
,
22220101
00000010
00000100
00001000
00000001
00000010
00000100
00001000
00000100
00000010
00000001
00001000
00000001
00000100
00000010
33330100
,
11111000
00000011
11111000
00000011
11111000
00000011
11111000
00000011
11111000
00000011
11111000
00000011
11111000
00000011
11111000
00000011
,
11111000
00000011
11111000
00000011
11111000
00000011
11111000
00000011
11111000
00000011
11111000
00000011
11111000
00000011
11111000
00000011
,
11110100
00001001
11110100
00001001
11110100
00001001
11110100
00001001
11110100
00001001
11110100
00001001
11110100
00001001
11110100
00001001
,
11110100
00001001
11110100
00001001
11110100
00001001
11110100
00001001
11110100
00001001
11110100
00001001
11110100
00001001
11110100
00000001
,
11111000
00000101
11111000
00000101
11111000
00000101
11111000
00000101
11111000
00000101
11111000
00000101
11111000
00000101
11111000
00000101
,
11111000
00000101
11111000
00000101
11111000
00000101
11111000
00000101
11111000
00000101
11111000
00000101
11111000
00000101
11111000
00000101
,
11111000
00000001
11110010
00000100
11111000
00000001
11110010
00000100
11111000
00000001
11110010
00000100
11111000
00000001
11110010
00000100
,
11111000
00000001
11110010
00000100
11111000
00000001
11110010
00000100
11111000
00000001
11110010
00000100
11111000
00000001
11110010
00000100
,
11111000
00000100
11110010
00000001
11111000
00000100
11110010
00000001
11111000
00000100
11110010
00000001
11111000
00000100
11110010
00000001
,
11111000
00000100
11110010
00000001
11111000
00000100
11110010
00000001
11111000
00000100
11110010
00000001
11111000
00000100
11110010
00000001
,
10001000
00000010
10000100
00000001
10001000
00000100
10001000
00000001
10000010
00000001
10001000
00000001
10000010
00000100
10001000
00000001
,
10000010
00000001
10000100
00000001
10001000
00000010
10000100
00000001
10001000
00000010
10000100
00000001
10000010
00000100
10001000
00000100
,
11000001
00000010
11000100
00001000
11000001
00000010
11000100
00001000
11000001
00000010
11000100
00001000
11000001
00000010
11000100
00001000
,
11000001
00000010
11000100
00001000
11000001
00000010
11000100
00001000
11000001
00000010
11000100
00001000
11000001
00000010
11000100
00001000
,
11010001
00000010
11010100
00001000
11010001
00000010
11010001
00000100
11010001
00001000
11010001
00000100
11010010
00001000
11010001
00001000
,
11010100
00001000
11010100
00001000
11010010
00001000
11010010
00001000
11010001
00000100
11010001
00000100
11010010
00001000
11010001
00000010
,
11110100
00001000
11110001
00000100
11110001
00001000
11110010
00001000
11110100
00000001
11110100
00000010
11111000
00000001
11110100
00000010
,
11111000
00000100
11111000
00000010
11111000
00000001
11111000
00000010
11111000
00000100
11110010
00000001
11111000
00000001
11110010
00000100
,
11111000
00000010
11110100
00000001
11111000
00000010
11110100
00000001
11111000
00000010
11110100
00000010
11110100
00000001
11111000
00000001
,
11111000
00000001
11110010
00000001
11111000
00000100
11111000
00000010
11110100
00000010
11111000
00000010
11111000
00000010
11110100
00000001
,
11111000
00000100
11110010
00000001
11111000
00000100
11110010
00000001
11111000
00000001
11110010
00000100
11111000
00000001
11110010
00000100
,
11111000
00000100
11110010
00000001
11110010
00000100
11111000
00000100
11110010
00000001
11110010
00000100
11111000
00000100
11110010
00000100
,
20020011
00001000
00000011
30031000
20020011
00001000
00000011
30031000
20020011
00001000
00000011
30031000
20020011
00001000
00000011
30031000
,
20020001
00000000
00000000
00001100
00000000
00000000
00000001
00000000
00000000
30031100
00000000
00000000
20020001
00000000
00000000
00001100
00000000
00000000
00000001
00000000
00000000
30031100
00000000
00000000
10010001
00000000
00000000
00001100
00000000
00000000
00010001
00000000
10000000
00001100
00010000
00000000
10000001
00000000
00000000
00000000
00000000
00000000
00000000
00000000
00000000
00000000
00000000
00000000
,
20021000
30030010
20020100
30030001
20021000
30030010
20020100
30030001
20021000
30030100
20021000
30030100
20020010
30030001
20020010
30030001
,
20020000
30030000
20020000
00000000
00000000
30030000
20021010
30030000
20021000
30030100
20021000
30030100
20021000
00000000
00000000
30030000
,
20021001
30030000
20021000
30030010
20021000
30030100
20021000
30030000
20021001
30030000
20020110
30030000
20021100
30030000
20020011
30030000
,
20021001
30030000
20021001
30030000
20020101
00000000
00000000
30030000
20020101
30030000
20020110
30030000
20021001
00000000
00000000
30030000
,
20020001
00000010
00000100
30031000
20020001
30030010
20020100
00001000
00000010
30030100
20020001
30031000
20020001
30030010
20020100
30031000
,
20020100
30031000
20020010
30031000
20020100
30031000
20020100
30030010
20020001
30031000
20020100
30030010
20020001
00001000
00000010
30030100
,
20020001
30031000
20020010
30031000
20020010
30030100
20020001
30030010
20020100
30031000
20020001
30030010
20020100
30031000
20020001
30030010
,
20020100
30031000
20020001
30031000
20020002
30030003
20021100
30030000
20021000
30030010
20021000
30030010
20022000
30033000
20020001
30030000
,
00020001
00000010
00000100
00001000
00200001
00000010
00000100
00001000
02000001
00000010
00000100
00001000
20000001
00000010
00000100
33331000
,
22222222
00000000
00000000
33333333
22222222
00000000
00000000
33333333
22222222
00000000
00000000
33333333
22222222
00000000
00000000
33333333
,
00011000
00100100
00010010
00100001
00011000
00100100
00010010
00100001
00011000
00100100
00010010
00100001
00022000
00000000
00000000
00033000
,
22220110
00000000
00000110
00000000
00000110
00000000
00000110
00000000
00000110
00000000
00000110
00000000
00000110
00000000
00000110
33330000
,
22221000
00000000
00000000
00000000
00000010
00000000
00000000
00000000
00001000
00000000
00000000
00000000
00000001
00000000
00000000
00000000
00000010
00000000
00000000
00000000
00000100
00000000
00000000
00000000
00000001
00000000
00000000
00000000
00000100
00000000
00000000
00000000
00000010
00000000
00000000
00000000
00001000
00000000
00000000
00000000
00000100
00000000
00000000
00000000
00001000
33330000
00000000
00000000
,
22220010
00000000
00000000
00000000
00000001
00000000
00000000
00000000
00001000
00000000
00000001
00000000
00001000
00000000
00000000
00000000
00000100
00000000
00000000
00000000
00001000
00000000
00000000
00000000
00000010
00000000
00000000
00000000
00000001
00000000
00000000
00000000
00000010
33330000
00000000
00000000
20022200
00000000
00000000
00000000
00000000
00000000
00000000
00000000
00003300
30030000
00000000
00000000
,
20020000
00000000
30030000
20020000
00000000
30030000
20020000
30030000
20020000
30030000
20020000
30030000
20020000
30030000
20020000
30030000
,
20021000
00000011
00001000
00000011
00001000
00000011
00001000
00000011
00000100
00001001
00000100
00001001
00000100
00000011
00001000
30030001
,
10010010
00000100
10011000
00000001
10010010
00000001
10011000
00000100
10011000
00000010
10010100
00000010
20020200
00000000
00000000
30030300
,
10010001
00000010
10010100
00001000
10010001
00000010
10010100
00001000
10010001
00000010
10010100
00001000
20022002
00000000
00000000
30033003
,
10011000
00000010
10011000
00000010
10011000
00000100
10011000
00000100
10011000
00000010
10011000
00000010
10011000
00000100
10011000
00000100
,
10011000
00000001
10010010
00000100
20001002
00000000
00022000
30033003
10010001
00000010
10010100
00001000
20000010
00000100
00020002
30030003
,
10011001
10011001
10011001
20022002
30033003
10010011
10010011
10010011
,
20020022
00000000
01101100
30030033
10010110
00000000
20022002
00000000
30033003
00000000
10010101
00000000
20022020
00000000
00000000
30033030
,
10010110
00000000
10010110
00000000
10010110
00000000
20020220
00000000
00000000
30030330
10000001
00000000
10000001
00000000
10000001
00000000
,
20022002
00000000
02200220
00000000
33333333
00000000
10010000
00000000
10011000
00000100
10011000
00000100
20021000
00000000
00000000
30030000
,
11011001
00000000
11010110
00000000
11011000
00000010
22020100
00000000
00001010
33030000
11010100
00000000
11010001
00000010
11010100
00001000
,
11010001
00000000
11011010
00000000
11010100
00000001
22020100
00000000
00001001
33030000
11011010
00000000
11010100
00001000
11010010
00001000
,
11010100
00000000
11011001
00000000
11010001
00001000
11010100
00000000
11011010
00000000
11010101
00000000
11011000
00000100
11010010
00000001
,
11011000
00000000
11010101
00000000
11010010
00001000
11010100
00000000
11010011
00000000
11011100
00000000
11010001
00001000
11010010
00000100
,
00010001
00100010
00010100
00101000
00010001
00100010
00010100
00101000
00010001
00100010
00010100
00101000
00010010
00100100
00010010
00100100
,
01000010
10000100
01000001
10001000
01000010
10000100
01000001
10001000
01000010
10000100
01000001
10001000
01000010
10000100
01000010
10000100
,
00011000
10000100
00010010
10000001
00011000
10000100
00010010
10000001
00011000
10000100
00010010
10000001
00011000
10000100
00010010
10000001
,
00011000
01100001
00010100
01100010
00011000
01100001
00010100
01100010
00010001
01100010
00010100
01101000
00010001
01100010
00010100
01101000
,
11110011
00000100
00000010
00001000
00000001
00000100
00000010
00001000
11111001
00000010
00000100
00001000
00000001
00001000
00000100
00000010
,
11111100
00000001
00000010
00000100
00001000
00000001
00000010
00000100
11111001
00000010
00000100
00000010
00001000
00000100
00001000
00000010
,
11111100
00000001
00001000
00000010
00001000
00000001
00000100
00000010
11111001
00000010
00000100
00000001
00001000
00000010
00000100
00000001
,
11111100
00000001
00000010
00000100
00001000
00000100
00000010
00000001
22220010
00000100
00001000
00000100
00000010
00000001
00001000
33330100
,
10010001
00000010
10010100
00001000
10010010
00000100
10010001
00001000
10010100
00001000
10010010
00001000
10010010
00001000
10010001
00000100
,
10010010
00000100
10010010
00001000
10010001
00001000
10010010
00000100
10010001
00000010
10010100
00001000
20020010
30030100
20020001
30030010
,
11110100
00001000
11110010
00000100
11110010
00000100
11110001
00001000
11110001
00000010
11110100
00001000
11110001
00000100
11110001
00000100
,
11110010
00001000
11110001
00000100
11110010
00001000
11110010
00000100
22220001
00001000
00000010
00000100
00000001
00001000
00000100
33331000
,
10010100
00001000
10010001
00000010
10010001
00000010
10010001
00001000
10010010
00001000
10010001
00000100
10010001
00000100
10010001
00000010
,
10010001
00000100
10010001
00001000
10010010
00001000
10010010
00000100
20020010
00001000
00000001
30030100
11110010
00001000
11110100
00000010
,
22220001
00000010
00000100
00001000
00000001
00000010
00000100
00001000
00000001
00000010
00000100
00001000
00000001
00000010
00000100
33331000
,
22220001
00001000
00000100
00000010
00000001
00001000
00000100
00000010
00000001
00001000
00000100
00000010
00000001
00001000
00000100
33330010
,
11111000
00000101
11111000
11110101
11111000
00000101
11111000
00000101
11111000
00000011
11111000
00000011
11111000
00000011
11111000
00000011
,
11110100
00000011
11110100
11110011
11110100
00000011
11110100
00000011
11111000
00000110
11111000
00000110
22221000
00000110
00001000
33330011
,
11110100
00000011
11110100
00000011
11110100
00000011
11110100
00000011
11111000
00000011
11111000
00000011
11111000
00000011
11111000
00000101
,
11110010
00000101
11110010
00000101
11110010
00000101
11110010
00000101
22221000
00000101
00001000
00000101
00001000
00000101
00001000
33330101
,
22221000
00000010
00000100
33330001
22221000
00000100
00001000
33330001
22220010
00000001
00000100
33330010
11110100
00000010
11111000
00000001
,
11111000
00000010
11110100
00000001
11111000
00000010
22220100
00000001
00001000
00000001
00000010
33330100
11111000
00000001
11110010
00000100
,
11111000
00000100
11110010
00000001
11111000
00000100
11110010
00000001
11111000
00000100
11111000
00000010
11110100
00000001
11111000
00000001
,
11111000
00000001
11111000
00000001
11110100
00000010
11110100
00000010
22222222
00000000
00000000
00000000
00000000
00000000
00000000
33333333
,
11110001
00000010
11110100
00001000
11110001
00000010
11110100
00001000
11110001
00001000
11110100
00000010
11110001
00001000
11110100
00000010
,
11110001
00000010
11110100
00001000
11110100
00000010
11110001
00000010
11110100
00001000
11110100
00000010
11110001
00001000
11110010
00001000
,
11110010
00001000
22220010
00001000
00000010
33330100
11110001
00000100
11110001
00001000
22220010
00001000
00000001
33330100
11110010
00001000
,
11110001
00000010
11110100
00001000
11110100
00000010
11110001
00001000
11110010
00001000
11110100
00000010
22220001
00001000
00000001
33330010
,
00020100
00001000
00000010
00000100
00000001
00001000
00000100
00000010
00000001
00001000
00000100
00001000
00000010
00001000
00000001
00000100
,
00200010
00000100
00000010
00000100
00000001
00000010
00000100
00001000
00000010
00000100
00000010
00001000
00000100
00000010
00000001
00001000
,
02000001
00000010
00000100
00001000
00000100
00000010
00000001
00001000
00000100
00000010
00000001
00001000
00000001
00000010
00000100
00001000
,
20000001
00000010
00000100
33331000
00020001
00000010
00000100
00001000
02200001
00000010
00000100
00001000
20000001
00000010
00000100
33331000
,
22222002
00000000
00000000
00000000
00000000
00000000
00000200
00000000
00000000
00000000
00000300
00000000
00000100
00000000
00000000
33333003
,
22222102
00000000
00000100
00000000
00000000
00000000
00000000
00000000
00000100
00000000
00000000
00000000
00000100
00000000
00000000
33333003
,
22222102
00000000
00000000
00000000
00000000
00000000
00000100
00000000
00000000
00000000
00000000
00000000
00000100
00000000
00000000
33333003
,
22222102
00000000
00000100
00000000
00000000
00000000
00000000
00000000
00000100
00000000
00000000
00000000
00000100
00000000
00000000
33333003
,
22222102
00000000
00000100
00000100
00000000
00000000
00000100
00000000
,
00000100
00000000
00000000
00000000
00000100
00000000
00000100
00000000
00000000
00000000
00000000
00000000
00000100
00000000
00000000
33333003
,
00020001
00000010
00000100
00001000
00000001
00000010
00200100
00001000
00000001
00000010
00000100
00001000
02000001
00000010
00000100
00001000
,
20000001
33330100
22220010
00001000
00000010
00000100
00000001
33331000
22220001
00000100
00000010
33331000
22220010
00000100
00000001
33330010
,
00011000
00100100
00011000
00100100
00011000
00100100
00011000
00100100
00011000
01000010
00011000
01000010
00011000
01000010
00011000
01000010
,
00011000
10000001
00011000
10000001
00011000
10000001
00011000
10000001
00011000
10000001
00011000
10000001
00011000
10000001
00011000
10000001
,
00011000
11000011
00011000
11000011
00011000
11000011
00011000
11000011
00011000
10100101
00011000
10100101
00011000
10100101
00011000
10100101
,
00011000
11000011
00011000
11000011
00011000
11000011
00011000
11000011
00011000
11000011
00011000
11000011
00011000
11000011
00011000
11000011
,
22221000
00000100
00000010
33330001
22220010
33330100
22221000
00000100
00000010
00000001
00000010
33330100
22221000
00000100
00000010
33330001
,
22220010
00000100
00001000
33330100
22220010
33330001
22220010
00000100
00001000
00000100
00000010
33330001
22220010
00000100
00001000
33330100
,
00020010
00000001
00001000
00000100
00000010
00000001
00201000
00000100
00000010
00000001
00001000
00000100
02000010
00000001
00001000
00000100
,
20000001
33330010
22220100
00001000
00000001
00000010
00000100
33331000
22220001
00000010
00000100
33331000
22220001
00000010
00000100
33331000
,
22220001
00000000
00000011
00000000
00001000
33330100
22221000
00000000
00000010
00000000
00000101
33330000
22220001
00001000
00000100
33330000
,
22220010
33330000
22221100
00000000
00000010
00000100
00000001
33330000
22220010
00000000
00000101
33330000
22221000
00000001
00001000
33330000
,
22220010
00000000
00000101
00000000
00000100
33330010
22220001
00000000
00001000
00000000
00000101
33330000
22220010
00001000
00000100
33330000
,
22221000
33330000
22220101
00000000
00000001
00000010
00000100
00000000
00000010
00000000
00000110
33330000
22220001
00001000
00000010
33330000
,
22220100
00000000
00001010
33330000
22220001
33331000
22220100
00000000
00000001
00000000
00000110
33330000
22220001
00000100
00000010
33330000
,
22221000
00000000
00000101
00000000
00001000
00000010
00000100
33330000
22220001
00000000
00001100
33330000
22220010
00000100
00000001
33330000
,
22221000
00000010
00001000
33330001
22220100
33330001
22221000
00000010
00000100
00000001
00001000
00000001
00000010
00000100
00001000
00000010
,
00000100
00000010
00001000
00000010
00001000
00000010
00000100
00000001
33331000
00000010
00000100
00000010
11111000
00000001
00000010
00000100
,
22221001
33330000
00000000
00000000
11110000
00000000
22220000
00000000
00000000
33330000
00000000
00000000
22220000
00000000
00000000
33330000
,
22221001
00000000
00000000
00000000
33330000
00000000
00000000
22220000
00000000
33330000
00000000
22220000
00000000
00000000
33330000
00000000
,
22220001
00000010
00000100
33331000
22220001
33330010
22220100
00001000
00000001
00000010
00000100
00001000
00000001
00000010
00000100
00001000
,
00000010
00000000
00000000
00002002
00000000
00003003
33332002
00000000
00003003
22222222
00000000
00000000
00000000
00000000
00000000
00000000
,
00000000
33333333
00000000
00000000
00000000
00000000
00000000
00000000
;

//---------------dance-double - Oni----------------
#NOTES:
     dance-double:
     Oni:
     Challenge:
     20:
     1.000,1.000,1.000,1.000,1.000,4227.000,2003.000,1600.000,0.000,2811.000:
10010000
00000000
00001010
00001010
00001010
00001010
10010000
10010000
,
10010000
00000000
00000101
00000101
00000101
00000101
00000101
00000000
,
20020001
00000000
00000100
00000010
00000100
00001000
00000110
00000110
,
02000001
00000010
00000100
03001000
02000001
00000010
00000100
03001000
02000001
00000010
00000100
03001000
31030001
00000000
00000000
00000000
,
10011001
00000000
00001010
00000100
00000110
00000100
00001001
00000000
,
20021001
00000000
00000000
00000000
00000101
00000000
00000010
00000000
00000110
00000000
00000010
00000000
00001001
00000000
00000000
30030000
,
11010101
11010011
11011010
11011100
,
11010110
00000000
00000000
00000000
00000000
00000000
11011001
00000000
00000000
00000000
00000000
00000000
11011101
00000000
00000000
10000001
00011000
10000001
00011000
00000000
00000000
00000000
00000000
00000000
,
00001011
00001101
00001011
00001101
00001011
00001101
00001011
00001101
,
11010000
11010000
11010000
11010000
10110000
10110000
10110000
10110000
,
00001010
00000101
00001100
00000011
00000110
00000110
00001001
00001001
,
11111101
00000000
11111101
00000000
11111101
00000000
11111101
00000000
11111101
00000000
11111101
00000000
22222202
00000000
00000000
33333303
,
01110000
01110000
01110000
01110000
01110000
01110000
01110000
01110000
,
00001101
00001101
00001101
00001101
00001101
00001101
00001101
00001101
,
11100000
11100000
11100000
11100000
11100000
11100000
11100000
11100000
,
11110011
00000000
11110011
00000000
11110101
00000000
11110101
00000000
11111001
00000000
11111001
00000000
22222202
00000000
00000000
33333303
,
00010100
00000010
00010100
00000001
00011000
00000010
00010100
00000001
00010010
00000100
00011000
00000100
00010010
00000000
00010002
00000003
,
00110001
00000010
00110100
00001000
00110001
00000010
00110100
00001000
00110100
00000010
00110001
00001000
00110010
00000000
00112000
00003000
,
10011000
00000100
10010010
00000001
10010010
00000100
10011000
00000010
10010100
00000010
10010001
00001000
10010001
00001000
10010020
00000030
,
11011000
00000010
11011000
00000010
11010100
00000001
11010100
00000001
11011000
00000010
11011000
00000010
22020202
00000000
00000000
33030303
,
10010001
00000010
10010100
00001000
10010001
00000010
10010100
00001000
10010001
00000010
10010100
00001000
10010010
00000000
10010200
00000300
,
11010010
00000100
11011000
00000001
11010100
00000010
11010001
00001000
11010100
00000010
11010001
00001000
11010001
00000100
11010020
00000030
,
11110001
00000000
00000010
00000000
00000100
00000000
11111000
00000000
00000000
00000000
00000000
00000000
11110001
00000000
00000010
00000000
00000100
00000000
11111000
00000000
00000000
00000000
00000000
00000000
11111000
00000000
00000000
00000100
00000000
00000000
11110001
00000000
00000010
00000000
00000100
00000000
11111000
00000000
00000000
00000000
00000000
00000000
11110010
00000000
00000000
00000100
00000000
00000000
,
20001002
00000000
02000020
00000000
,
00022000
00000000
00000000
00000000
00000000
00000000
00000000
00000000
00000000
00000000
00000000
00000000
00000000
00000000
00000000
33033033
,
00011000
00100100
00011000
00100100
00011000
01000010
00011000
01000010
00011000
10000001
00011000
10000001
00011000
00100100
00011000
00100100
,
10011001
01000010
10000001
01000010
10000001
00100100
10000001
00100100
10000001
00011000
10000001
00011000
10000001
01000010
10000001
01000010
,
10011001
00100100
00011000
00100100
00011000
01000010
00011000
01000010
00011000
00100100
00011000
00100100
00011000
01000010
00011000
01000010
,
10011001
00100100
10000001
00100100
10000001
01000010
10000001
01000010
10000001
00100100
10000001
00100100
10000001
01000010
10000001
01000010
,
10011001
00100100
00011000
00100100
00011000
01000010
00011000
01000010
00011000
10000001
00011000
10000001
00011000
00100100
00011000
00100100
,
10011001
01000010
10000001
01000010
10000001
00100100
10000001
00100100
10000001
00011000
10000001
00011000
10000001
01000010
10000001
01000010
,
10011001
00100100
00011000
00100100
00011000
01000010
00011000
01000010
00011000
00100100
00011000
00100100
00011000
01000010
00011000
01000010
,
10011001
00100100
10000001
00100100
10000001
01000010
10000001
01000010
10000001
00100100
10000001
00100100
10000001
01000010
10000001
01000010
,
00011000
10000001
00011000
10000001
00011000
10000001
00011000
10000001
00011000
10000001
00011000
10000001
00011000
10000001
00011000
10000001
,
00011000
01000010
00011000
01000010
00011000
01000010
00011000
01000010
00011000
01000010
00011000
01000010
00011000
01000010
00011000
01000010
,
00011000
10000001
00011000
10000001
00011000
10000001
00011000
10000001
00011000
10000001
00011000
10000001
00011000
10000001
00011000
10000001
,
00011000
00001001
00000000
10010000
10010000
00000000
10010000
10010000
,
00001000
00000100
00001000
00000000
10010000
00000000
10010000
00000000
00000001
00000010
00000001
00000000
10010000
00000000
10010000
00000000
,
00000010
00001000
00000010
00000000
10010000
00000000
10010000
00000000
00000100
00000001
00000100
00000000
10010000
00000000
10010000
00000000
,
11110001
00000010
11110100
00001000
11110010
00000100
11110001
00001000
11110010
00000100
11110001
00001000
11110001
00000010
11110100
00001000
,
00010001
00100010
01000100
10001000
00010001
00100010
01000100
10001000
00010001
00100010
01000100
10001000
00010001
00100010
01000100
10001000
00010001
00100010
01000100
10001000
00010001
00100010
01000100
10001000
,
22220001
00000010
00000100
00001000
00000001
00000010
00000100
00001000
00000001
00000010
00000100
00001000
00000001
00000010
00000100
33331000
,
20022002
00000000
00000000
30033003
20022002
00000000
00000000
30033003
20022002
00000000
00000000
30033003
20022002
00000000
00000000
30033003
,
10010100
00001000
10010010
00001000
10010001
00000100
10010010
00001000
10010001
00000100
10010010
00001000
10010001
00000100
10010010
00000100
,
20020001
00001000
00000010
30030100
10010001
00001000
20020010
00000100
00000001
30030010
20020100
00001000
00000001
00000010
00000100
30031000
,
10010100
00000010
10010001
00000100
10010010
00001000
10010100
00001000
10010001
00000010
10010100
00001000
10010001
00000010
10010100
00001000
,
20020200
00000000
00000000
30030002
20020000
30030000
20022000
00000000
00000000
30030000
00000000
00000000
00000000
00000000
00000000
00003303
,
11111000
00000010
11111000
00000010
11111000
00000010
11111000
00000010
11111000
00000010
11111000
00000010
11111000
00000010
11111000
00000010
,
22221000
00000001
00001000
33330001
22221000
33330001
22221000
00000001
00001000
33330001
22221000
00000001
00001000
00000001
00001000
33330001
,
11111000
00000010
11111000
00000010
11111000
00000010
11111000
00000010
11111000
00000010
11111000
00000010
11111000
00000010
11111000
00000010
,
22221000
00000001
00001000
33330001
22221000
33330001
22221000
00000001
00001000
00000001
00001000
00000001
00001000
00000001
00001000
33330001
,
00011000
10000010
00010100
00000001
00011000
10000010
00010100
00000001
00011000
10000010
00010100
00000001
00011000
10000010
00010100
00000001
,
00011000
10000001
00010010
00000100
00011000
10000001
00011000
00000100
00010010
10000001
00011000
00000001
00010010
10000100
00011000
00000001
,
00011000
10000001
00010010
00000100
00011000
10000001
00010010
00000100
00011000
10000001
00010010
00000100
00011000
10000001
00010010
00000100
,
00011000
10000100
00010010
00000001
00011000
10000100
00010010
00000001
00011000
10000100
00010010
00000001
00011000
10000100
00010010
00000001
,
11011000
00000001
11011000
00000010
11011000
00000100
11011000
00000001
11010010
00000001
11011000
00000010
11010100
00000001
11011000
00000001
,
11010010
00000100
11011000
00000100
11010010
00000001
11011000
00000100
11011000
00000001
11010010
00000001
11011000
00000010
11011000
00000010
,
11010100
00000001
11011000
00000100
11011000
00000001
11011000
00000100
11010010
00000001
11011000
00000001
11010010
00000100
11011000
00000010
,
22020001
00000010
00000100
00001000
00000001
00000010
00000100
00001000
00000001
00000010
00000100
00001000
00000001
00000010
00000100
33031000
,
10010001
00001000
10010010
00000100
10010001
00001000
10010100
00000010
10010001
00001000
10010001
00000010
10010100
00001000
10010001
00000010
,
20020100
00000010
00000001
30031000
10010100
00000010
20020001
00001000
00000001
30030010
20020100
00001000
00000001
00000100
00000010
30031000
,
10010010
00000100
10010001
00000010
10010100
00001000
10010010
00000100
10010001
00001000
10010010
00000100
10010001
00001000
10010001
00000010
,
20020100
00000000
00000000
00000000
00000000
00000000
00000100
00000000
00000000
30030000
00000000
00000000
10011000
00000000
00000010
00000000
00001000
00000000
20020010
00000000
00000000
00000000
00000000
00000000
00000100
00000000
00000000
00000000
00000000
00000000
00001000
00000000
00000001
00000000
00001000
00000000
30030001
00000000
00000000
00000000
00000000
00000000
00001000
00000000
00000000
00000000
00000000
00000000
,
10010010
00000100
10010001
00001000
10010010
00000100
10010001
00001000
10010001
00000010
10010100
00001000
10010001
00000010
10010100
00001000
,
20020010
00000100
00000010
30031000
10010100
00001000
20020010
00001000
00000001
30030100
20020010
00000001
00001000
00000010
00000100
30030001
,
10011000
00000010
10010100
00000001
10010010
00000100
10011000
00000001
10010010
00000001
10010010
00000001
10010010
00000100
10011000
00000100
,
20021000
00000000
00000000
00000000
00000000
00000000
00001000
00000000
00000010
30030000
00001000
00000000
10010010
00000000
00000000
00000000
00000000
00000000
20021001
00000000
00000000
00000000
00000000
00000000
00001000
00000000
00000000
00000100
00000000
00000000
00001000
00000000
00000000
00000010
00000000
00000000
30031000
00000000
00000000
00000001
00000000
00000000
00001000
00000000
00000000
00000010
00000000
00000000
,
22021000
00000000
00000000
00000000
00000000
00000000
00000100
00000000
00000000
00000000
00000000
00000000
00000100
00000000
00000000
33030000
00000000
00000000
22021001
00000000
00000000
00000000
00000000
00000000
00000010
00000000
00000000
00000000
00000000
00000000
00000010
00000000
00000000
33030000
00000000
00000000
22021100
00000000
00000000
00000000
00000000
00000000
00001000
00000000
00000001
33030000
00001000
00000000
,
22020001
00000000
00000000
00000000
00000000
00000000
00000100
00000000
00000000
00000000
00000000
00000000
00000010
00000000
00000000
33030000
00000000
00000000
22020110
00000000
00000000
00000000
00000000
00000000
00000001
00000000
00000000
00000000
00000000
00000000
00000001
00000000
00000000
33030000
00000000
00000000
22021010
00000000
00000000
00000000
00000000
00000000
00001000
00000000
00000010
33030000
00001000
00000000
,
22020010
00000000
00000000
00000000
00000000
00000000
00000001
00000000
00000000
00000000
00000000
00000000
00000100
00000000
00000000
33030000
00000000
00000000
22020101
00000000
00000000
00000000
00000000
00000000
00000010
00000000
00000000
00000000
00000000
00000000
00000010
00000000
00000000
33030000
00000000
00000000
22020110
00000000
00000000
00000000
00000000
00000000
00001000
00000000
00000001
33030000
00001000
00000000
,
22020001
00001000
00000010
00001000
00000010
00001000
00000010
00001000
00000001
00001000
00000001
00001000
00000001
00000000
00000000
33030000
,
20021001
00000000
00000100
30030000
20020100
30030000
20020110
30030000
20020010
00000000
00000010
30030000
20020011
00000000
00001010
30030000
,
20020101
30030000
20020001
00000000
00000001
30030000
20020011
00000000
00001000
00000000
00001000
30030000
20021001
00000000
00000011
30030000
,
20021100
00000000
00001000
30030000
20021000
30030000
20020101
00000000
00000010
00000000
00000010
30030000
20020011
00000000
00001001
30030000
,
00020001
00000010
00000100
00001000
00200001
00000010
02000100
00001000
20000001
00000010
00000100
00001000
00000001
00000010
33330100
00001000
,
22220001
00000000
00000001
00000000
00001001
00000000
00001000
00000000
00001001
00000000
00001000
00000000
00001000
00000001
00001000
00000000
,
00001001
00000000
00000100
00000000
00000110
00000000
00000001
00000000
00001001
00000000
00000100
00000000
00001000
00000010
00001000
33330000
,
22220101
00000000
00000010
00000000
00000110
00000000
00001000
00000000
00001001
00000000
00000100
00000000
00001000
00000001
00001000
00000000
,
00000010
00001000
00000010
00000000
00001001
00000000
00001001
00000000
00000001
00001000
00000001
00000000
00001000
00000010
00000100
33330000
,
22220110
00000000
00000001
00000000
00001000
00000010
00001000
00000000
00000101
00000000
00000010
00000000
00000010
00001000
00000010
00000000
,
00000101
00000000
00000010
00000000
00001000
00000100
00001000
00000000
00000110
00000000
00000010
00000000
00001000
00000001
00000010
33330000
,
22220110
00000000
00001001
00000000
00000001
00001000
00000100
00000000
00000110
00000000
00001001
00000000
00000010
00000100
00000010
00000000
,
00000001
00000000
00000010
00000000
00000100
00000000
00001000
00000000
00000000
00000001
00000000
00000000
00000010
00000000
00000000
00001000
00000000
00000000
00000001
00000000
00000010
00000000
00000100
00000000
00001000
00000000
00000000
00000001
00000000
00000000
00001000
00000000
00000000
00000001
00000000
00000000
00000010
00000000
00000100
00000000
00001000
00000000
00000001
00000000
00000000
33330010
00000000
00000000
,
21121000
00000000
00001010
00000000
01101000
00000100
00001000
00000100
01101000
00000000
00000110
00000000
01101000
00000010
00001000
00000010
,
01101000
00000000
00000101
00000000
01100100
00000001
00000100
00000001
01100100
00000000
00001010
00000000
01100001
00001000
00000001
30031000
,
21120001
00000000
00000110
00000000
01101000
00000001
00001000
00000001
01101000
00000000
00001001
00000000
01100001
00000010
00000100
00001000
,
01100001
00000000
00000110
00000000
01100010
00000100
00000001
00001000
01100010
00000000
00000110
00000000
01100100
00000010
00000100
30030000
,
21120001
00000010
01100100
00001000
01100010
00000100
01100001
00001000
01100100
00001000
01100100
00001000
01100010
00001000
01100010
00001000
,
01100001
00000100
01100010
00001000
01100001
00000100
01100010
00000100
01100001
00001000
01100010
00000100
01100001
00000010
01100100
30031000
,
11110001
11111000
11110001
11111000
11110001
11111000
11110001
11111000
11110001
11111000
11110001
11111000
11110001
11111000
11110001
11111000
,
11110001
00000000
00000000
00000000
20000002
00000000
00000000
00000000
02000020
00000000
00000000
00000000
00022000
00000000
00000000
33033033
,
20021000
00000010
00001000
00000010
00001000
30030010
20021000
00000010
00001000
00000010
00001000
30030010
20021000
00000010
00001000
30030010
,
10011000
00000001
20021000
00000001
00001000
30030001
00001000
00000001
20021000
00000001
00001000
30030001
20021000
00000001
00001000
30030001
,
20021000
00000010
00001000
00000010
00001000
30030010
20021000
00000010
00001000
00000010
00001000
30030010
20021000
00000010
00001000
30030010
,
10011000
00000001
20021000
00000001
00001000
00000001
00001000
30030001
20021000
00000001
00001000
30030001
20021000
00000001
00001000
30030001
,
22221000
00000001
00000010
33330100
11111000
00000001
22220010
00000100
00001000
00000001
00000010
33330100
22221000
00000001
00000010
33330100
,
22221000
00000010
00000100
33330001
11111000
00000010
22220100
00000001
00001000
00000010
00000100
33330001
22221000
00000010
00000100
33330001
,
22221000
00000001
00000010
33330100
00001000
00000001
00020010
00000100
00001000
00000001
00000010
00000100
00201000
00000001
00000010
00000100
,
02001000
00000010
20000100
00000001
00001000
00000010
00000100
33330001
20021000
00000010
00000100
30030001
20021000
00000010
00000100
30030001
,
20021000
00000000
00000001
00000000
00000100
30030001
20021000
00000000
00000010
00000000
00000110
30030000
20020001
00001000
00000010
30030000
,
10010100
00000000
20020101
00000000
00001000
00000001
00000010
30030000
20020100
00000000
00000101
30030000
20021000
00000100
00001000
30030000
,
20020010
00000000
00001001
00000000
00001000
30030001
20021000
00000000
00000001
00000000
00001000
30030000
20020001
00001000
00000001
30030000
,
10010101
00000000
20021010
00000000
00001000
00000010
00001000
00000010
00001000
00000001
00000010
30030100
20021000
00000001
00001000
30030010
,
20020100
00000000
00000000
30030000
10011001
00000000
10011001
00000000
00000000
00000000
00000000
00000000
10011001
00000000
00000000
00000000
,
11111101
00000000
10011001
10011001
,
20020010
00000100
00000001
30031000
10010001
00000010
20020100
00001000
00000010
30030100
10010001
00001000
10010100
00000010
10010001
00001000
,
20020100
00001000
00000010
30031000
10010001
00000010
20020100
00001000
00000010
30030000
10011001
00000000
10010001
00000010
10010100
00001000
,
20020010
00001000
00000100
30031000
10010010
00001000
20020100
00001000
00000001
30030010
10010100
00001000
10010010
00000100
10010001
00001000
,
20020010
00000100
00000001
30031000
10010100
00000010
20020001
00001000
00000100
30030000
11011001
00000000
11011000
00000010
11011000
00000001
,
22021000
00000100
00001000
33030010
11010100
00000001
22021000
00000010
00000100
33030001
11010010
00000100
11011000
00000010
11010100
00000001
,
22020010
00000100
00001000
33030010
11011000
00000010
22021000
00000010
00001000
33030100
11011000
00000100
11011000
00000001
11011000
00000001
,
22021000
00000001
00001000
33030010
11011000
00000100
22021000
00000001
00000010
33030100
11111000
00000010
11110100
00000001
11111000
00000100
,
22221000
00000000
00000000
00000000
00000000
00000000
00000010
00000000
00000000
33330000
00001000
00000000
11110001
00000000
00001000
00000000
00000000
00000000
22220010
00000000
00000000
00000000
00000000
00000000
00001001
00000000
00000000
33330000
00000000
00000000
11111000
00000000
00000010
00000000
00001000
00000000
11110001
00000000
00000000
00000000
00000000
00000000
11110001
00000000
00000000
00000000
00000000
00000000
,
22220001
00000010
00000100
33331000
11110001
00000010
22220100
00001000
00000001
33330100
11110010
00000001
11111000
00000010
11111000
00000100
,
11111000
00000010
11110100
00000001
11111000
00000010
22220100
00000001
00001000
33330100
11111000
00000001
11111000
00000010
11111000
00000001
,
11111000
00000100
11110010
00000001
11111000
00000100
22220010
00000001
00001000
33330010
11110100
00001000
11110010
00000100
11110001
00001000
,
11110001
00000010
11110100
00001000
11110001
00000010
22220100
00001000
00000001
33330100
11110010
00001000
11110100
00000010
11111000
00000001
,
22221000
00000100
00001000
33330100
11111000
00000100
22221000
00000100
00000010
33330001
11111000
00000010
11110100
00000001
11110100
00000010
,
11111000
00000010
11111000
00000010
11111000
00000010
11111000
00000010
11111000
00000001
11110010
00000100
11111000
00000001
11110010
00000100
,
11111000
00000001
11110010
00000100
11111000
00000001
11110010
00000100
11111000
00000001
11110010
00000100
11111000
00000001
11110010
00000100
,
20002000
00000000
00000000
00000000
00020002
00000000
00000000
00000000
00000000
00000000
00000000
00000000
00000000
00000000
00000000
30033003
,
11010001
00000010
11010100
00001000
11010100
00001000
11010001
00000010
11010001
00001000
11010010
00001000
11010010
00001000
11010010
00000100
,
22020010
00001000
00000001
33031000
11010010
00000100
22020001
00001000
00000010
33030100
22020001
00000010
00000100
00001000
00000010
33030100
,
11010010
00001000
11010010
00000100
11010001
00001000
11010010
00000100
11010001
00000010
11010100
00001000
11010100
00001000
11010001
00000010
,
11010001
00001000
11010010
00001000
11010100
00001000
22020010
00001000
00000010
00001000
00000100
00000010
00000001
00000010
00000001
33030100
,
11111000
00000101
11111000
00000101
11111000
00000101
11111000
00000101
11111000
00000101
11111000
00000101
11111000
00000101
11111000
00000101
,
22221000
00000011
00001000
33330011
11111000
00000011
22221000
00000011
00001000
33330011
22221000
00000011
00001000
00000011
00001000
33330011
,
11111000
00000110
11111000
00000110
11111000
00000110
11111000
00000110
11111000
00000110
11111000
00000110
11111000
00000110
11111000
00000110
,
22221000
00000010
00000100
33330001
11111000
00000001
22220010
00000001
00001000
00000010
00001000
00000001
00000100
00000010
00001000
33330000
,
00021010
00000000
00001010
00000000
00001010
00030000
00020101
00000000
00000101
00000000
00000101
00030000
00201001
00000000
00001001
00300000
,
00201001
00000000
00001001
00000000
00001001
00300000
02000110
00000000
00000110
00000000
00000110
03000000
02000011
00000000
00000011
03000000
,
20001010
00000000
00001010
00000000
00000101
30000000
20000011
00000000
00001100
00000000
00000110
30000000
20021001
00000000
00001001
30030000
,
20022002
00233200
00322300
00233200
00322300
00233200
00322300
00233200
00322300
00233200
00322300
00233200
00322300
00233200
00322300
30233203
,
20322302
30033003
00001010
00000000
10010101
00000000
10010011
00000000
20021100
00000000
00000110
30030000
20020110
00000000
00001001
30030000
,
20021010
00000000
00000101
30030000
10010011
00000000
20020011
00000000
00001100
00000000
00001010
30030000
20020101
00000000
00000110
30030000
,
20021001
00000000
00000101
30030000
10011010
00000000
20020011
00000000
00001100
00000000
00000110
30030000
20021001
00000000
00001001
30030000
,
00021001
00000000
00000011
00000000
00201100
00000000
02000011
00000000
20002002
00000000
00000000
00000000
00000000
00000000
00000000
33333003
,
22221000
00000010
00001000
00000010
00001000
00000010
00001000
00000010
00001000
00000010
00001000
00000010
00001000
00000010
00001000
00000010
,
00001000
00000010
00001000
00000010
00001000
00000010
00001000
00000010
00001000
00000010
00001000
00000010
00001000
00000010
00001000
33330010
,
22221000
00000100
00001000
00000100
00001000
00000100
00001000
00000100
00001000
00000100
00001000
00000100
00001000
00000100
00001000
00000100
,
00001000
00000100
00001000
00000100
00001000
00000100
00001000
00000100
00001000
00000100
00001000
00000100
00001000
00000100
00001000
33330100
,
22221000
00000001
00001000
00000001
00001000
00000001
00001000
00000001
00001000
00000001
00001000
00000001
00001000
00000001
00001000
00000001
,
00001000
00000001
00001000
00000001
00001000
00000001
00001000
00000001
00001000
00000001
00001000
00000001
00001000
00000001
00001000
33330001
,
22221000
00000001
00000010
00000100
00001000
00000001
00000010
00000100
00001000
00000001
00000010
00000100
00001000
00000001
00000010
00000100
,
00001000
00000001
00000010
00000100
00001000
00000001
00000010
00000100
00001000
00000001
00000010
00000100
00001000
00000001
00000010
33330100
,
22221000
00000001
00000100
33330010
22221000
00000100
00000010
33330001
22221000
00000100
00001000
33330010
22221000
00000001
00000100
33330010
,
22221000
00000001
00000100
33330010
22221000
00000001
00000010
33330100
22221000
00000100
00000010
33330001
22221000
00000010
00000100
33330001
,
22221000
00000010
00000100
33330001
22221000
00000001
00000010
33330001
22220100
00000010
00000100
33330010
22221000
00000100
00001000
33330001
,
22221000
00000010
00000100
33330010
22221000
00000001
00000100
33330010
22221000
00000100
00001000
33330001
22221000
00000001
00001000
33330010
,
22221000
33330010
22220100
33330001
22220100
33330001
22221000
33330100
22221000
33330001
22220100
33330001
22221000
33330010
22221000
33330001
,
22220100
33330001
22221000
33330100
22220010
33330001
22221000
33330010
22220100
33330001
22221000
33330010
22220100
33330001
22221000
33330001
,
11111000
11110010
11110100
11110001
11111000
11110001
11110010
11110100
11111000
11110001
11110010
11110100
11111000
11110010
11110100
11110010
,
11110100
00000000
00000000
00000000
00200020
00000000
00000000
00000000
02000200
00000000
00000000
03300330
02200220
00000000
00000000
03300330
,
20020001
00000100
00000010
00001000
00000010
30030100
20020001
00001000
00000010
00000100
00000001
30030010
20020001
00000010
00000001
30030010
,
20020100
30031000
20020100
00001000
00000100
00001000
00000001
30030010
20020100
00001000
00000001
30030010
20020001
00001000
00000010
30031000
,
20020010
00000100
00000010
00000100
00000001
30031000
20020010
00000100
00000001
00000010
00000100
30031000
20020100
00000010
00000001
30030100
,
20020010
30030100
20020001
00000010
00000100
00001000
00000100
30031000
20020001
00000010
00000001
30030100
20020010
00001000
00000001
30030100
,
20020001
00000100
00000001
30030100
20020001
30030100
20020001
00000100
00000001
00000100
00000001
30030100
20020001
00000100
00000001
30030100
,
20020010
00001000
00000010
30031000
20020010
30031000
20020010
00001000
00000010
00001000
00000010
30031000
20020010
00001000
00000010
30031000
,
20020100
00001000
00000100
00001000
00000100
30031000
00020100
00001000
00000100
00001000
00000100
00001000
00200100
00001000
00000100
00001000
,
02000001
00001000
20000001
00001000
00000001
00001000
00000001
33331000
20020001
00001000
00000001
30031000
20020001
00001000
00000001
30031000
,
22220001
00000000
00000101
00000000
00001000
33330010
22220100
00000000
00000110
00000000
00001001
33330000
22220001
00000100
00000010
33330000
,
11111010
00000000
22220101
00000000
00000100
00000010
00000100
33330000
22220110
00000000
00001001
33330000
22221000
00000001
00001000
33330000
,
22220011
00000000
00001100
00000000
00001000
33330100
22220001
00000000
00000110
00000000
00001001
33330000
22220001
00000100
00001000
33330000
,
11110110
00000000
22221001
00000000
00000001
00000100
00000001
00000000
00000110
00000000
00001000
33330010
22220100
00000001
00000100
33330010
,
11111101
00000000
00000000
00000000
,
10011001
00000000
00000000
00000000
,
20020010
00000100
00000001
30031000
10010010
00000100
20020001
00001000
00000010
00000100
00000001
00001000
00000010
00000100
00000001
30031000
,
22000010
33001100
00001100
00001100
00001100
00001100
00001100
00001100
,
22000110
00000000
00000110
33000000
22001001
00000000
00001001
33000000
11001010
00000000
11000110
00000000
11001001
00000000
11001100
00000000
,
22001010
00000011
33000011
00000011
00000011
00000011
00000011
00000011
,
22001010
00000000
00001010
33000000
22000101
00000000
00000101
33000000
11001010
00000000
11001001
00000000
22002002
00000000
00000000
33003003
,
22021010
00001010
33031010
00001010
00001010
00001010
00001010
00001010
,
22021001
00000000
00001001
33030000
22020110
00000000
00000110
33030000
11010101
00000000
11011010
00000000
11011001
00000000
11010110
00000000
,
22020011
00000000
00000011
00000000
33030011
00000000
00000011
00000000
00000011
00000000
00000011
00000000
11110001
00000010
11110100
00001000
,
22220010
00000100
00000001
33331000
22220001
00000010
00000100
33331000
22220010
00000100
00000001
33331000
22220001
00000000
00000000
33330000
,
00000011
00000011
00001010
00001010
00000101
00000101
00000110
00000110
,
10010000
10010000
10010000
10010000
11010000
11010000
11010000
11010000
,
00001001
00000000
00001001
00000000
00220000
00000000
00000000
00330000
22000000
00000000
00000000
33000000
20020000
00000000
00000000
30030000
,
01000000
00000000
01000000
00000000
02000000
00000000
20022002
03000000
00000000
00000000
00000000
00000000
00000000
00000000
00000000
30033003
,
10011001
00000000
10011001
00000000
20022002
00000000
00000000
30033003
00220022
00000000
00000000
00330033
00220022
00000000
00000000
00330033
,
00220022
00000000
00000000
00330033
22002200
33003300
22002200
00000000
00000000
33003300
22002200
00000000
00000000
00000000
00000000
33003300
,
00001011
00001011
00001011
00001011
00001011
00001011
00001011
00001011
,
11010000
11010000
11010000
11010000
11010000
11010000
11010000
11010000
,
11111100
00001100
00001100
11111010
00001010
00001010
11111001
00001001
,
11110011
00000011
11110011
00000110
11110110
00000110
11110110
00000101
,
11111100
00001100
00001100
11110011
00001001
00001001
11110110
00000110
,
11111100
00001100
11110110
00000101
11111010
00000011
11110011
00001010
,
00001100
00001010
00001001
00000011
00001100
00000011
00001100
00001010
,
00001001
00000101
00001001
00001010
00001001
00000011
00001001
00001001
,
20021010
30030000
20020101
30030000
20020011
30030000
20021100
00000000
00001010
30030000
20020101
00000000
00001001
30030000
20020110
30030000
,
20020110
30030000
20021001
30030000
20020011
30030000
20021010
00000000
00000101
30030000
20020101
00000000
00000011
00000000
00001100
30030000
,
11111001
00000100
00001000
00000100
00001000
00000000
00000000
00000000
11111001
00000010
00001000
00000010
00001000
00000000
00000000
00000000
,
11111100
00000001
00000010
00000100
00001000
00000010
00000100
00000001
00001000
00000001
00000010
00000100
11111001
00000000
00000000
00000000
,
11111010
00000001
00001000
00000001
00001000
00000000
00000000
00000000
11111010
00000001
00001000
00000001
00001000
00000000
00000000
00000000
,
11111010
00000001
00001000
00000001
00001000
00000001
00000010
00000100
00001000
00000010
00000100
00000001
11111100
00000000
00000000
00000000
,
11110011
00000000
00000000
00000100
00000000
00000000
00000000
00000000
00001000
00000000
00000000
00000000
00000001
00000000
00000000
00000000
00000100
00000000
00000000
00000000
00000010
00000000
00000000
00000000
11111100
00000000
00000000
00000001
00000000
00000000
00000000
00000000
00000010
00000000
00000000
00000000
00000100
00000000
00000000
00000000
00000001
00000000
00000000
00000000
00000010
00000000
00000000
00000000
,
11111001
00000010
00001000
00000001
00000100
00000010
00000100
00000010
00000100
11111010
00000000
00000000
,
11111001
00000000
00000000
00000010
00000000
00000000
00000000
00000000
00001000
00000000
00000000
00000000
00000010
00000000
00000000
00000000
00000100
00000000
00000000
00000000
00000001
00000000
00000000
00000000
11111010
00000000
00000000
00000100
00000000
00000000
00000000
00000000
00000001
00000000
00000000
00000000
00001000
00000000
00000000
00000000
00000010
00000000
00000000
00000000
00000100
00000000
00000000
00000000
,
11111001
00000010
00000100
00001000
00000010
00000100
00000001
00001000
00000001
00000010
00000100
00000001
22222200
00000000
00000000
33333300
,
11001000
00000100
00001000
00000010
11001000
00000001
00000100
00000010
11001000
00000001
11000010
00000100
11001000
00000001
00000010
00000001
,
11001000
00000100
00001000
00000010
11000100
00000010
00001000
00000001
11000100
00000010
11000100
00000001
22002200
00000000
00000000
33003300
,
10010001
00000010
00000100
00001000
10010001
00000010
00000100
00001000
10010100
00001000
10010010
00001000
10010001
00000100
00001000
00000001
,
10010100
00000010
00001000
00000001
10010010
00000100
00001000
00000010
10010200
00000000
10010000
00000300
10012002
00000000
00000000
00003003
,
11011101
00001101
11010000
00001001
11010000
11010110
11010110
00000110
,
11012020
00000000
00003030
00002020
11010000
00003030
00002020
00003030
11010202
00000000
11010000
00000000
11010000
00000000
00000000
00000303
,
11110001
00000010
00000100
00001000
11110010
00000100
00000001
00001000
11110001
00000010
11110100
00001000
11110010
00000100
00000001
00001000
,
11110100
00000010
00001000
00000001
11111000
00000100
00000010
00000001
11110100
00000010
11111000
00000001
11110100
00000010
00001000
00000100
,
20021000
00000000
00000000
30030000
20020000
00000000
00000000
30030000
20020000
00000000
00000000
30030000
11111101
00000000
11111101
00000000
,
11111101
00000000
11111101
00000000
11111101
00000000
22222202
00000000
00000000
33333303
20022002
30033003
20022002
30033003
20022002
30033003
,
00000002
00000023
00000230
00002300
,
00023000
00000000
00000000
00000000
00230000
00000000
02300000
00000000
00000000
03000000
10011001
00000000
10011001
00000000
10011001
00000000
,
00000001
00000000
00000010
00000000
00000100
00000000
20021000
00000000
00000000
30030000
10000000
00000000
10000000
00000000
10000000
00000000
,
01000000
01000000
01000000
00100000
00100000
00100000
00010000
00010000
,
11111000
11111000
11111000
11111100
11111100
11111100
11111101
11111101
,
11111000
00000010
11111000
00000000
11111001
00000000
11111001
00000000
11110100
00000001
11110100
00000000
11110110
00000000
11110110
00000000
,
22220001
00000010
33330100
00001000
00000010
00000100
00000001
00001000
00000001
00000010
00000100
00001000
00000010
00000100
00000001
00001000
,
22220100
00000010
33331000
00000001
00001000
00000100
00000010
00000001
00000100
00000010
00001000
00000001
00001000
00000100
00000010
00000001
,
22221000
00000001
33330010
00000100
00001000
00000010
00000100
00000001
00000010
00000100
00001000
00000010
00000100
00000001
00001000
00000001
,
22220010
00000100
00001000
00000010
00001000
00000100
00000010
00001000
00000001
00000010
00000100
00001000
00000001
00000010
00000100
33331000
,
22220001
00000010
33330100
00001000
00000010
00000100
00000001
00000010
00000001
00001000
00000100
00001000
00000010
00001000
00000001
00000100
,
22220010
00000100
33330001
00000010
00000100
00000010
00000001
00001000
00000100
00000010
00001000
00000100
00001000
00000001
00000010
00000100
,
22220001
00000010
33330001
00001000
00000100
00001000
00000010
00000100
00000001
00001000
00000100
00001000
00000001
00000010
00000100
00001000
,
22220001
00000010
00000100
00001000
00000001
00000010
00000100
00001000
00000100
00000010
00000001
00001000
00000001
00000100
00000010
33330100
,
20201000
30300011
20201000
30300011
20201000
30300011
20201000
30300011
20201000
30300011
20201000
30300011
20201000
30300011
20201000
30300011
,
20201000
30300011
20201000
30300011
20201000
30300011
20201000
30300011
20201000
30300011
20201000
30300011
20201000
30300011
20201000
30300011
,
02020100
03031001
02020100
03031001
02020100
03031001
02020100
03031001
02020100
03031001
02020100
03031001
02020100
03031001
02020100
03031001
,
02020100
03031001
02020100
03031001
02020100
03031001
02020100
03031001
02020100
03031001
02020100
03031001
02020100
03031001
02020100
03030011
,
20021000
30030011
20021000
30030011
20021000
30030011
20021000
30030011
20021000
30030011
20021000
30030011
20021000
30030011
20021000
30030011
,
20021000
30030011
20021000
30030011
20021000
30030011
20021000
30030011
20021000
30030011
20021000
30030011
20021000
30030011
20021000
30030011
,
11011000
00000001
11010010
00000100
11011000
00000001
11010010
00000100
11011000
00000001
11010010
00000100
11011000
00000001
11010010
00000100
,
11011000
00000001
11010010
00000100
11011000
00000001
11010010
00000100
11011000
00000001
11010010
00000100
11011000
00000001
11010010
00000100
,
11111000
00000100
11110010
00000001
11111000
00000100
11110010
00000001
11111000
00000100
11110010
00000001
11111000
00000100
11110010
00000001
,
11111000
00000100
11110010
00000001
11111000
00000100
11110010
00000001
11111000
00000100
11110010
00000001
11111000
00000100
11110010
00000001
,
10001000
00000010
10000100
00000001
10001000
00000100
10001000
00000001
10000010
00000001
10001000
00000001
10000010
00000100
10001000
00000001
,
10000010
00000001
10000100
00000001
10001000
00000010
10000100
00000001
10001000
00000010
10000100
00000001
10000010
00000100
10001000
00000100
,
11000001
00000010
11000100
00001000
11000001
00000010
11000100
00001000
11000001
00000010
11000100
00001000
11000001
00000010
11000100
00001000
,
11000001
00000010
11000100
00001000
11000001
00000010
11000100
00001000
11000001
00000010
11000100
00001000
11000001
00000010
11000100
00001000
,
11010001
00000010
11010100
00001000
11010001
00000010
11010001
00000100
11010001
00001000
11010001
00000100
11010010
00001000
11010001
00001000
,
11010100
00001000
11010100
00001000
11010010
00001000
11010010
00001000
11010001
00000100
11010001
00000100
11010010
00001000
11010001
00000010
,
11110100
00001000
11110001
00000100
11110001
00001000
11110010
00001000
11110100
00000001
11110100
00000010
11111000
00000001
11110100
00000010
,
11111000
00000100
11111000
00000010
11111000
00000001
11111000
00000010
11111000
00000100
11110010
00000001
11111000
00000001
11110010
00000100
,
11111000
00000010
11110100
00000001
11111000
00000010
11110100
00000001
11111000
00000010
11110100
00000010
11110100
00000001
11111000
00000001
,
11111000
00000001
11110010
00000001
11111000
00000100
11111000
00000010
11110100
00000010
11111000
00000010
11111000
00000010
11110100
00000001
,
11111000
00000100
11110010
00000001
11111000
00000100
11110010
00000001
11111000
00000001
11110010
00000100
11111000
00000001
11110010
00000100
,
11111000
00000100
11110010
00000001
11110010
00000100
11111000
00000100
11110010
00000001
11110010
00000100
11111000
00000100
11110010
00000100
,
22220010
00001000
00000010
33331000
22220010
00001000
00000010
33331000
22220010
00001000
00000010
33331000
22220010
00001000
00000010
33331000
,
22220001
00000000
00000000
00000100
00000000
00000000
00000001
00000000
00000000
33330100
00000000
00000000
22220001
00000000
00000000
00000100
00000000
00000000
00000001
00000000
00000000
33330100
00000000
00000000
10010001
00000000
00000000
00000100
00000000
00000000
00010001
00000000
10000000
00000100
00010000
00000000
10000001
00000000
00000000
00000000
00000000
00000000
00000000
00000000
00000000
00000000
00000000
00000000
,
20021000
30030010
20020100
30030001
20021000
30030010
20020100
30030001
20021000
30030100
20021000
30030100
20020010
30030001
20020010
30030001
,
20020000
30030000
20020000
00000000
00000000
30030000
20021010
30030000
20021000
30030100
20021000
30030100
20021000
00000000
00000000
30030000
,
20021001
30030000
20021000
30030010
20021000
30030100
20021000
30030000
20021001
30030000
20020110
30030000
20021100
30030000
20020011
30030000
,
20021001
30030000
20021001
30030000
20020101
00000000
00000000
30030000
20020101
30030000
20020110
30030000
20021001
00000000
00000000
30030000
,
20020001
00000010
00000100
30031000
20020001
30030010
20020100
00001000
00000010
30030100
20020001
30031000
20020001
30030010
20020100
30031000
,
20020100
30031000
20020010
30031000
20020100
30031000
20020100
30030010
20020001
30031000
20020100
30030010
20020001
00001000
00000010
30030100
,
20020001
30031000
20020010
30031000
20020010
30030100
20020001
30030010
20020100
30031000
20020001
30030010
20020100
30031000
20020001
30030010
,
20020100
30031000
20020001
30031000
20020002
30030003
20021100
30030000
20021000
30030010
20021000
30030010
20022000
30033000
20020001
30030000
,
00020001
00000010
00000100
00001000
00200001
00000010
00000100
00001000
02000001
00000010
00000100
00001000
20000001
00000010
00000100
33331000
,
22222002
00000000
00000000
33333003
22222002
00000000
00000000
33333003
22222002
00000000
00000000
33333003
22222002
00000000
00000000
33333003
,
00001000
00000100
00000010
00000001
00001000
00000100
00000010
00000001
00001000
00000100
00000010
00000001
00002000
00000000
00000000
00003000
,
22220110
00000000
00000110
00000000
00000110
00000000
00000110
00000000
00000110
00000000
00000110
00000000
00000110
00000000
00000110
33330000
,
22221000
00000000
00000000
00000000
00000010
00000000
00000000
00000000
00001000
00000000
00000000
00000000
00000001
00000000
00000000
00000000
00000010
00000000
00000000
00000000
00000100
00000000
00000000
00000000
00000001
00000000
00000000
00000000
00000100
00000000
00000000
00000000
00000010
00000000
00000000
00000000
00001000
00000000
00000000
00000000
00000100
00000000
00000000
00000000
00001000
33330000
00000000
00000000
,
22220010
00000000
00000000
00000000
00000001
00000000
00000000
00000000
00001000
00000000
00000001
00000000
00001000
00000000
00000000
00000000
00000100
00000000
00000000
00000000
00001000
00000000
00000000
00000000
00000010
00000000
00000000
00000000
00000001
00000000
00000000
00000000
00000010
33330000
00000000
00000000
20022200
00000000
00000000
00000000
00000000
00000000
00000000
00000000
00003300
30030000
00000000
00000000
,
20020000
00000000
30030000
20020000
00000000
30030000
20020000
30030000
20020000
30030000
20020000
30030000
20020000
30030000
20020000
30030000
,
22221000
00000010
00001000
00000010
00001000
00000010
00001000
00000010
00000100
00000001
00000100
00000001
00000100
00000001
00001000
33330001
,
10010010
00000100
10011000
00000001
10010010
00000001
10011000
00000100
10011000
00000010
10010100
00000010
20022200
00000000
00000000
30033300
,
10010001
00000010
10010100
00001000
10010001
00000010
10010100
00001000
10010001
00001000
10010100
00000010
22222202
00000000
00000000
33333303
,
10011000
00000010
10011000
00000010
10011000
00000100
10011000
00000100
10011000
00000010
10011000
00000010
10011000
00000100
10011000
00000100
,
10011000
00000001
10010010
00000100
20001000
00000010
00020200
30030300
10010001
00000010
10010100
00001000
20000010
00000100
00020002
30030003
,
10011001
10011001
10011001
20022002
30033003
10010011
10010011
10010011
,
20020022
00000000
00001000
30030033
10010110
00000000
20022002
00000000
30033003
00000000
10010101
00000000
20022020
00000000
00000000
30033030
,
10010110
00000000
10010110
00000000
10010110
00000000
20020220
00000000
00000000
30030330
10000001
00000000
10000001
00000000
10000001
00000000
,
20000002
00000000
00022000
00000000
30033003
00000000
10010000
00000000
10011000
00000100
10011000
00000100
20021000
00000000
00000000
30030000
,
11011001
00000000
11010110
00000000
11011000
00000010
22020100
00000000
00001010
33030000
11010100
00000000
11010001
00000010
11010100
00001000
,
11010001
00000000
11011010
00000000
11010100
00000001
22020100
00000000
00001001
33030000
11011010
00000000
11010100
00001000
11010010
00001000
,
11010100
00000000
11011001
00000000
11010001
00001000
11010100
00000000
11011010
00000000
11010101
00000000
11011000
00000100
11010010
00000001
,
11011000
00000000
11010101
00000000
11010010
00001000
11010100
00000000
11010011
00000000
11011100
00000000
11010001
00001000
11010010
00000100
,
11010001
00000010
00000100
00001000
00000001
00000010
00000100
00001000
00000001
00000010
00000100
00001000
00000010
00000100
00000010
00000100
,
00000010
00000100
00000001
00001000
00000010
00000100
00000001
00001000
00000010
00000100
00000001
00001000
00000010
00000100
00000010
00000100
,
00001000
00000100
00000010
00000001
00001000
00000100
00000010
00000001
00001000
00000100
00000010
00000001
00001000
00000100
00000010
00000001
,
00001000
00000001
00000100
00000010
00001000
00000001
00000100
00000010
00000001
00000010
00000100
00001000
00000001
00000010
00000100
00001000
,
11110001
00000100
00000010
00001000
00000001
00000100
00000010
00001000
11110001
00000010
00000100
00001000
00000001
00001000
00000100
00000010
,
11111000
00000001
00000010
00000100
00001000
00000001
00000010
00000100
11111000
00000010
00000100
00000010
00001000
00000100
00001000
00000010
,
11111000
00000001
00001000
00000010
00001000
00000001
00000100
00000010
11111000
00000010
00000100
00000001
00001000
00000010
00000100
00000001
,
11110100
00000001
00000010
00000100
00001000
00000100
00000010
00000001
22220010
00000100
00001000
00000100
00000010
00000001
00001000
33330100
,
10010001
00000010
10010100
00001000
10010010
00000100
10010001
00001000
10010100
00001000
10010010
00001000
10010010
00001000
10010001
00000100
,
10010010
00000100
10010010
00001000
10010001
00001000
10010010
00000100
10010001
00000010
10010100
00001000
20020010
30030100
20020001
30030010
,
01100100
00001000
01100010
00000100
01100010
00000100
01100001
00001000
01100001
00000010
01100100
00001000
01100001
00000100
01100001
00000100
,
01100010
00001000
01100001
00000100
01100010
00001000
01100010
00000100
02200001
00001000
00000010
00000100
00000001
00001000
00000100
03301000
,
10010100
00001000
10010001
00000010
10010001
00000010
10010001
00001000
10010010
00001000
10010001
00000100
10010001
00000100
10010001
00000010
,
10010001
00000100
10010001
00001000
10010010
00001000
10010010
00000100
20020010
00001000
00000001
30030100
11110010
00001000
11110100
00000010
,
22220001
00000010
00000100
00001000
00000001
00000010
00000100
00001000
00000001
00000010
00000100
00001000
00000001
00000010
00000100
33331000
,
22220001
00001000
00000100
00000010
00000001
00001000
00000100
00000010
00000001
00001000
00000100
00000010
00000001
00001000
00000100
33330010
,
11111000
00000100
11111000
11110100
11111000
00000100
11111000
00000100
11111000
00000010
11111000
00000010
11111000
00000010
11111000
00000010
,
11110100
00000001
11110100
11110001
11110100
00000001
11110100
00000001
11111000
00000010
11111000
00000010
22221000
00000010
00001000
33330010
,
11110100
00000010
11110100
00000010
11110100
00000010
11110100
00000010
11111000
00000001
11111000
00000001
11111000
00000001
11111000
00000001
,
11110010
00000001
11110010
00000001
11110010
00000001
11110010
00000001
22221000
00000100
00001000
00000100
00001000
00000100
00001000
33330100
,
20021000
00000010
00000100
30030001
20021000
00000100
00001000
30030001
20020010
00000001
00000100
30030010
10010100
00000010
10011000
00000001
,
10011000
00000010
10010100
00000001
10011000
00000010
20020100
00000001
00001000
00000001
00000010
30030100
10011000
00000001
10010010
00000100
,
10011000
00000100
10010010
00000001
10011000
00000100
10010010
00000001
10011000
00000100
10011000
00000010
10010100
00000001
10011000
00000001
,
10011000
00000001
10011000
00000001
10010100
00000010
10010100
00000010
20020200
00000000
00000000
00000000
00000000
00000000
00000000
30030300
,
10010001
00000010
10010100
00001000
10010001
00000010
10010100
00001000
10010001
00001000
10010100
00000010
10010001
00001000
10010100
00000010
,
10010001
00000010
10010100
00001000
10010100
00000010
10010001
00000010
10010100
00001000
10010100
00000010
10010001
00001000
10010010
00001000
,
10010010
00001000
20020010
00001000
00000010
30030100
10010001
00000100
10010001
00001000
20020010
00001000
00000001
30030100
10010010
00001000
,
10010001
00000010
10010100
00001000
10010100
00000010
10010001
00001000
10010010
00001000
10010100
00000010
20020001
00001000
00000001
30030010
,
00020100
00001000
00000010
00000100
00000001
00001000
00000100
00000010
00000001
00001000
00000100
00001000
00000010
00001000
00000001
00000100
,
00200010
00000100
00000010
00000100
00000001
00000010
00000100
00001000
00000010
00000100
00000010
00001000
00000100
00000010
00000001
00001000
,
02000001
00000010
00000100
00001000
00000100
00000010
00000001
00001000
00000100
00000010
00000001
00001000
00000001
00000010
00000100
00001000
,
20000001
00000010
00000100
33331000
00020001
00000010
00000100
00001000
02200001
00000010
00000100
00001000
20000001
00000010
00000100
33331000
,
22222002
00000000
00000000
00000000
00000000
00000000
00000200
00000000
00000000
00000000
00000300
00000000
00000100
00000000
00000000
33333003
,
22222102
00000000
00000100
00000000
00000000
00000000
00000000
00000000
00000100
00000000
00000000
00000000
00000100
00000000
00000000
33333003
,
22222102
00000000
00000000
00000000
00000000
00000000
00000100
00000000
00000000
00000000
00000000
00000000
00000100
00000000
00000000
33333003
,
22222102
00000000
00000100
00000000
00000000
00000000
00000000
00000000
00000100
00000000
00000000
00000000
00000100
00000000
00000000
33333003
,
22222102
00000000
00000100
00000100
00000000
00000000
00000100
00000000
,
00000100
00000000
00000000
00000000
00000100
00000000
00000100
00000000
00000000
00000000
00000000
00000000
00000100
00000000
00000000
33333003
,
00020001
00000010
00000100
00001000
00000001
00000010
00200100
00001000
00000001
00000010
00000100
00001000
02000001
00000010
00000100
00001000
,
20000001
33330100
22220010
00001000
00000010
00000100
00000001
33331000
22220001
00000100
00000010
33331000
22220010
00000100
00000001
33330010
,
22221000
00000101
00001000
00000101
00001000
33330101
22221000
00000101
00001000
00000011
00001000
33330011
22221000
00000011
00001000
33330011
,
22220100
33331001
22220100
00001001
00000100
00001001
00000100
33330011
22221000
00000011
00001000
33330011
22221000
00000011
00001000
33330011
,
22221000
00000011
00001000
00000011
00001000
33330011
22221000
00000011
00001000
00000011
00001000
33330011
22221000
00000011
00001000
33330011
,
22220100
33330011
22220100
00000011
00000100
00000011
00000100
33330011
22221000
00000101
00001000
33330101
22221000
00000101
00001000
33330101
,
22221000
00000100
00000010
33330001
22220010
33330100
22221000
00000100
00000010
00000001
00000010
33330100
22221000
00000100
00000010
33330001
,
22220010
00000100
00001000
33330100
22220010
33330001
22220010
00000100
00001000
00000100
00000010
33330001
22220010
00000100
00001000
33330100
,
00020010
00000001
00001000
00000100
00000010
00000001
00201000
00000100
00000010
00000001
00001000
00000100
02000010
00000001
00001000
00000100
,
20000001
33330010
22220100
00001000
00000001
00000010
00000100
33331000
22220001
00000010
00000100
33331000
22220001
00000010
00000100
33331000
,
22220001
00000000
00000011
00000000
00001000
33330100
22221000
00000000
00000010
00000000
00000101
33330000
22220001
00001000
00000100
33330000
,
22220010
33330000
22221100
00000000
00000010
00000100
00000001
33330000
22220010
00000000
00000101
33330000
22221000
00000001
00001000
33330000
,
22220010
00000000
00000101
00000000
00000100
33330010
22220001
00000000
00001000
00000000
00000101
33330000
22220010
00001000
00000100
33330000
,
22221000
33330000
22220101
00000000
00000001
00000010
00000100
00000000
00000010
00000000
00000110
33330000
22220001
00001000
00000010
33330000
,
22220100
00000000
00001010
33330000
22220001
33331000
22220100
00000000
00000001
00000000
00000110
33330000
22220001
00000100
00000010
33330000
,
22221000
00000000
00000101
00000000
00001000
00000010
00000100
33330000
22220001
00000000
00001100
33330000
22220010
00000100
00000001
33330000
,
22221000
00000010
00001000
33330001
22220100
33330001
22221000
00000010
00000100
00000001
00001000
00000001
00000010
00000100
00001000
00000010
,
00000100
00000010
00001000
00000010
00001000
00000010
00000100
00000001
33331000
00000010
00000100
00000010
11111000
00000001
00000010
00000100
,
22221001
33330000
00000000
00000000
11110000
00000000
22220000
00000000
00000000
33330000
00000000
00000000
11110000
00000000
00000000
00000000
,
22221101
00000000
00000000
00000000
33330000
00000000
00000000
22220000
00000000
33330000
00000000
22220000
00000000
00000000
33330000
00000000
,
22220001
00000010
00000100
33331000
11110001
00000010
22220100
00001000
00000001
00000010
00000100
00001000
00000001
00000010
00000100
00001000
,
00000010
00000000
00000000
00002002
00000000
00003003
33332002
00000000
00003003
22222202
00000000
00000000
00000000
00000000
00000000
00000000
,
00000000
33333303
00000000
00000000
00000000
00000000
00000000
00000000
;

//---------------dance-double - 8-Arrowed----------------
#NOTES:
     dance-double:
     8-Arrowed:
     Medium:
     11:
     1.000,1.000,1.000,1.000,0.074,2520.000,1452.000,850.000,0.000,1132.000:
10010000
00000000
00000010
00000010
00000010
00000010
10010000
10010000
,
10010000
00000000
00001001
00001001
00001001
00001001
00001001
00000000
,
20020000
00000000
00000000
00000000
,
00000001
00000100
00000010
00000100
00000010
00000100
30030001
00000000
,
10011001
00000000
00000010
00000100
00000010
00000100
00000001
00000000
,
20020001
00000000
00000000
00000000
00000100
00000000
00000010
00000000
00000010
00000000
00000010
00000000
00001000
00000000
00000000
30030000
,
00011000
00011000
00011000
00011000
,
00011000
00000000
00011000
00000000
00011000
00001000
00010000
00000000
,
00000010
00000100
00000010
00000100
00000010
00000100
00000010
00000100
,
01000000
00100000
01000000
00100000
01000000
00100000
01000000
00100000
,
00000010
00000001
00000100
00000010
00000100
00000010
00000001
00001000
,
10010001
00000000
10010001
00000000
10010001
00000000
10010001
00000000
10010001
00000000
10010001
00000000
20020002
00000000
00000000
30030003
,
01000000
01000000
01000000
01000000
01000000
01000000
01000000
01000000
,
00000101
00000101
00000101
00000101
00000101
00000101
00000101
00000101
,
11000000
11000000
11000000
11000000
11000000
11000000
11000000
11000000
,
00110001
00000000
00110001
00000000
00111000
00000000
00111000
00000000
00110001
00000000
00110001
00000000
00220002
00000000
00000000
00330003
,
00010100
00000000
00010100
00000000
00011000
00000000
00010100
00000000
00010010
00000000
00011000
00000000
00010010
00000000
00010002
00000003
,
00110001
00000000
00110100
00000000
00110001
00000000
00110100
00000000
00110100
00000000
00110001
00000000
00110010
00000000
00112000
00003000
,
00111000
00000000
00110010
00000000
00110010
00000000
00111000
00000000
00110100
00000000
00110001
00000000
00110001
00000000
00110020
00000030
,
10001000
00000000
10001000
00000000
10000100
00000000
10000100
00000000
10001000
00000000
10001000
00000000
10000002
00000000
00000000
00000003
,
10010001
00000000
10010100
00000000
10010001
00000000
10010100
00000000
10010001
00000000
10010100
00000000
10010010
00000000
10010200
00000300
,
10010010
00000000
10011000
00000000
10010100
00000000
10010001
00000000
10010100
00000000
10010001
00000000
10010001
00000000
10010020
00000030
,
10011000
10010010
10011000
10010010
10011000
10011000
10010001
10010010
,
20000002
00000000
32000023
00000000
,
03022030
00000000
00000000
00000000
00000000
00000000
00000000
00000000
00000000
00000000
00000000
00000000
00000000
00000000
00000000
00033000
,
10001000
10001000
10001000
10001000
10001000
10001000
10001000
10001000
,
00011001
00010001
00010001
00010001
00010001
00010001
00010001
00010001
,
01001001
01001000
01001000
01001000
01001000
01001000
01001000
01001000
,
00101001
00100001
00100001
00100001
00100001
00100001
00100001
00100001
,
10011001
10010100
10011000
10010100
10011000
10010100
10011000
10010100
,
10011000
10010010
10011000
10010010
10011000
10010010
10011000
10010010
,
10011000
10010010
10011000
10010010
10011000
10010010
10011000
10010010
,
10011000
10011000
10011000
10011000
10011000
10011000
10011000
10011000
,
10011000
10011000
10011000
10011000
10011000
10011000
10011000
10011000
,
10011000
10011000
10011000
10011000
10011000
10011000
10011000
10011000
,
10010100
10010100
10010100
10010100
10010100
10010100
10010100
10010100
,
10010000
00001001
00000000
10010000
10010000
00000000
10010000
10010000
,
00001000
00001000
10010000
10010000
00000001
00000001
10010000
10010000
,
00000010
00000010
10010000
10010000
00000100
00000100
10010000
10010000
,
10010001
10010100
10010010
10010001
10010010
10010001
10010001
10010100
,
10010001
10011000
10010001
10011000
10010001
10011000
10010001
10011000
,
20020001
00000000
00000100
00000000
00000001
00000000
00000100
00000000
00000001
00000000
00000100
00000000
00000001
00000000
00000100
30030000
,
00022002
00000000
00000000
00033003
00022002
00000000
00000000
00033003
00022002
00000000
00000000
00033003
00022002
00000000
00000000
00033003
,
00010100
00010010
00010001
00010010
00010001
00010010
00010001
00010010
,
00020001
00000000
00000010
00030000
00010001
00000000
00020010
00000000
00000001
00030000
00020100
00000000
00000001
00000000
00000100
00030000
,
00010100
00010001
00010010
00010100
00010001
00010100
00010001
00010100
,
00020200
00000000
00000300
00030002
00020000
00030003
00022000
00000000
00000000
00030000
00000000
00000000
00000000
00000000
00000000
00003000
,
10011000
10011000
10011000
10011000
10011000
10011000
10011000
10011000
,
20021000
00000000
00001000
30030000
20021000
30030000
20021000
00000000
00001000
30030000
20021000
00000000
00001000
00000000
00001000
30030000
,
10011000
10011000
10011000
10011000
10011000
10011000
10011000
10011000
,
20021000
00000000
00001000
30030000
20021000
30030000
20021000
00000000
00001000
00000000
00001000
00000000
00001000
00000000
00001000
30030000
,
00011000
00011000
00011000
00011000
00011000
00011000
00011000
00011000
,
00011000
00011000
00011000
00011000
00011000
00011000
00011000
00011000
,
00011000
00011000
00011000
00011000
00011000
00011000
00011000
00011000
,
00011000
00011000
00011000
00011000
00011000
00011000
00011000
00011000
,
01011000
01011000
01011000
01011000
01011000
01011000
01011000
01011000
,
01011000
01011000
01011000
01011000
01011000
01011000
01011000
01011000
,
01011000
01011000
01011000
01011000
01011000
01011000
01011000
01011000
,
20020001
00000000
00000100
00000000
00000001
00000000
00000100
00000000
00000001
00000000
00000100
00000000
00000001
00000000
00000100
30030000
,
10010001
10010010
10010001
10010100
10010001
10010001
10010100
10010001
,
20020100
00000000
00000001
30030000
10010100
00000000
20020001
00000000
00000001
30030000
20020100
00000000
00000001
00000000
00000010
30030000
,
10010010
10010001
10010100
10010010
10010001
10010010
10010001
10010001
,
20020100
00000000
00000100
30030000
10011000
00000000
20020010
00000000
00000100
00000000
00001000
00000000
30030001
00000000
00001000
00000000
,
10010010
10010001
10010010
10010001
10010001
10010100
10010001
10010100
,
20020010
00000000
00000010
30030000
10010100
00000000
20020010
00000000
00000001
30030000
20020010
00000000
00001000
00000000
00000100
30030000
,
10011000
10010100
10010010
10011000
10010010
10010010
10010010
10011000
,
20021000
00000000
00001000
30030000
10010010
00000000
20021001
00000000
00001000
00000000
00001000
00000000
30031000
00000000
00001000
00000000
,
00021000
00000000
00000100
00000000
00000100
00030000
00020001
00000000
00000010
00000000
00000010
00030000
00020100
00000000
00001000
00030000
,
00020001
00000000
00000100
00000000
00000010
00030000
00020100
00000000
00000001
00000000
00000001
00030000
00020010
00000000
00001000
00030000
,
00020010
00000000
00000001
00000000
00000100
00030000
00020001
00000000
00000010
00000000
00000010
00030000
00020100
00000000
00001000
00030000
,
00020001
00000000
00000010
00000000
00000010
00000000
00000010
00000000
00000001
00000000
00000001
00000000
00000001
00000000
00000000
00030000
,
00020001
00000000
00000100
00030000
00020100
00030000
00020010
00030000
00020010
00000000
00000010
00030000
00020001
00000000
00001000
00030000
,
00020001
00030000
00020001
00000000
00000001
00030000
00020010
00000000
00001000
00000000
00001000
00030000
00020001
00000000
00000010
00030000
,
00020100
00000000
00001000
00030000
00021000
00030000
00020100
00000000
00000010
00000000
00000010
00030000
00020001
00000000
00001000
00030000
,
00020001
00000000
00000100
00030000
00020001
00030000
00020100
00030000
00020001
00000000
00000100
00000000
00000001
00000000
00000100
00030000
,
00020001
00000001
00000001
00001000
00000001
00001000
00001000
00001000
,
00000001
00000000
00000100
00000000
00000010
00000000
00000001
00000000
00001000
00000000
00000100
00000000
00001000
00000000
00001000
00030000
,
00200100
00000010
00000100
00001000
00000001
00000100
00001000
00001000
,
00000010
00000000
00000010
00000000
00001000
00000000
00000001
00000000
00000001
00000000
00000001
00000000
00001000
00000000
00000100
00300000
,
02000010
00000001
00001000
00001000
00000001
00000010
00000010
00000010
,
00000100
00000000
00000010
00000000
00001000
00000000
00001000
00000000
00000010
00000000
00000010
00000000
00001000
00000000
00000010
03000000
,
20000100
00001000
00000001
00000100
00000010
00001000
00000010
00000010
,
00001000
00000000
00000010
00000000
00000010
00000000
00000001
00000000
00001000
00000000
00001000
00000000
00000010
00000000
00000001
30000000
,
00021000
00000010
00001000
00001000
00001000
00000010
00001000
00001000
,
00001000
00000000
00000001
00000000
00000100
00000000
00000100
00000000
00000100
00000000
00000010
00000000
00000001
00000000
00000001
00030000
,
00200001
00000010
00001000
00001000
00001000
00001000
00000001
00000100
,
00000001
00000000
00000100
00000000
00000010
00000000
00000001
00000000
00000010
00000000
00000100
00000000
00000100
00000000
00000100
00300000
,
02000001
00000100
00000010
00000001
00000100
00000100
00000010
00000010
,
00000001
00000000
00000010
00000000
00000001
00000000
00000010
00000000
00000001
00000000
00000010
00000000
00000001
00000000
00000100
03000000
,
10000001
00011000
10000001
00011000
10000001
00011000
10000001
00011000
10000001
00011000
10000001
00011000
10000001
00011000
10000001
00011000
,
10000001
00000000
00000000
00000000
20000002
00000000
00000000
00000000
32000023
00000000
00000000
00000000
03022030
00000000
00000000
00033000
,
00021000
00000000
00001000
00000000
00001000
00030000
00021000
00000000
00001000
00000000
00001000
00030000
00021000
00000000
00001000
00030000
,
00011000
00000000
00021000
00000000
00001000
00030000
00001000
00000000
00021000
00000000
00001000
00030000
00021000
00000000
00001000
00030000
,
00021000
00000000
00001000
00000000
00001000
00030000
00021000
00000000
00001000
00000000
00001000
00030000
00021000
00000000
00001000
00030000
,
00011000
00000000
00021000
00000000
00001000
00000000
00001000
00030000
00021000
00000000
00001000
00030000
00021000
00000000
00001000
00030000
,
20021000
00000000
00000010
30030000
10011000
00000000
20020010
00000000
00001000
00000000
00000010
30030000
20021000
00000000
00000010
30030000
,
20021000
00000000
00000100
30030000
10011000
00000000
20020100
00000000
00001000
00000000
00000100
30030000
20021000
00000000
00000100
30030000
,
20021000
00000000
00000010
30030000
00021000
00000000
00000010
00000000
00001000
00000000
00000010
00030000
00021000
00000000
00000010
00030000
,
00021000
00030000
00020100
00000000
00001000
00000000
00000100
00030000
20021000
00000000
00000100
30030000
20021000
00000000
00000100
30030000
,
20021000
00000000
00000001
00000000
00000100
30030000
20021000
00000000
00000010
00000000
00000100
30030000
20020001
00000000
00000010
30030000
,
10010100
00000000
20020001
00000000
00001000
00000000
00000010
30030000
20020100
00000000
00000001
30030000
20021000
00000000
00001000
30030000
,
20020010
00000000
00000001
00000000
00001000
30030000
20021000
00000000
00000001
00000000
00001000
30030000
20020001
00000000
00000001
30030000
,
10010100
00000000
20020010
00000000
00001000
00000000
00001000
00000000
00001000
00000000
00000010
30030000
20021000
00000000
00001000
30030000
,
20020100
00000000
00000000
30030000
00011000
00000000
00011000
00000000
00000000
00000000
00000000
00000000
10000001
00000000
00000000
00000000
,
10011001
00000000
10011001
10011001
,
00020010
00000000
00000001
00030000
00010001
00000000
00020100
00000000
00000010
00030000
00010001
00000000
00010100
00000000
00010001
00000000
,
00020100
00000000
00000010
00030000
00010001
00000000
00020100
00000000
00000010
00030000
00010001
00000000
00010001
00000000
00010100
00000000
,
00020010
00000000
00000100
00030000
00010010
00000000
00020100
00000000
00000001
00030000
00010100
00000000
00010010
00000000
00010001
00000000
,
00020010
00000000
00000001
00030000
00010100
00000000
00020001
00000000
00000100
00030000
00010001
00000000
00011000
00000000
00011000
00000000
,
00221000
00000000
00001000
00330000
00110100
00000000
00221000
00000000
00000100
00330000
00110010
00000000
00111000
00000000
00110100
00000000
,
00220010
00000000
00001000
00330000
00111000
00000000
00221000
00000000
00001000
00330000
00111000
00000000
00111000
00000000
00111000
00000000
,
00221000
00000000
00001000
00330000
00111000
00000000
00221000
00000000
00000010
00330000
00111000
00000000
00110100
00000000
00111000
00000000
,
00221000
00000000
00000010
00330000
00110001
00000000
00220010
00000000
00000001
00330000
00111000
00000000
00110001
00000000
00110001
00000000
,
00220001
00000000
00000100
00330000
00110001
00000000
00220100
00000000
00000001
00330000
00110010
00000000
00111000
00000000
00111000
00000000
,
00111000
00000000
00110100
00000000
00111000
00000000
00220100
00000000
00001000
00330000
00111000
00000000
00111000
00000000
00111000
00000000
,
00111000
00000000
00110010
00000000
00111000
00000000
00220010
00000000
00001000
00330000
00110100
00000000
00110010
00000000
00110001
00000000
,
00110001
00000000
00110100
00000000
00110001
00000000
00220100
00000000
00000001
00330000
00110010
00000000
00110100
00000000
00111000
00000000
,
00221000
00000000
00001000
00330000
00111000
00000000
00221000
00000000
00000010
00330000
00111000
00000000
00110100
00000000
00110100
00000000
,
00111000
00111000
00111000
00111000
00111000
00110010
00111000
00110010
,
00111000
00110010
00111000
00110010
00111000
00110010
00111000
00110010
,
00200200
00000000
00000000
00000000
00022000
00000000
00000000
00000000
00000000
00000000
00000000
00000000
00000000
00000000
00000000
00333300
,
10000001
10000100
10000100
10000001
10000001
10000010
10000010
10000010
,
20000010
00000000
00000001
30000000
10000010
00000000
20000001
00000000
00000010
30000000
20000001
00000000
00000100
00000000
00000010
30000000
,
10000010
10000010
10000001
10000010
10000001
10000100
10000100
10000001
,
10000001
00000000
10000010
00000000
10000100
00000000
20000010
00000000
00000010
00000000
00000100
00000000
00000001
00000000
00000001
30000000
,
10011000
10011000
10011000
10011000
10011000
10011000
10011000
10011000
,
20021000
00000000
00001000
30030000
10011000
00000000
20021000
00000000
00001000
30030000
20021000
00000000
00001000
00000000
00001000
30030000
,
10011000
10011000
10011000
10011000
10011000
10011000
10011000
10011000
,
20021000
00000000
00000100
30030000
10011000
00000000
20020010
00000000
00001000
00000000
00001000
00000000
00000100
00000000
00001000
30030000
,
00021000
00000000
00001000
00000000
00001000
00030000
00020100
00000000
00000100
00000000
00000100
00030000
00020001
00000000
00000001
00030000
,
00020001
00000000
00000001
00000000
00000001
00030000
00020100
00000000
00000100
00000000
00000100
00030000
00020001
00000000
00000001
00030000
,
00021000
00000000
00001000
00000000
00000001
00030000
00020010
00000000
00000100
00000000
00000100
00030000
20020001
00000000
00001000
30030000
,
20022020
00000000
00000000
00000000
00000000
00000000
00000000
00000000
00000000
00000000
00000000
00000000
00000000
00000000
00000000
30033030
,
10010010
00000000
00000010
00000000
10010100
00000000
10010001
00000000
20020100
00000000
00000010
30030000
20020010
00000000
00000001
30030000
,
20021000
00000000
00000001
30030000
10010001
00000000
20020001
00000000
00000100
00000000
00001000
30030000
20020001
00000000
00000100
30030000
,
20020001
00000000
00000100
30030000
10011000
00000000
20020010
00000000
00000100
00000000
00000100
30030000
20021000
00000000
00001000
30030000
,
00021000
00000000
00000001
00000000
00230100
00000000
02300001
00000000
23002002
00000000
00000000
00000000
00000000
00000000
00000000
30003003
,
00021000
00001000
00001000
00001000
00001000
00001000
00001000
00001000
,
00001000
00000000
00001000
00000000
00001000
00000000
00001000
00000000
00001000
00000000
00001000
00000000
00001000
00000000
00001000
00030000
,
00200100
00000100
00000100
00000100
00000100
00000100
00000100
00000100
,
00000100
00000000
00000100
00000000
00000100
00000000
00000100
00000000
00000100
00000000
00000100
00000000
00000100
00000000
00000100
00300000
,
02000010
00000010
00000010
00000010
00000010
00000010
00000010
00000010
,
00000010
00000000
00000010
00000000
00000010
00000000
00000010
00000000
00000010
00000000
00000010
00000000
00000010
00000000
00000010
03000000
,
20000001
00000001
00000001
00000001
00000001
00000001
00000001
00000001
,
00000001
00000000
00000001
00000000
00000001
00000000
00000001
00000000
00000001
00000000
00000001
00000000
00000001
00000000
00000001
30000000
,
00021000
00000100
00001000
00000010
00001000
00001000
00001000
00000100
,
00001000
00000000
00000100
00000000
00001000
00000000
00000010
00000000
00001000
00000000
00000010
00000000
00001000
00000000
00000100
00030000
,
00201000
00000100
00001000
00000010
00000100
00000100
00001000
00001000
,
00001000
00000000
00000100
00000000
00001000
00000000
00000100
00000000
00001000
00000000
00001000
00000000
00001000
00000000
00001000
00300000
,
02001000
00000100
00000100
00001000
00001000
00000100
00001000
00001000
,
00000100
00000000
00001000
00000000
00000010
00000000
00001000
00000000
00000100
00000000
00001000
00000000
00000100
00000000
00001000
03000000
,
00011000
00100100
00011000
00100100
00011000
00100100
00011000
00100100
00011000
00100100
00011000
00100100
00011000
00100100
00011000
00100100
,
00011000
00000000
00000000
00000000
00200020
00000000
00000000
00300030
02000200
00000000
00000000
03000300
00200020
00000000
00000000
00300030
,
20020001
00000000
00000010
00000000
00000010
30030000
20020001
00000000
00000010
00000000
00000001
30030000
20020001
00000000
00000001
30030000
,
20020100
30030000
20020100
00000000
00000100
00000000
00000001
30030000
20020100
00000000
00000001
30030000
20020001
00000000
00000010
30030000
,
20020010
00000000
00000010
00000000
00000001
30030000
20020010
00000000
00000001
00000000
00000100
30030000
20020100
00000000
00000001
30030000
,
20020010
30030000
20020001
00000000
00000100
00000000
00000100
30030000
20020001
00000000
00000001
30030000
20020010
00000000
00000001
30030000
,
20020001
00000000
00000001
30030000
20020001
30030000
20020001
00000000
00000001
00000000
00000001
30030000
20020001
00000000
00000001
30030000
,
20020010
00000000
00000010
30030000
20020010
30030000
20020010
00000000
00000010
00000000
00000010
30030000
20020010
00000000
00000010
30030000
,
20020100
00000000
00000100
00000000
00000100
30030000
00020100
00000000
00000100
00000000
00000100
00000000
00230100
00000000
00000100
00000000
,
02300001
00000000
23000001
00000000
00000001
00000000
00000001
30000000
20020001
00000000
00000001
30030000
20020001
00000000
00000001
30030000
,
20020001
00000000
00000100
00000000
00001000
30030000
20020100
00000000
00000010
00000000
00001000
30030000
20020001
00000000
00000010
30030000
,
10011000
00000000
20020001
00000000
00000100
00000000
00000100
30030000
20020010
00000000
00001000
30030000
20021000
00000000
00001000
30030000
,
20020001
00000000
00000100
00000000
00001000
30030000
20020001
00000000
00000100
00000000
00001000
30030000
20020001
00000000
00001000
30030000
,
10010010
00000000
20020001
00000000
00000001
00000000
00000001
00000000
00000010
00000000
00001000
30030000
20020100
00000000
00000100
30030000
,
10011001
00000000
00000000
00000000
,
10011001
00000000
00000000
00000000
,
00020010
00000000
00000001
00030000
00010010
00000000
20020001
00000000
00000010
00000000
00000001
00000000
00000010
00000000
00000001
30030000
,
00010000
00001000
00001000
00001000
00001000
00001000
00001000
00001000
,
00020010
00000000
00000010
00030000
00021000
00000000
00001000
00030000
00010010
00000000
00010100
00000000
00010001
00000000
00011000
00000000
,
00021000
00000001
00030001
00000001
00000001
00000001
00000001
00000001
,
00020010
00000000
00000000
00000000
00000000
00000000
00000010
00000000
00030000
00000000
00000000
00000000
00020001
00000000
00000000
00000000
00000000
00000000
00000001
00000000
00000000
00030000
00000000
00000000
00011000
00000000
00000000
00000000
00000000
00000000
00011000
00000000
00000000
00000000
00000000
00000000
00020002
00000000
00000000
00000000
00000000
00000000
00000000
00000000
00000000
00030003
00000000
00000000
,
00201000
00001000
00301000
00001000
00001000
00001000
00001000
00001000
,
00200001
00000000
00000001
00300000
00200010
00000000
00000010
00300000
00100100
00000000
00101000
00000000
00100001
00000000
00100100
00000000
,
00200001
00000001
00300001
00000001
00000001
00000001
10010001
10010100
,
20020010
00000000
00000001
30030000
20020001
00000000
00000100
30030000
20020010
00000000
00000001
30030000
20020001
00000000
00000000
30030000
,
00001010
00001010
00001010
00001010
00000101
00000101
00000101
00000101
,
00010000
00010000
00010000
00010000
00110000
00110000
00110000
00110000
,
00001001
00000000
00001001
00000000
00220000
00000000
00000000
00330000
00220000
00000000
00000000
00330000
00220000
00000000
00000000
00330000
,
00010000
00000000
00010000
00000000
00020000
00030000
00022000
00000000
00000000
00000000
00000000
00000000
00000000
00000000
00000000
00033000
,
00010001
00000000
00010001
00000000
00020002
00000000
00000000
00030003
00020002
00000000
00000000
00030003
00020002
00000000
00000000
00030003
,
00020002
00000000
00000000
00030003
02000200
03000300
02000200
00000000
00000000
03000300
02000200
00000000
00000000
00000000
00000000
03000300
,
00001001
00001001
00001001
00001001
00001001
00001001
00001001
00001001
,
10010000
10010000
10010000
10010000
10010000
10010000
10010000
10010000
,
10010100
00000100
00000100
10011000
00001000
00001000
10010001
00000001
,
10010010
00000010
10010010
00000010
10010010
00000010
10010010
00000100
,
10011000
00001000
00001000
10010001
00000001
00000001
10010100
00000100
,
10011000
00001000
10010100
00000001
10011000
00000010
10010010
00000010
,
00001000
00001000
00001000
00000001
00001000
00000010
00000100
00001000
,
00001000
00000001
00000001
00001000
00001000
00000001
00001000
00001000
,
00020010
00030000
00020100
00030000
00020001
00030000
00021000
00000000
00001000
00030000
00020001
00000000
00001000
00030000
00020010
00030000
,
00020010
00030000
00021000
00030000
00020001
00030000
00020010
00000000
00000001
00030000
00020001
00000000
00000001
00000000
00000100
00030000
,
10011000
00001000
00001000
00000000
10011000
00001000
00001000
00000000
,
10011000
00000010
00001000
00000100
00001000
00000010
10011000
00000000
,
10011000
00001000
00001000
00000000
10011000
00001000
00001000
00000000
,
10011000
00001000
00001000
00000010
00001000
00000100
10011000
00000000
,
10010010
00000000
00001000
00000001
00000100
00000010
10011000
00000000
00000010
00000100
00000001
00000010
,
10010001
00000010
00001000
00000001
00000100
00000010
00000100
00000010
00000100
10011010
00000000
00000000
,
10010001
00000000
00001000
00000010
00000100
00000001
10011000
00000000
00000001
00001000
00000010
00000100
,
10010001
00000000
00000100
00000000
00000010
00000000
00000001
00000000
00000001
00000000
00000100
00000000
20022002
00000000
00000000
30033003
,
00011000
00001000
00011000
00000100
00011000
00010010
00011000
00000010
,
00011000
00000000
00001000
00000000
00010100
00000000
00001000
00000000
00010100
00000000
00010100
00000000
00022000
00000000
00000000
00033000
,
00010001
00000100
00010001
00000100
00010100
00010010
00010001
00001000
,
00010100
00000000
00001000
00000000
00010010
00000000
00001000
00000000
00010200
00000000
00010000
00000300
00012000
00000000
00000000
00003000
,
00111001
00001001
00110000
00000001
00110000
00110010
00110010
00000010
,
00110020
00000000
00000030
00000020
00110000
00000030
00000020
00000030
00110200
00000000
00110000
00000000
00110000
00000000
00000000
00000300
,
00110001
00000100
00110010
00000001
00110001
00110100
00110010
00000001
,
00110100
00001000
00111000
00000010
00110100
00111000
00110100
00001000
,
20021000
00000000
00000000
30030000
20020000
00000000
00000000
30030000
20020000
00000000
00000000
30030000
10000001
00000000
10000001
00000000
,
10000001
00000000
10011001
00000000
10011001
00000000
20022002
00000000
00000000
30033003
20022002
30033003
20022002
30033003
20022002
30033003
,
00000002
00000023
00000230
00002300
,
00023000
00000000
00000000
00000000
00230000
00000000
02300000
00000000
00000000
03000000
10000000
00000000
01000000
00000000
00100000
00000000
,
00010000
00001000
00000100
00000022
00000033
10000000
10000000
10000000
,
01000000
01000000
01000000
00100000
00100000
00100000
00010000
00010000
,
00001000
00001000
00001000
00000100
00000100
00000100
00000010
00000010
,
00001000
00000010
00001000
00000000
00001000
00000000
00001000
00000000
00001000
00000100
00001000
00000000
00000001
00000000
00000100
00000000
,
00000001
00000100
00000010
00000001
00000001
00000100
00000010
00000001
,
20020100
30031000
00001000
00000010
00000100
00001000
00001000
00000010
,
20021000
30030010
00001000
00000100
00000010
00001000
00000100
00001000
,
20020010
00000000
00001000
00000000
00001000
00000000
00000010
00000000
00000001
00000000
00000100
00000000
00000001
00000000
00000100
30030000
,
20020001
30030100
00000010
00000001
00000001
00000100
00000010
00000001
,
20020010
30030001
00000100
00000001
00000100
00001000
00001000
00000010
,
20020001
30030001
00000100
00000010
00000001
00000100
00000001
00000100
,
20020001
00000000
00000100
00000000
00000001
00000000
00000100
00000000
00000100
00000000
00000001
00000000
00000001
00000000
00000010
30030000
,
00011000
00011000
00011000
00011000
00011000
00011000
00011000
00011000
,
00011000
00011000
00011000
00011000
00011000
00011000
00011000
00011000
,
00100100
00100100
00100100
00100100
00100100
00100100
00100100
00100100
,
00100100
00100100
00100100
00100100
00100100
00100100
00100100
00100100
,
01000010
01000010
01000010
01000010
01000010
01000010
01000010
01000010
,
01000010
01000010
01000010
01000010
01000010
01000010
01000010
01000010
,
10000001
10000001
10000001
10000001
10000001
10000001
10000001
10000001
,
10000001
10000001
10000001
10000001
10000001
10000001
10000001
10000001
,
10011001
10010010
10011000
10010010
10011000
10010010
10011000
10010010
,
10011000
10010010
10011000
10010010
10011000
10010010
10011000
10010010
,
10001000
10000100
10001000
10001000
10000010
10001000
10000010
10001000
,
10000010
10000100
10001000
10000100
10001000
10000100
10000010
10001000
,
01000001
01000100
01000001
01000100
01000001
01000100
01000001
01000100
,
01000001
01000100
01000001
01000100
01000001
01000100
01000001
01000100
,
00100001
00100100
00100001
00100001
00100001
00100001
00100010
00100001
,
00100100
00100100
00100010
00100010
00100001
00100001
00100010
00100001
,
10010100
10010001
10010001
10010010
10010100
10010100
10011000
10010100
,
10011000
10011000
10011000
10011000
10011000
10010010
10011000
10010010
,
10011000
10010100
10011000
10010100
10011000
10010100
10010100
10011000
,
10011000
10010010
10011000
10011000
10010100
10011000
10011000
10010100
,
10011000
10010010
10011000
10010010
10011000
10010010
10011000
10010010
,
10011000
10010010
10010010
10011000
10010010
10010010
10011000
10010010
,
20022002
00000000
00000000
30033003
20022002
00000000
00000000
30033003
20022002
00000000
00000000
30033003
20022002
00000000
00000000
30033003
,
20022002
00000000
00000000
30033003
20022002
00000000
00000000
30033003
00001000
00000000
00001000
00000001
00001000
00000000
00000000
00000000
,
20021000
30030000
20020100
30030000
20021000
30030000
20020100
30030000
20021000
30030000
20021000
30030000
20020010
30030000
20020010
30030000
,
20020000
30030000
20020000
00000000
00000000
30030000
20021010
30030000
20021000
30030000
20021000
30030000
20021000
00000000
00000000
30030000
,
20021001
30030000
20021000
30030000
20021000
30030000
20021000
30030000
20021001
30030000
20020110
30030000
20021100
30030000
20020011
30030000
,
20021001
30030000
20021001
30030000
20020101
00000000
00000000
30030000
20020101
30030000
20020110
30030000
20021001
00000000
00000000
30030000
,
20020001
00000000
00000100
30030000
20020001
30030000
20020100
00000000
00000010
30030000
20020001
30030000
20020001
30030000
20020100
30030000
,
20020100
30030000
20020010
30030000
20020100
30030000
20020100
30030000
20020001
30030000
20020100
30030000
20020001
00000000
00000010
30030000
,
20020001
30030000
20020010
30030000
20020010
30030000
20020001
30030000
20020100
30030000
20020001
30030000
20020100
30030000
20020001
30030000
,
20020100
30030000
20020001
30030000
20020002
30030003
20021100
30030000
20021000
30030000
20021000
30030000
20022000
30033000
20020001
30030000
,
00020001
00000000
00000100
00000000
00230001
00000000
00000100
00000000
02300001
00000000
00000100
00000000
23000001
00000000
00000100
30000000
,
20022002
00000000
00000000
30033003
20022002
00000000
00000000
30033003
20022002
00000000
00000000
30033003
20022002
00000000
00000000
30033003
,
00001000
00000000
00000010
00000000
00001000
00000000
00000010
00000000
00001000
00000000
00000010
00000000
00002000
00000000
00000000
00003000
,
20020110
00000000
00000110
00000000
00000110
00000000
00000110
00000000
00000110
00000000
00000110
00000000
00000110
00000000
00000110
30030000
,
20021000
00000000
00000000
00000000
00000010
00000000
00000000
00000000
00001000
00000000
00000000
00000000
00000001
00000000
00000000
00000000
00000010
00000000
00000000
00000000
00000100
00000000
00000000
00000000
00000001
00000000
00000000
00000000
00000100
00000000
00000000
00000000
00000010
00000000
00000000
00000000
00001000
00000000
00000000
00000000
00000100
00000000
00000000
00000000
00001000
30030000
00000000
00000000
,
20020010
00000000
00000000
00000000
00000001
00000000
00000000
00000000
00001000
00000000
00000000
00000000
00000001
00000000
00000000
00000000
00000100
00000000
00000000
00000000
00001000
00000000
00000000
00000000
00000010
00000000
00000000
00000000
00000001
00000000
00000000
00000000
00000010
30030000
00000000
00000000
00022200
00000000
00000000
00000000
00000000
00000000
00000000
00000000
00003300
00030000
00000000
00000000
,
00020000
00000000
00030000
00020000
00000000
00030000
00020000
00030000
00020000
00030000
00020000
00030000
00020000
00030000
00020000
00030000
,
00021000
00000000
00001000
00000000
00001000
00000000
00001000
00000000
00000100
00000000
00000100
00000000
00000100
00000000
00001000
00030000
,
10010010
00000000
10011000
00000000
10010010
00000000
10011000
00000000
10011000
00000000
10010100
00000000
20020200
00000000
00000000
30030300
,
10010001
00000000
10010100
00000000
10010001
00000000
10010100
00000000
10010001
00000000
10010100
00000000
20022002
00000000
00000000
30033003
,
10011000
10011000
10011000
10011000
10011000
10011000
10011000
10011000
,
10011000
00000000
10010010
00000000
20001000
00000000
00020100
30030000
10010001
00000000
10010100
00000000
00022010
00000000
20033002
00000003
,
30010001
00010001
00010001
00002000
00003000
00010001
00010001
00010001
,
00000002
00000000
00000000
00000003
00010100
00000000
00002000
00000000
00003000
00000000
00010001
00000000
00002000
00000000
00000000
00003000
,
00010010
00000000
00010010
00000000
00010010
00000000
00000200
00000000
00000000
00000300
00000001
00000000
00000001
00000000
00000001
00000000
,
00000002
00000000
00002003
00000000
00003000
00000000
00010000
00000000
00011000
00000000
00011000
00000000
00021000
00000000
00000000
00030000
,
10010001
00000000
10010010
00000000
10011000
00000000
20020100
00000000
00001000
30030000
10010100
00000000
10010001
00000000
10010100
00000000
,
10010001
00000000
10011000
00000000
10010100
00000000
20020100
00000000
00000001
30030000
10011000
00000000
10010100
00000000
10010010
00000000
,
10010100
10011000
10010001
10010100
10010010
10010001
10011000
10010010
,
10011000
10010001
10010010
10010100
10010001
10011000
10010001
10010010
,
10010001
00000100
00000001
00000100
00000001
00000100
00000010
00000010
,
00000010
00000001
00000010
00000001
00000010
00000001
00000010
00000010
,
00001000
00000010
00001000
00000010
00001000
00000010
00001000
00000010
,
00001000
00000100
00001000
00000100
00000001
00000100
00000001
00000100
,
10010001
00000010
00000001
00000010
10010001
00000100
00000001
00000100
,
10011000
00000010
00001000
00000010
10011000
00000100
00001000
00001000
,
10011000
00001000
00001000
00000100
10011000
00000100
00001000
00000100
,
10010100
00000000
00000010
00000000
00001000
00000000
00000010
00000000
20020010
00000000
00001000
00000000
00000010
00000000
00001000
30030000
,
10010001
10010100
10010010
10010001
10010100
10010010
10010010
10010001
,
10010010
00000000
10010010
00000000
10010001
00000000
10010010
00000000
10010001
00000000
10010100
00000000
00020010
00030000
00020001
00030000
,
00010100
00010010
00010010
00010001
00010001
00010100
00010001
00010001
,
00010010
00000000
00010001
00000000
00010010
00000000
00010010
00000000
00020001
00000000
00000010
00000000
00000001
00000000
00000100
00030000
,
10010100
10010001
10010001
10010001
10010010
10010001
10010001
10010001
,
10010001
00000000
10010001
00000000
10010010
00000000
10010010
00000000
00020010
00000000
00000001
00030000
00010010
00000000
00010100
00000000
,
00020001
00000000
00000100
00000000
00000001
00000000
00000100
00000000
00000001
00000000
00000100
00000000
00000001
00000000
00000100
00030000
,
00020001
00000000
00000100
00000000
00000001
00000000
00000100
00000000
00000001
00000000
00000100
00000000
00000001
00000000
00000100
00030000
,
00011000
00000000
00011000
00010000
00011000
00000000
00011000
00000000
00011000
00000000
00011000
00000000
00011000
00000000
00011000
00000000
,
00010100
00000000
00010100
00010000
00010100
00000000
00010100
00000000
00011000
00000000
00011000
00000000
00021000
00000000
00001000
00030000
,
00010100
00010100
00010100
00010100
00011000
00011000
00011000
00011000
,
00010010
00000000
00010010
00000000
00010010
00000000
00010010
00000000
00021000
00000000
00001000
00000000
00001000
00000000
00001000
00030000
,
00021000
00000000
00000100
00030000
00021000
00000000
00001000
00030000
00020010
00000000
00000100
00030000
00010100
00000000
00011000
00000000
,
00011000
00000000
00010100
00000000
00011000
00000000
00020100
00000000
00001000
00000000
00000010
00030000
00011000
00000000
00010010
00000000
,
00011000
00010010
00011000
00010010
00011000
00011000
00010100
00011000
,
00011000
00000000
00011000
00000000
00010100
00000000
00010100
00000000
00020200
00000000
00000000
00000000
00000000
00000000
00000000
00030300
,
00010001
00010100
00010001
00010100
00010001
00010100
00010001
00010100
,
00010001
00010100
00010100
00010001
00010100
00010100
00010001
00010010
,
00010010
00000000
20020010
00000000
00000010
30030000
10010001
00000000
10010001
00000000
20020010
00000000
00000001
30030000
10010010
00000000
,
10010001
00000000
10010100
00000000
10010100
00000000
10010001
00000000
10010010
00000000
10010100
00000000
20020001
00000000
00000001
30030000
,
00020100
00000010
00000001
00000100
00000001
00000100
00000010
00000001
,
00230010
00000010
00000001
00000100
00000010
00000010
00000100
00000001
,
02300001
00000100
00000100
00000001
00000100
00000001
00000001
00000100
,
23000001
00000000
00000100
30000000
00020001
00000000
00000100
00000000
02230001
00000000
00000100
00000000
23300001
00000000
00000100
30000000
,
20020002
00000000
00000000
00000000
00000000
00000000
00000200
00000000
00000000
00000000
00000300
00000000
00000100
00000000
00000000
30030003
,
20020102
00000000
00000100
00000000
00000000
00000000
00000000
00000000
00000100
00000000
00000000
00000000
00000100
00000000
00000000
30030003
,
20020102
00000000
00000000
00000000
00000000
00000000
00000100
00000000
00000000
00000000
00000000
00000000
00000100
00000000
00000000
30030003
,
20020102
00000000
00000100
00000000
00000000
00000000
00000000
00000000
00000100
00000000
00000000
00000000
00000100
00000000
00000000
30030003
,
20020102
00000000
00000100
00000100
00000000
00000000
00000100
00000000
,
00000100
00000000
00000000
00000000
00000100
00000000
00000100
00000000
00000000
00000000
00000000
00000000
00000100
00000000
00000000
30030003
,
00020001
00000100
00000001
00230100
00000001
00000100
02300001
00000100
,
23000001
30000000
20020010
00000000
00000010
00000000
00000001
30030000
20020001
00000000
00000010
30030000
20020010
00000000
00000001
30030000
,
20021000
00000000
00001000
00000000
00001000
30030000
20021000
00000000
00001000
00000000
00001000
30030000
20021000
00000000
00001000
30030000
,
20020100
30030000
20020100
00000000
00000100
00000000
00000100
30030000
20021000
00000000
00001000
30030000
20021000
00000000
00001000
30030000
,
20021000
00000000
00001000
00000000
00001000
30030000
20021000
00000000
00001000
00000000
00001000
30030000
20021000
00000000
00001000
30030000
,
20020100
30030000
20020100
00000000
00000100
00000000
00000100
30030000
20021000
00000000
00001000
30030000
20021000
00000000
00001000
30030000
,
20021000
00000000
00000010
30030000
20020010
30030000
20021000
00000000
00000010
00000000
00000010
30030000
20021000
00000000
00000010
30030000
,
20020010
00000000
00001000
30030000
20020010
30030000
20020010
00000000
00001000
00000000
00000010
30030000
20020010
00000000
00001000
30030000
,
00020010
00001000
00000010
00231000
00000010
00001000
02300010
00001000
,
23000001
30000000
20020100
00000000
00000001
00000000
00000100
30030000
20020001
00000000
00000100
30030000
20020001
00000000
00000100
30030000
,
20020001
00000000
00000001
00000000
00001000
30030000
20021000
00000000
00000010
00000000
00000100
30030000
20020001
00000000
00000100
30030000
,
20020010
30030000
20021000
00000000
00000010
00000000
00000001
30030000
20020010
00000000
00000100
30030000
20021000
00000000
00001000
30030000
,
20020010
00000000
00000001
00000000
00000100
30030000
20020001
00000000
00001000
00000000
00000100
30030000
20020010
00000000
00000100
30030000
,
20021000
30030000
20020001
00000000
00000001
00000000
00000100
00000000
00000010
00000000
00000100
30030000
20020001
00000000
00000010
30030000
,
20020100
00000000
00001000
30030000
20020001
30030000
20020100
00000000
00000001
00000000
00000100
30030000
20020001
00000000
00000010
30030000
,
20021000
00000000
00000001
00000000
00001000
00000000
00000100
30030000
20020001
00000000
00001000
30030000
20020010
00000000
00000001
30030000
,
20021000
00000000
00001000
30030000
20020100
30030000
20021000
00000000
00000100
00000000
00001000
00000000
00000010
00000000
00001000
00000000
,
00000100
00001000
00001000
00000100
30031000
00000100
10011000
00000010
,
20021001
30030000
00000000
00000000
10010000
00000000
20020000
00000000
00000000
30030000
00000000
00000000
10010000
00000000
00000000
00000000
,
20021001
00000000
00000000
00000000
30030000
00000000
00000000
20020000
00000000
30030000
00000000
20020000
00000000
00000000
30030000
00000000
,
20020001
00000000
00000100
30030000
10010001
00000000
20020100
00000000
00000001
00000000
00000100
00000000
00000001
00000000
00000100
00000000
,
00000010
00000000
00000000
00001001
00000000
00000000
30031001
00000000
00000000
20022002
00000000
00000000
00000000
00000000
00000000
00000000
,
00000000
30033003
00000000
00000000
00000000
00000000
00000000
00000000
;

//---------------dance-double - Fury of the Storm----------------
#NOTES:
     dance-double:
     Fury of the Storm:
     Easy:
     9:
     1.000,1.000,1.000,1.000,0.006,1617.000,887.000,590.000,0.000,257.000:
10010000
00000010
00000010
10010000
,
10010000
00001001
00001001
00001001
,
20020000
00000000
00000000
00000000
,
00000001
00000010
00000010
30030001
,
10011001
00000010
00000010
00000001
,
20020001
00000000
00000000
00000000
00000100
00000000
00000000
00000000
00000010
00000000
00000000
00000000
00001000
00000000
00000000
30030000
,
00011000
00011000
00011000
00011000
,
00011000
00011000
00011000
00011000
,
00000010
00000010
00000010
00000010
,
01000000
01000000
01000000
01000000
,
00000010
00000100
00000100
00000001
,
10010001
00000000
00000000
00000000
10010001
00000000
00000000
00000000
10010001
00000000
00000000
00000000
20020002
00000000
00000000
30030003
,
01000000
01000000
01000000
01000000
,
00000101
00000101
00000101
00000101
,
10000000
10000000
10000000
10000000
,
00010001
00000000
00000000
00000000
00011000
00000000
00000000
00000000
00010001
00000000
00000000
00000000
00020002
00000000
00000000
00030003
,
00010100
00011000
00010010
00010010
,
00010001
00010001
00010100
00010010
,
00011000
00010010
00010100
00010001
,
10001000
00000000
00000000
00000000
10000100
00000000
00000000
00000000
10001000
00000000
00000000
00000000
10000002
00000000
00000000
00000003
,
10000001
10000001
10000001
10000010
,
10000010
10000100
10000100
10000001
,
10001000
10001000
10001000
10000001
,
20000002
00000000
30200023
00000000
,
00322030
00000000
00000000
00000000
00000000
00000000
00000000
00000000
00000000
00000000
00000000
00000000
00000000
00000000
00000000
00033000
,
10001000
10001000
10001000
10001000
,
00010001
00010001
00010001
00010001
,
01000001
01001000
01001000
01001000
,
00100001
00100001
00100001
00100001
,
10000001
10001000
10001000
10001000
,
10001000
10001000
10001000
10001000
,
10001000
10001000
10001000
10001000
,
10001000
10001000
10001000
10001000
,
10001000
10001000
10001000
10001000
,
10001000
10001000
10001000
10001000
,
10000100
10000100
10000100
10000100
,
10000010
00000100
10010001
10010100
,
00001000
10010000
00000001
10010000
,
00000010
10010000
00000100
10010000
,
10010001
10010010
10010010
10010001
,
10010001
10010001
10010001
10010001
,
20020001
00000000
00000000
00000000
00000001
00000000
00000000
00000000
00000001
00000000
00000000
00000000
00000001
00000000
00000000
30030000
,
00021001
00000000
00000000
00030000
00021001
00000000
00000000
00030000
00021001
00000000
00000000
00030000
00021001
00000000
00000000
00030000
,
00010100
00010001
00010001
00010001
,
00020001
00000000
00000000
00030000
00010001
00000000
00020000
00000000
00000001
00030000
00020000
00000000
00000001
00000000
00000000
00030000
,
00010100
00010010
00010001
00010001
,
00020100
00000000
00000000
00030000
00020001
00030000
00020000
00000000
00000010
00030000
00000000
00000000
00000100
00000000
00000000
00000000
,
00011000
00011000
00011000
00011000
,
00021000
00000000
00000000
00030000
00021000
00030000
00020000
00000000
00001000
00030000
00020000
00000000
00001000
00000000
00000000
00030000
,
00011000
00011000
00011000
00011000
,
00021000
00000000
00000000
00030000
00021000
00030000
00020000
00000000
00001000
00000000
00000000
00000000
00001000
00000000
00000000
00030000
,
00011000
00011000
00011000
00011000
,
00011000
00011000
00011000
00011000
,
00011000
00011000
00011000
00011000
,
00011000
00011000
00011000
00011000
,
00011000
00011000
00011000
00011000
,
00011000
00011000
00011000
00011000
,
00011000
00011000
00011000
00011000
,
00020001
00000000
00000000
00000000
00000001
00000000
00000000
00000000
00000001
00000000
00000000
00000000
00000001
00000000
00000000
00030000
,
00010001
00010001
00010001
00010100
,
00020100
00000000
00000000
00030000
00010100
00000000
00020000
00000000
00000001
00030000
00020000
00000000
00000001
00000000
00000000
00030000
,
00010010
00010100
00010001
00010001
,
00020100
00000000
00000000
00030000
00011000
00000000
00020000
00000000
00000100
00000000
00000000
00000000
00030001
00000000
00000000
00000000
,
00010010
00010010
00010001
00010001
,
00020010
00000000
00000000
00030000
00010100
00000000
00020000
00000000
00000001
00030000
00020000
00000000
00001000
00000000
00000000
00030000
,
00011000
00010010
00010010
00010010
,
00021000
00000000
00000000
00030000
00010010
00000000
00020000
00000000
00001000
00000000
00000000
00000000
00031000
00000000
00000000
00000000
,
00021000
00000000
00000000
00000000
00000100
00030000
00020000
00000000
00000010
00000000
00000000
00030000
00020100
00000000
00000000
00030000
,
00020001
00000000
00000000
00000000
00000010
00030000
00020000
00000000
00000001
00000000
00000000
00030000
00020010
00000000
00000000
00030000
,
00020010
00000000
00000000
00000000
00000100
00030000
00020000
00000000
00000010
00000000
00000000
00030000
00020100
00000000
00000000
00030000
,
00020001
00000000
00000000
00000000
00000010
00000000
00000000
00000000
00000001
00000000
00000000
00000000
00000001
00000000
00000000
00030000
,
00020001
00000000
00000000
00030000
00020100
00030000
00020000
00030000
00020010
00000000
00000000
00030000
00020001
00000000
00000000
00030000
,
00020001
00030000
00020000
00000000
00000001
00030000
00020000
00000000
00001000
00000000
00000000
00030000
00020001
00000000
00000000
00030000
,
00020100
00000000
00000000
00030000
00021000
00030000
00020000
00000000
00000010
00000000
00000000
00030000
00020001
00000000
00000000
00030000
,
00020001
00000000
00000000
00030000
00020001
00030000
00020000
00030000
00020001
00000000
00000000
00000000
00000001
00000000
00000000
00030000
,
00020001
00000001
00000001
00001000
,
00000001
00000000
00000000
00000000
00000010
00000000
00000000
00000000
00001000
00000000
00000000
00000000
00001000
00000000
00000000
00030000
,
00200100
00000100
00000001
00001000
,
00000010
00000000
00000000
00000000
00001000
00000000
00000000
00000000
00000001
00000000
00000000
00000000
00001000
00000000
00000000
00300000
,
02000010
00001000
00000001
00000010
,
00000100
00000000
00000000
00000000
00001000
00000000
00000000
00000000
00000010
00000000
00000000
00000000
00001000
00000000
00000000
03000000
,
20000100
00000001
00000010
00000010
,
00001000
00000000
00000000
00000000
00000010
00000000
00000000
00000000
00001000
00000000
00000000
00000000
00000010
00000000
00000000
30000000
,
00021000
00001000
00001000
00001000
,
00001000
00000000
00000000
00000000
00000100
00000000
00000000
00000000
00000100
00000000
00000000
00000000
00000001
00000000
00000000
00030000
,
00200001
00001000
00001000
00000001
,
00000001
00000000
00000000
00000000
00000010
00000000
00000000
00000000
00000010
00000000
00000000
00000000
00000100
00000000
00000000
00300000
,
02000001
00000010
00000100
00000010
,
00000001
00000000
00000000
00000000
00000001
00000000
00000000
00000000
00000001
00000000
00000000
00000000
00000001
00000000
00000000
03000000
,
10011001
10011001
10011001
10011001
10011001
10011001
10011001
10011001
,
10011001
00000000
00000000
00000000
00022000
00000000
00000000
00033000
00022000
00000000
00000000
00033000
00022000
00000000
00000000
00033000
,
00021000
00000000
00000000
00000000
00001000
00030000
00020000
00000000
00001000
00000000
00000000
00030000
00021000
00000000
00000000
00030000
,
00011000
00000000
00020000
00000000
00001000
00030000
00000000
00000000
00021000
00000000
00000000
00030000
00021000
00000000
00000000
00030000
,
00021000
00000000
00000000
00000000
00001000
00030000
00020000
00000000
00001000
00000000
00000000
00030000
00021000
00000000
00000000
00030000
,
00011000
00000000
00020000
00000000
00001000
00000000
00000000
00030000
00021000
00000000
00000000
00030000
00021000
00000000
00000000
00030000
,
00021000
00000000
00000000
00030000
00011000
00000000
00020000
00000000
00001000
00000000
00000000
00030000
00021000
00000000
00000000
00030000
,
00021000
00000000
00000000
00030000
00011000
00000000
00020000
00000000
00001000
00000000
00000000
00030000
00021000
00000000
00000000
00030000
,
00021000
00000000
00000000
00030000
00021000
00000000
00000000
00000000
00001000
00000000
00000000
00030000
00021000
00000000
00000000
00030000
,
00021000
00030000
00020000
00000000
00001000
00000000
00000000
00030000
00021000
00000000
00000000
00030000
00021000
00000000
00000000
00030000
,
00021000
00000000
00000000
00000000
00000100
00030000
00020000
00000000
00000010
00000000
00000000
00030000
00020001
00000000
00000000
00030000
,
00010100
00000000
00020000
00000000
00001000
00000000
00000000
00030000
00020100
00000000
00000000
00030000
00021000
00000000
00000000
00030000
,
00020010
00000000
00000000
00000000
00001000
00030000
00020000
00000000
00000001
00000000
00000000
00030000
00020001
00000000
00000000
00030000
,
00010100
00000000
00020000
00000000
00001000
00000000
00000000
00000000
00001000
00000000
00000000
00030000
00021000
00000000
00000000
00030000
,
00020100
00000000
00000000
00030000
00000000
00000000
00000000
00000000
00000000
00000000
00000000
00000000
00000000
00000000
00000000
00000000
,
10011001
00000000
00000000
00000000
,
00020010
00000000
00000000
00030000
00010001
00000000
00020000
00000000
00000010
00030000
00010000
00000000
00010100
00000000
00010000
00000000
,
00020100
00000000
00000000
00030000
00010001
00000000
00020000
00000000
00000010
00030000
00010000
00000000
00010001
00000000
00010000
00000000
,
00020010
00000000
00000000
00030000
00010010
00000000
00020000
00000000
00000001
00030000
00010000
00000000
00010010
00000000
00010000
00000000
,
00020010
00000000
00000000
00030000
00010100
00000000
00020000
00000000
00000100
00030000
00010000
00000000
00011000
00000000
00010000
00000000
,
00021000
00000000
00000000
00030000
00010100
00000000
00020000
00000000
00000100
00030000
00010000
00000000
00011000
00000000
00010000
00000000
,
00020010
00000000
00000000
00030000
00011000
00000000
00020000
00000000
00001000
00030000
00010000
00000000
00011000
00000000
00010000
00000000
,
00021000
00000000
00000000
00030000
00011000
00000000
00020000
00000000
00000010
00030000
00010000
00000000
00010100
00000000
00010000
00000000
,
00021000
00000000
00000000
00030000
00010001
00000000
00020000
00000000
00000001
00030000
00010000
00000000
00010001
00000000
00010000
00000000
,
00020001
00000000
00000000
00030000
00010001
00000000
00020000
00000000
00000001
00030000
00010000
00000000
00011000
00000000
00010000
00000000
,
00011000
00000000
00010000
00000000
00011000
00000000
00020000
00000000
00001000
00030000
00010000
00000000
00011000
00000000
00010000
00000000
,
00011000
00000000
00010000
00000000
00011000
00000000
00020000
00000000
00001000
00030000
00010000
00000000
00010010
00000000
00010000
00000000
,
00010001
00000000
00010000
00000000
00010001
00000000
00020000
00000000
00000001
00030000
00010000
00000000
00010100
00000000
00010000
00000000
,
00021000
00000000
00000000
00030000
00011000
00000000
00020000
00000000
00000010
00030000
00010000
00000000
00010100
00000000
00010000
00000000
,
00011000
00010000
00011000
00010000
00011000
00010000
00011000
00010000
,
00011000
00010000
00011000
00010000
00011000
00010000
00011000
00010000
,
00200200
00000000
00000000
00000000
00022000
00000000
00000000
00000000
00000000
00000000
00000000
00000000
00000000
00000000
00000000
00333300
,
10000001
10000000
10000100
10000000
10000001
10000000
10000010
10000000
,
20000010
00000000
00000000
30000000
10000010
00000000
20000000
00000000
00000010
30000000
20000000
00000000
00000100
00000000
00000000
30000000
,
10000010
10000000
10000001
10000000
10000001
10000000
10000100
10000000
,
10000001
00000000
10000000
00000000
10000100
00000000
20000000
00000000
00000010
00000000
00000000
00000000
00000001
00000000
00000000
30000000
,
00011000
00010000
00011000
00010000
00011000
00010000
00011000
00010000
,
00021000
00000000
00000000
00030000
00011000
00000000
00020000
00000000
00001000
00030000
00020000
00000000
00001000
00000000
00000000
00030000
,
00011000
00010000
00011000
00010000
00011000
00010000
00011000
00010000
,
00021000
00000000
00000000
00030000
00011000
00000000
00020000
00000000
00001000
00000000
00000000
00000000
00000100
00000000
00000000
00030000
,
00021000
00000000
00000000
00000000
00001000
00030000
00020000
00000000
00000100
00000000
00000000
00030000
00020001
00000000
00000000
00030000
,
00020001
00000000
00000000
00000000
00000001
00030000
00020000
00000000
00000100
00000000
00000000
00030000
00020001
00000000
00000000
00030000
,
00021000
00000000
00000000
00000000
00000001
00030000
00020000
00000000
00000100
00000000
00000000
00030000
00020001
00000000
00000000
00030000
,
20022020
00000000
00000000
00000000
00000000
00000000
00000000
00000000
00000000
00000000
00000000
00000000
00000000
00000000
00000000
30033030
,
00010010
00000000
00000000
00000000
00010100
00000000
00010000
00000000
00020100
00000000
00000000
00030000
00020010
00000000
00000000
00030000
,
00021000
00000000
00000000
00030000
00010001
00000000
00020000
00000000
00000100
00000000
00000000
00030000
00020001
00000000
00000000
00030000
,
00020001
00000000
00000000
00030000
00011000
00000000
00020000
00000000
00000100
00000000
00000000
00030000
00021000
00000000
00000000
00030000
,
00021000
00000000
00000000
00000000
00230100
00000000
02300000
00000000
23002002
00000000
00000000
00000000
00000000
00000000
00000000
30003003
,
00021000
00001000
00001000
00001000
,
00001000
00000000
00000000
00000000
00001000
00000000
00000000
00000000
00001000
00000000
00000000
00000000
00001000
00000000
00000000
00030000
,
00200100
00000100
00000100
00000100
,
00000100
00000000
00000000
00000000
00000100
00000000
00000000
00000000
00000100
00000000
00000000
00000000
00000100
00000000
00000000
00300000
,
02000010
00000010
00000010
00000010
,
00000010
00000000
00000000
00000000
00000010
00000000
00000000
00000000
00000010
00000000
00000000
00000000
00000010
00000000
00000000
03000000
,
20000001
00000001
00000001
00000001
,
00000001
00000000
00000000
00000000
00000001
00000000
00000000
00000000
00000001
00000000
00000000
00000000
00000001
00000000
00000000
30000000
,
00021000
00001000
00001000
00001000
,
00001000
00000000
00000000
00000000
00001000
00000000
00000000
00000000
00001000
00000000
00000000
00000000
00001000
00000000
00000000
00030000
,
00201000
00001000
00000100
00001000
,
00001000
00000000
00000000
00000000
00001000
00000000
00000000
00000000
00001000
00000000
00000000
00000000
00001000
00000000
00000000
00300000
,
02001000
00000100
00001000
00001000
,
00000100
00000000
00000000
00000000
00000010
00000000
00000000
00000000
00000100
00000000
00000000
00000000
00000100
00000000
00000000
03000000
,
00111100
00111100
00111100
00111100
00111100
00111100
00111100
00111100
,
00111100
00000000
00000000
00000000
00200020
00000000
00000000
00300030
00200020
00000000
00000000
00300030
00200020
00000000
00000000
00300030
,
00020001
00000000
00000000
00000000
00000010
00030000
00020000
00000000
00000010
00000000
00000000
00030000
00020001
00000000
00000000
00030000
,
00020100
00030000
00020000
00000000
00000100
00000000
00000000
00030000
00020100
00000000
00000000
00030000
00020001
00000000
00000000
00030000
,
00020010
00000000
00000000
00000000
00000001
00030000
00020000
00000000
00000001
00000000
00000000
00030000
00020100
00000000
00000000
00030000
,
00020010
00030000
00020000
00000000
00000100
00000000
00000000
00030000
00020001
00000000
00000000
00030000
00020010
00000000
00000000
00030000
,
00020001
00000000
00000000
00030000
00020001
00030000
00020000
00000000
00000001
00000000
00000000
00030000
00020001
00000000
00000000
00030000
,
00020010
00000000
00000000
00030000
00020010
00030000
00020000
00000000
00000010
00000000
00000000
00030000
00020010
00000000
00000000
00030000
,
00020100
00000000
00000000
00000000
00000100
00030000
00020000
00000000
00000100
00000000
00000000
00000000
00230100
00000000
00000000
00000000
,
02300001
00000000
23000000
00000000
00000001
00000000
00000000
30000000
20000001
00000000
00000000
30000000
20000001
00000000
00000000
30000000
,
20000001
00000000
00000000
00000000
00001000
30000000
20000000
00000000
00000010
00000000
00000000
30000000
20000001
00000000
00000000
30000000
,
10001000
00000000
20000000
00000000
00000100
00000000
00000000
30000000
20000010
00000000
00000000
30000000
20001000
00000000
00000000
30000000
,
20000001
00000000
00000000
00000000
00001000
30000000
20000000
00000000
00000100
00000000
00000000
30000000
20000001
00000000
00000000
30000000
,
10000010
00000000
20000000
00000000
00000001
00000000
00000000
00000000
00000010
00000000
00000000
30000000
20000100
00000000
00000000
30000000
,
10011001
00000000
00000000
00000000
,
10011001
00000000
00000000
00000000
,
00020010
00000000
00000000
00030000
00010010
00000000
00020000
00000000
00000010
00000000
00000000
00000000
00000010
00000000
00000000
00030000
,
00010000
00001000
00001000
00001000
,
00020010
00000000
00000000
00030000
00021000
00000000
00000000
00030000
00010010
00000000
00010000
00000000
00010001
00000000
00010000
00000000
,
00021000
00030001
00000001
00000001
,
00020010
00000000
00000000
00000000
00000000
00000000
00000000
00000000
00030000
00000000
00000000
00000000
00020001
00000000
00000000
00000000
00000000
00000000
00000000
00000000
00000000
00030000
00000000
00000000
00011000
00000000
00000000
00000000
00000000
00000000
00010000
00000000
00000000
00000000
00000000
00000000
00020001
00000000
00000000
00000000
00000000
00000000
00000000
00000000
00000000
00030000
00000000
00000000
,
00201000
00301000
00001000
00001000
,
00200001
00000000
00000000
00300000
00200010
00000000
00000000
00300000
00100100
00000000
00100000
00000000
00100001
00000000
00100000
00000000
,
00200001
00000000
00300001
00000000
00000001
00000000
10000001
10000000
,
20000010
00000000
00000000
30000000
20000001
00000000
00000000
30000000
20000010
00000000
00000000
30000000
20000001
00000000
00000000
30000000
,
00001010
00001010
00000101
00000101
,
00010000
00010000
00010000
00010000
,
00001001
00000000
00000000
00000000
00020000
00000000
00000000
00030000
00020000
00000000
00000000
00030000
00020000
00000000
00000000
00030000
,
00010000
00000000
00010000
00000000
00020000
00030000
00022000
00000000
00000000
00000000
00000000
00000000
00000000
00000000
00000000
00033000
,
00010001
00000000
00010000
00000000
00020002
00000000
00000000
00030003
00020002
00000000
00000000
00030003
00020002
00000000
00000000
00030003
,
00020002
00000000
00000000
00030003
02000200
03000300
02000200
00000000
00000000
03000300
02000200
00000000
00000000
00000000
00000000
03000300
,
00001001
00001001
00001001
00001001
,
10010000
10010000
10010000
10010000
,
10010100
00000100
00001000
10010001
,
10010010
10010010
10010010
10010010
,
10011000
00000000
00001000
10010000
00000001
00000000
10010100
00000000
,
10011000
10010100
10011000
10010010
,
00001000
00001000
00001000
00000100
,
00001000
00000001
00001000
00001000
,
00020010
00030000
00020000
00030000
00020001
00030000
00020000
00000000
00001000
00030000
00020000
00000000
00001000
00030000
00020000
00030000
,
00020010
00030000
00020000
00030000
00020001
00030000
00020000
00000000
00000001
00030000
00020000
00000000
00000001
00000000
00000000
00030000
,
10011000
00001000
10011000
00001000
,
10011000
00001000
00001000
10011000
,
10011000
00001000
10011000
00001000
,
10011000
00001000
00001000
10011000
,
10010010
00000001
10011000
00000100
,
10010001
00000001
00000100
10011010
,
10010001
00000010
10011000
00001000
,
10010001
00000000
00000000
00000000
00000010
00000000
00000000
00000000
00000001
00000000
00000000
00000000
20020001
00000000
00000000
30030000
,
00011000
00000000
00011000
00000000
00011000
00010000
00011000
00000000
,
00011000
00000000
00000000
00000000
00010100
00000000
00000000
00000000
00010100
00000000
00010000
00000000
00021000
00000000
00000000
00030000
,
00010001
00000000
00010001
00000000
00010100
00010000
00010001
00000000
,
00010100
00000000
00010010
00000000
00010100
00010000
00011000
00000000
,
00010001
00000000
00010100
00000000
00010010
00010000
00011000
00000000
,
00010001
00000000
00010100
00000000
00010001
00010000
00011000
00000000
,
00010001
00000000
00010010
00000000
00010001
00010000
00010010
00000000
,
00010100
00000000
00011000
00000000
00010100
00010000
00010100
00000000
,
20021000
00000000
00000000
30030000
20020000
00000000
00000000
30030000
20020000
00000000
00000000
30030000
10000001
00000000
10000000
00000000
,
10000100
00000000
10000000
00000000
10000010
00000000
20000000
00000000
00001000
30000000
20000000
30000000
20000100
30000000
20000000
30000000
,
00000002
00000023
00000230
00002300
,
00023000
00000000
00000000
00000000
00230000
00000000
02300000
00000000
00000000
03000000
00000000
00000000
01000000
00000000
00000000
00000000
,
00010000
00000000
00000100
00000000
00000001
00010000
00010100
00010000
,
00011000
00010000
00010010
00010000
00010100
00010000
00010001
00010000
,
00001000
00001000
00000100
00000010
,
00001000
00001000
00001000
00000001
,
20020001
30030000
00000010
00000000
00000001
00000000
00000010
00000000
,
20020100
30030000
00001000
00000000
00000100
00000000
00001000
00000000
,
20021000
30030000
00001000
00000000
00000010
00000000
00000100
00000000
,
20020010
00000000
00000000
00000000
00001000
00000000
00000000
00000000
00000001
00000000
00000000
00000000
00000001
00000000
00000000
30030000
,
20020001
30030000
00000010
00000000
00000001
00000000
00000010
00000000
,
20020010
30030000
00000100
00000000
00000100
00000000
00001000
00000000
,
20020001
30030000
00000100
00000000
00000001
00000000
00000001
00000000
,
20020001
00000000
00000000
00000000
00000001
00000000
00000000
00000000
00000100
00000000
00000000
00000000
00000001
00000000
00000000
30030000
,
00011000
00011000
00011000
00011000
,
00011000
00011000
00011000
00011000
,
00100100
00100100
00100100
00100100
,
00100100
00100100
00100100
00100100
,
01000010
01000010
01000010
01000010
,
01000010
01000010
01000010
01000010
,
10000001
10000001
10000001
10000001
,
10000001
10000001
10000001
10000001
,
10011001
10011000
10011000
10011000
,
10011000
10011000
10011000
10011000
,
10001000
10001000
10000010
10000010
,
10000010
10001000
10001000
10000010
,
01000001
01000001
01000001
01000001
,
01000001
01000001
01000001
01000001
,
00100001
00100001
00100001
00100010
,
00100100
00100010
00100001
00100010
,
10010100
10010001
10010100
10011000
,
10011000
10011000
10011000
10011000
,
10011000
10011000
10011000
10010100
,
10011000
10011000
10010100
10011000
,
10011000
10011000
10011000
10011000
,
10011000
10010010
10010010
10011000
,
00022000
00000000
00000000
00033000
00022000
00000000
00000000
00033000
00022000
00000000
00000000
00033000
00022000
00000000
00000000
00033000
,
00022000
00000000
00000000
00033000
00022000
00000000
00000000
00033000
00001000
00000000
00000000
00000000
00001000
00000000
00000000
00000000
,
00021000
00030000
00020000
00030000
00021000
00030000
00020000
00030000
00021000
00030000
00020000
00030000
00020010
00030000
00020000
00030000
,
00020100
00030000
00020000
00000000
00000010
00030000
00020000
00030000
00021000
00030000
00020000
00030000
00021000
00000000
00000000
00030000
,
00020001
00030000
00020000
00030000
00021000
00030000
00020000
00030000
00020001
00030000
00020000
00030000
00021000
00030000
00020000
00030000
,
00020001
00030000
00020000
00030000
00020100
00000000
00000000
00030000
00020100
00030000
00020000
00030000
00020001
00000000
00000000
00030000
,
00020001
00000000
00000000
00030000
00020001
00030000
00020000
00000000
00000010
00030000
00020000
00030000
00020001
00030000
00020000
00030000
,
00020100
00030000
00020000
00030000
00020100
00030000
00020000
00030000
00020001
00030000
00020000
00030000
00020001
00000000
00000000
00030000
,
00020001
00030000
00020000
00030000
00020010
00030000
00020000
00030000
00020100
00030000
00020000
00030000
00020100
00030000
00020000
00030000
,
00020100
00030000
00020000
00030000
00020001
00030000
00020000
00030000
00021000
00030000
00020000
00030000
00021000
00030000
00020000
00030000
,
00020001
00000000
00000000
00030000
00020001
00000000
00000000
00030000
00020001
00000000
00000000
00030000
00020001
00000000
00000000
00030000
,
20020100
00000000
00000000
30030000
20020100
00000000
00000000
30030000
20020100
00000000
00000000
30030000
20020100
00000000
00000000
30030000
,
00001000
00001000
00001000
00001000
,
20020001
00000000
00000000
00000000
00000001
00000000
00000000
00000000
00000001
00000000
00000000
00000000
00000001
00000000
00000000
30030000
,
20021000
00000000
00000000
00000000
00000001
00000000
00000000
00000000
00000001
00000000
00000000
00000000
00001000
00000000
00000000
30030000
,
20020010
00000000
00000000
00000000
00000001
00000000
00000000
00000000
00000010
00000000
00000000
30030000
00021000
00000000
00000000
00030000
,
00020100
00000000
00030000
00020000
00000010
00030000
00020000
00030000
00021000
00030000
00020000
00030000
00020001
00030000
00020000
00030000
,
00021000
00000000
00000000
00000000
00001000
00000000
00000000
00000000
00000100
00000000
00000000
00000000
00000100
00000000
00000000
00030000
,
00010010
00000000
00010000
00000000
00010010
00000000
00010000
00000000
00011000
00000000
00010000
00000000
00020100
00000000
00000000
00030000
,
00010001
00000000
00010000
00000000
00010001
00000000
00010000
00000000
00010001
00000000
00010000
00000000
00021000
00000000
00000000
00030000
,
00011000
00010000
00011000
00010000
00011000
00010000
00011000
00010000
,
00011000
00000000
00010000
00000000
00021000
00030000
00020000
00030000
00010001
00000000
00010000
00000000
00020010
00030000
00020000
00030000
,
00010001
00010000
00010001
00010000
00001000
00010000
00010001
00010000
,
00010001
00000000
00010100
00010000
00001000
00010000
00011000
00000000
,
00010010
00010000
00010010
00010000
00000100
00010000
00010001
00010000
,
00010001
00000000
00010000
00000000
00001000
00000000
00010000
00000000
00011000
00000000
00010000
00000000
00021000
00000000
00000000
00030000
,
00010001
00000000
00010000
00000000
00011000
00000000
00020000
00000000
00001000
00030000
00010000
00000000
00010001
00000000
00010000
00000000
,
00010001
00000000
00010000
00000000
00010100
00000000
00020000
00000000
00000001
00030000
00010000
00000000
00010100
00000000
00010000
00000000
,
00010100
00010000
00010001
00010000
00010010
00010000
00011000
00010000
,
00011000
00010000
00010010
00010000
00010001
00010000
00010001
00010000
,
00010001
00000001
00000001
00000010
,
00000010
00000010
00000010
00000010
,
00001000
00001000
00001000
00001000
,
00001000
00001000
00000001
00000001
,
10010001
00000001
10010001
00000001
,
10011000
00001000
10011000
00001000
,
10011000
00001000
10011000
00001000
,
10010100
00001000
10010010
00000010
,
00010001
00010000
00010010
00010000
00010100
00010000
00010010
00010000
,
00010010
00000000
00010000
00000000
00010001
00000000
00010000
00000000
00010001
00000000
00010000
00000000
00020010
00030000
00020000
00030000
,
00010100
00010000
00010010
00010000
00010001
00010000
00010001
00010000
,
00010010
00000000
00010000
00000000
00010010
00000000
00010000
00000000
00020001
00000000
00000000
00000000
00000001
00000000
00000000
00030000
,
00010100
00010000
00010001
00010000
00010010
00010000
00011000
00010000
,
00010001
00000000
00010000
00000000
00010010
00000000
00010000
00000000
00020010
00000000
00000000
00030000
00010010
00000000
00010000
00000000
,
00020001
00000000
00000000
00000000
00000001
00000000
00000000
00000000
00000001
00000000
00000000
00000000
00000001
00000000
00000000
00030000
,
00020001
00000000
00000000
00000000
00000001
00000000
00000000
00000000
00000001
00000000
00000000
00000000
00000001
00000000
00000000
00030000
,
00011000
00011000
00011000
00011000
,
00010100
00010100
00011000
00011000
,
00010100
00010100
00011000
00011000
,
00010010
00000000
00000000
00000000
00010010
00000000
00000000
00000000
00021000
00000000
00000000
00000000
00001000
00000000
00000000
00030000
,
00021000
00000000
00000000
00030000
00021000
00000000
00000000
00030000
00020010
00000000
00000000
00030000
00010100
00000000
00010000
00000000
,
00011000
00000000
00010000
00000000
00011000
00000000
00020000
00000000
00001000
00000000
00000000
00030000
00011000
00000000
00010000
00000000
,
00011000
00010000
00011000
00010000
00011000
00010000
00010100
00010000
,
00011000
00000000
00010000
00000000
00010100
00000000
00010000
00000000
00020200
00000000
00000000
00000000
00000000
00000000
00000000
00030300
,
00010001
00010000
00010001
00010000
00010001
00010000
00010001
00010000
,
00010001
00010000
00011000
00010000
00010100
00010000
00010001
00010000
,
00010010
00000000
00020000
00000000
00000010
00030000
00010000
00000000
00010001
00000000
00020000
00000000
00000001
00030000
00010000
00000000
,
00010001
00000000
00010000
00000000
00010100
00000000
00010000
00000000
00010010
00000000
00010000
00000000
00020001
00000000
00000000
00030000
,
00020100
00000001
00000001
00000010
,
00230010
00000001
00000010
00000100
,
02300001
00000100
00000100
00000001
,
23000001
00000000
00000000
30000000
00020001
00000000
00000000
00030000
00020001
00000000
00000000
00030000
00020001
00000000
00000000
00030000
,
20020200
00000000
00000000
00000000
00000300
00000000
00000200
00000000
00000000
00000000
00000300
00000000
00000100
00000000
00000000
30030000
,
20020100
00000000
00000100
00000000
00000000
00000000
00000000
00000000
00000100
00000000
00000000
00000000
00000100
00000000
00000000
30030000
,
20020100
00000000
00000000
00000000
00000000
00000000
00000100
00000000
00000000
00000000
00000000
00000000
00000100
00000000
00000000
30030000
,
20020100
00000000
00000100
00000000
00000000
00000000
00000000
00000000
00000100
00000000
00000000
00000000
00000100
00000000
00000000
30030000
,
20020100
00000000
00000100
00000100
00000000
00000000
00000100
00000000
,
00000100
00000000
00000000
00000000
00000100
00000000
00000100
00000000
00000000
00000000
00000000
00000000
00000100
00000000
00000000
30030000
,
00020001
00000000
00000001
00230000
00000001
00000000
02300001
00000000
,
23000001
30000000
20020000
00000000
00000010
00000000
00000000
30030000
20020001
00000000
00000000
30030000
20020010
00000000
00000000
30030000
,
20021000
00000000
00000000
00000000
00001000
30030000
20020000
00000000
00001000
00000000
00000000
30030000
20021000
00000000
00000000
30030000
,
20020100
30030000
20020000
00000000
00000100
00000000
00000000
30030000
20021000
00000000
00000000
30030000
20021000
00000000
00000000
30030000
,
20021000
00000000
00000000
00000000
00001000
30030000
20020000
00000000
00001000
00000000
00000000
30030000
20021000
00000000
00000000
30030000
,
20020100
30030000
20020000
00000000
00000100
00000000
00000000
30030000
20021000
00000000
00000000
30030000
20021000
00000000
00000000
30030000
,
20021000
00000000
00000000
30030000
20020010
30030000
20020000
00000000
00000010
00000000
00000000
30030000
20021000
00000000
00000000
30030000
,
20020010
00000000
00000000
30030000
20020010
30030000
20020000
00000000
00001000
00000000
00000000
30030000
20020010
00000000
00000000
30030000
,
00020010
00000000
00000000
00000000
00000010
00030000
00020000
00000000
00000010
00000000
00000000
00030000
00020010
00000000
00000000
00030000
,
00020001
00030000
20020000
00000000
00000001
00000000
00000000
30030000
20020001
00000000
00000000
30030000
20020001
00000000
00000000
30030000
,
20020001
00000000
00000000
00000000
00001000
30030000
20020000
00000000
00000010
00000000
00000000
30030000
20020001
00000000
00000000
30030000
,
20020010
30030000
20020000
00000000
00000010
00000000
00000000
30030000
20020010
00000000
00000000
30030000
20021000
00000000
00000000
30030000
,
20020010
00000000
00000000
00000000
00000100
30030000
20020000
00000000
00001000
00000000
00000000
30030000
20020010
00000000
00000000
30030000
,
20021000
30030000
20020000
00000000
00000001
00000000
00000000
00000000
00000010
00000000
00000000
30030000
20020001
00000000
00000000
30030000
,
20020100
00000000
00000000
30030000
20020001
30030000
20020000
00000000
00000001
00000000
00000000
30030000
20020001
00000000
00000000
30030000
,
20021000
00000000
00000000
00000000
00001000
00000000
00000000
30030000
20020001
00000000
00000000
30030000
20020010
00000000
00000000
30030000
,
20021000
00000000
00000000
30030000
20020100
30030000
20020000
00000000
00000100
00000000
00000000
00000000
00000010
00000000
00000000
00000000
,
00000100
00001000
30031000
10011000
,
20021001
30030000
00000000
00000000
10010000
00000000
20020000
00000000
00000000
30030000
00000000
00000000
10010000
00000000
00000000
00000000
,
20021001
00000000
00000000
00000000
30030000
00000000
00000000
20020000
00000000
30030000
00000000
20020000
00000000
00000000
30030000
00000000
,
20020001
00000000
00000000
30030000
10010001
00000000
20020000
00000000
00000001
00000000
00000000
00000000
00000001
00000000
00000000
00000000
,
00000010
00000000
00000000
00001001
00000000
00000000
30031001
00000000
00000000
20022002
00000000
00000000
00000000
00000000
00000000
00000000
,
00000000
30033003
00000000
00000000
00000000
00000000
00000000
00000000
;

//---------------dance-double - Fury of the Storm----------------
#NOTES:
     dance-double:
     Fury of the Storm:
     Beginner:
     7:
     0.949,1.000,1.000,1.000,0.005,1419.000,847.000,414.000,0.000,13.000:
00010000
00000010
00000010
00010000
,
00010000
00001001
00001001
00001001
,
00020000
00000000
00000000
00000000
,
00000001
00000010
00000010
00030001
,
00011001
00000010
00000010
00000001
,
00020001
00000000
00000000
00000000
00000100
00000000
00000000
00000000
00000010
00000000
00000000
00000000
00001000
00000000
00000000
00030000
,
00011000
00011000
00011000
00011000
,
00011000
00011000
00011000
00011000
,
00000010
00000010
00000010
00000010
,
01000000
01000000
01000000
01000000
,
00000010
00000100
00000100
00000001
,
00010001
00000000
00000000
00000000
00010001
00000000
00000000
00000000
00010001
00000000
00000000
00000000
00020002
00000000
00000000
00030003
,
00010000
00010000
00010000
00010000
,
00000101
00000101
00000101
00000101
,
00010000
00010000
00010000
00010000
,
00010001
00000000
00000000
00000000
00011000
00000000
00000000
00000000
00010001
00000000
00000000
00000000
00020002
00000000
00000000
00030003
,
00010100
00011000
00010010
00010010
,
00010001
00010001
00010100
00010010
,
00011000
00010010
00010100
00010001
,
10001000
00000000
00000000
00000000
10000100
00000000
00000000
00000000
10001000
00000000
00000000
00000000
10000002
00000000
00000000
00000003
,
10000001
10000001
10000001
10000010
,
10000010
10000100
10000100
10000001
,
10001000
10001000
10001000
10000001
,
00022000
00000000
00000000
00000000
00000000
00000000
00000000
00033000
00022000
00000000
00000000
00000000
00000000
00000000
00000000
00033000
,
00022000
00000000
00000000
00000000
00000000
00000000
00000000
00000000
00000000
00000000
00000000
00000000
00000000
00000000
00000000
00033000
,
00011000
00011000
00011000
00011000
,
00010001
00010001
00010001
00010001
,
00010001
00011000
00011000
00011000
,
00010001
00010001
00010001
00010001
,
10000001
10001000
10001000
10001000
,
10001000
10001000
10001000
10001000
,
10001000
10001000
10001000
10001000
,
10001000
10001000
10001000
10001000
,
10001000
10001000
10001000
10001000
,
10001000
10001000
10001000
10001000
,
10000100
10000100
10000100
10000100
,
10000010
00000100
00010001
00010100
,
00001000
00010000
00000001
00010000
,
00000010
00010000
00000100
00010000
,
00010001
00010010
00010010
00010001
,
00010001
00010001
00010001
00010001
,
00020001
00000000
00000000
00000000
00000001
00000000
00000000
00000000
00000001
00000000
00000000
00000000
00000001
00000000
00000000
00030000
,
00021001
00000000
00000000
00030000
00021001
00000000
00000000
00030000
00021001
00000000
00000000
00030000
00021001
00000000
00000000
00030000
,
00010100
00010001
00010001
00010001
,
00020001
00000000
00000000
00030000
00010001
00000000
00020000
00000000
00000001
00030000
00020000
00000000
00000001
00000000
00000000
00030000
,
00010100
00010010
00010001
00010001
,
00020100
00000000
00000000
00030000
00020001
00030000
00020000
00000000
00000010
00030000
00000000
00000000
00000100
00000000
00000000
00000000
,
00011000
00011000
00011000
00011000
,
00021000
00000000
00000000
00030000
00021000
00030000
00020000
00000000
00001000
00030000
00020000
00000000
00001000
00000000
00000000
00030000
,
00011000
00011000
00011000
00011000
,
00021000
00000000
00000000
00030000
00021000
00030000
00020000
00000000
00001000
00000000
00000000
00000000
00001000
00000000
00000000
00030000
,
00011000
00011000
00011000
00011000
,
00011000
00011000
00011000
00011000
,
00011000
00011000
00011000
00011000
,
00011000
00011000
00011000
00011000
,
00011000
00011000
00011000
00011000
,
00011000
00011000
00011000
00011000
,
00011000
00011000
00011000
00011000
,
00020001
00000000
00000000
00000000
00000001
00000000
00000000
00000000
00000001
00000000
00000000
00000000
00000001
00000000
00000000
00030000
,
00010001
00010001
00010001
00010100
,
00020100
00000000
00000000
00030000
00010100
00000000
00020000
00000000
00000001
00030000
00020000
00000000
00000001
00000000
00000000
00030000
,
00010010
00010100
00010001
00010001
,
00020100
00000000
00000000
00030000
00011000
00000000
00020000
00000000
00000100
00000000
00000000
00000000
00030001
00000000
00000000
00000000
,
00010010
00010010
00010001
00010001
,
00020010
00000000
00000000
00030000
00010100
00000000
00020000
00000000
00000001
00030000
00020000
00000000
00001000
00000000
00000000
00030000
,
00011000
00010010
00010010
00010010
,
00021000
00000000
00000000
00030000
00010010
00000000
00020000
00000000
00001000
00000000
00000000
00000000
00031000
00000000
00000000
00000000
,
00021000
00000000
00000000
00000000
00000100
00030000
00020000
00000000
00000010
00000000
00000000
00030000
00020100
00000000
00000000
00030000
,
00020001
00000000
00000000
00000000
00000010
00030000
00020000
00000000
00000001
00000000
00000000
00030000
00020010
00000000
00000000
00030000
,
00020010
00000000
00000000
00000000
00000100
00030000
00020000
00000000
00000010
00000000
00000000
00030000
00020100
00000000
00000000
00030000
,
00020001
00000000
00000000
00000000
00000010
00000000
00000000
00000000
00000001
00000000
00000000
00000000
00000001
00000000
00000000
00030000
,
00020001
00000000
00000000
00030000
00020100
00030000
00020000
00030000
00020010
00000000
00000000
00030000
00020001
00000000
00000000
00030000
,
00020001
00030000
00020000
00000000
00000001
00030000
00020000
00000000
00001000
00000000
00000000
00030000
00020001
00000000
00000000
00030000
,
00020100
00000000
00000000
00030000
00021000
00030000
00020000
00000000
00000010
00000000
00000000
00030000
00020001
00000000
00000000
00030000
,
00020001
00000000
00000000
00030000
00020001
00030000
00020000
00030000
00020001
00000000
00000000
00000000
00000001
00000000
00000000
00030000
,
00020001
00000001
00000001
00001000
,
00000001
00000000
00000000
00000000
00000010
00000000
00000000
00000000
00001000
00000000
00000000
00000000
00001000
00000000
00000000
00030000
,
00020100
00000100
00000001
00001000
,
00000010
00000000
00000000
00000000
00001000
00000000
00000000
00000000
00000001
00000000
00000000
00000000
00001000
00000000
00000000
00030000
,
00020010
00001000
00000001
00000010
,
00000100
00000000
00000000
00000000
00001000
00000000
00000000
00000000
00000010
00000000
00000000
00000000
00001000
00000000
00000000
00030000
,
00020100
00000001
00000010
00000010
,
00001000
00000000
00000000
00000000
00000010
00000000
00000000
00000000
00001000
00000000
00000000
00000000
00000010
00000000
00000000
00030000
,
00021000
00001000
00001000
00001000
,
00001000
00000000
00000000
00000000
00000100
00000000
00000000
00000000
00000100
00000000
00000000
00000000
00000001
00000000
00000000
00030000
,
00020001
00001000
00001000
00000001
,
00000001
00000000
00000000
00000000
00000010
00000000
00000000
00000000
00000010
00000000
00000000
00000000
00000100
00000000
00000000
00030000
,
00020001
00000010
00000100
00000010
,
00000001
00000000
00000000
00000000
00000001
00000000
00000000
00000000
00000001
00000000
00000000
00000000
00000001
00000000
00000000
00030000
,
00011000
00011000
00011000
00011000
00011000
00011000
00011000
00011000
,
00011000
00000000
00000000
00000000
00022000
00000000
00000000
00033000
00022000
00000000
00000000
00033000
00022000
00000000
00000000
00033000
,
00021000
00000000
00000000
00000000
00001000
00030000
00020000
00000000
00001000
00000000
00000000
00030000
00021000
00000000
00000000
00030000
,
00011000
00000000
00020000
00000000
00001000
00030000
00000000
00000000
00021000
00000000
00000000
00030000
00021000
00000000
00000000
00030000
,
00021000
00000000
00000000
00000000
00001000
00030000
00020000
00000000
00001000
00000000
00000000
00030000
00021000
00000000
00000000
00030000
,
00011000
00000000
00020000
00000000
00001000
00000000
00000000
00030000
00021000
00000000
00000000
00030000
00021000
00000000
00000000
00030000
,
00021000
00000000
00000000
00030000
00011000
00000000
00020000
00000000
00001000
00000000
00000000
00030000
00021000
00000000
00000000
00030000
,
00021000
00000000
00000000
00030000
00011000
00000000
00020000
00000000
00001000
00000000
00000000
00030000
00021000
00000000
00000000
00030000
,
00021000
00000000
00000000
00030000
00021000
00000000
00000000
00000000
00001000
00000000
00000000
00030000
00021000
00000000
00000000
00030000
,
00021000
00030000
00020000
00000000
00001000
00000000
00000000
00030000
00021000
00000000
00000000
00030000
00021000
00000000
00000000
00030000
,
00021000
00000000
00000000
00000000
00000100
00030000
00020000
00000000
00000010
00000000
00000000
00030000
00020001
00000000
00000000
00030000
,
00010100
00000000
00020000
00000000
00001000
00000000
00000000
00030000
00020100
00000000
00000000
00030000
00021000
00000000
00000000
00030000
,
00020010
00000000
00000000
00000000
00001000
00030000
00020000
00000000
00000001
00000000
00000000
00030000
00020001
00000000
00000000
00030000
,
00010100
00000000
00020000
00000000
00001000
00000000
00000000
00000000
00001000
00000000
00000000
00030000
00021000
00000000
00000000
00030000
,
00020100
00000000
00000000
00030000
00000000
00000000
00000000
00000000
00000000
00000000
00000000
00000000
00000000
00000000
00000000
00000000
,
10011001
00000000
00000000
00000000
,
00020010
00000000
00000000
00030000
00000001
00000000
00020000
00000000
00000010
00030000
00000000
00000000
00000100
00000000
00000000
00000000
,
00020100
00000000
00000000
00030000
00000001
00000000
00020000
00000000
00000010
00030000
00000000
00000000
00000001
00000000
00000000
00000000
,
00020010
00000000
00000000
00030000
00000010
00000000
00020000
00000000
00000001
00030000
00000000
00000000
00000010
00000000
00000000
00000000
,
00020010
00000000
00000000
00030000
00000100
00000000
00020000
00000000
00000100
00030000
00000000
00000000
00001000
00000000
00000000
00000000
,
00021000
00000000
00000000
00030000
00000100
00000000
00020000
00000000
00000100
00030000
00000000
00000000
00001000
00000000
00000000
00000000
,
00020010
00000000
00000000
00030000
00001000
00000000
00020000
00000000
00001000
00030000
00000000
00000000
00001000
00000000
00000000
00000000
,
00021000
00000000
00000000
00030000
00001000
00000000
00020000
00000000
00000010
00030000
00000000
00000000
00000100
00000000
00000000
00000000
,
00021000
00000000
00000000
00030000
00000001
00000000
00020000
00000000
00000001
00030000
00000000
00000000
00000001
00000000
00000000
00000000
,
00020001
00000000
00000000
00030000
00000001
00000000
00020000
00000000
00000001
00030000
00000000
00000000
00001000
00000000
00000000
00000000
,
00001000
00000000
00000000
00000000
00001000
00000000
00020000
00000000
00001000
00030000
00000000
00000000
00001000
00000000
00000000
00000000
,
00001000
00000000
00000000
00000000
00001000
00000000
00020000
00000000
00001000
00030000
00000000
00000000
00000010
00000000
00000000
00000000
,
00000001
00000000
00000000
00000000
00000001
00000000
00020000
00000000
00000001
00030000
00000000
00000000
00000100
00000000
00000000
00000000
,
00021000
00000000
00000000
00030000
00001000
00000000
00020000
00000000
00000010
00030000
00000000
00000000
00010100
00000000
00000000
00000000
,
00011000
00011000
00011000
00011000
,
00011000
00011000
00011000
00011000
,
00022000
00000000
00000000
00033000
00022000
00000000
00000000
00000000
00000000
00000000
00000000
00000000
00000000
00000000
00000000
00033000
,
00010001
00010100
00010001
00010010
,
00020010
00000000
00000000
00030000
00010010
00000000
00020000
00000000
00000010
00030000
00020000
00000000
00000100
00000000
00000000
00030000
,
00010010
00010001
00010001
00010100
,
00010001
00000000
00000000
00000000
00010100
00000000
00020000
00000000
00000010
00000000
00000000
00000000
00000001
00000000
00000000
00030000
,
00011000
00011000
00011000
00011000
,
00021000
00000000
00000000
00030000
00001000
00000000
00020000
00000000
00001000
00030000
00020000
00000000
00001000
00000000
00000000
00030000
,
00011000
00011000
00011000
00011000
,
00021000
00000000
00000000
00030000
00001000
00000000
00020000
00000000
00001000
00000000
00000000
00000000
00000100
00000000
00000000
00030000
,
00021000
00000000
00000000
00000000
00001000
00030000
00020000
00000000
00000100
00000000
00000000
00030000
00020001
00000000
00000000
00030000
,
00020001
00000000
00000000
00000000
00000001
00030000
00020000
00000000
00000100
00000000
00000000
00030000
00020001
00000000
00000000
00030000
,
00021000
00000000
00000000
00000000
00000001
00030000
00020000
00000000
00000100
00000000
00000000
00030000
00020001
00000000
00000000
00030000
,
00022000
00000000
00000000
00000000
00000000
00000000
00000000
00000000
00000000
00000000
00000000
00000000
00000000
00000000
00000000
00033000
,
00010010
00000000
00000000
00000000
00010100
00000000
00000000
00000000
00020100
00000000
00000000
00030000
00020010
00000000
00000000
00030000
,
00021000
00000000
00000000
00030000
00000001
00000000
00020000
00000000
00000100
00000000
00000000
00030000
00020001
00000000
00000000
00030000
,
00020001
00000000
00000000
00030000
00001000
00000000
00020000
00000000
00000100
00000000
00000000
00030000
00021000
00000000
00000000
00030000
,
00021000
00000000
00000000
00030000
00020100
00030000
00020000
00030000
00022000
00000000
00000000
00000000
00000000
00000000
00000000
00033000
,
00021000
00001000
00001000
00001000
,
00001000
00000000
00000000
00000000
00001000
00000000
00000000
00000000
00001000
00000000
00000000
00000000
00001000
00000000
00000000
00030000
,
00020100
00000100
00000100
00000100
,
00000100
00000000
00000000
00000000
00000100
00000000
00000000
00000000
00000100
00000000
00000000
00000000
00000100
00000000
00000000
00030000
,
00020010
00000010
00000010
00000010
,
00000010
00000000
00000000
00000000
00000010
00000000
00000000
00000000
00000010
00000000
00000000
00000000
00000010
00000000
00000000
00030000
,
00020001
00000001
00000001
00000001
,
00000001
00000000
00000000
00000000
00000001
00000000
00000000
00000000
00000001
00000000
00000000
00000000
00000001
00000000
00000000
00030000
,
00021000
00001000
00001000
00001000
,
00001000
00000000
00000000
00000000
00001000
00000000
00000000
00000000
00001000
00000000
00000000
00000000
00001000
00000000
00000000
00030000
,
00021000
00001000
00000100
00001000
,
00001000
00000000
00000000
00000000
00001000
00000000
00000000
00000000
00001000
00000000
00000000
00000000
00001000
00000000
00000000
00030000
,
00021000
00000100
00001000
00001000
,
00000100
00000000
00000000
00000000
00000010
00000000
00000000
00000000
00000100
00000000
00000000
00000000
00000100
00000000
00000000
00030000
,
00011000
00011000
00011000
00011000
00011000
00011000
00011000
00011000
,
00011000
00000000
00000000
00000000
00200020
00000000
00000000
00300030
00200020
00000000
00000000
00300030
00200020
00000000
00000000
00300030
,
00020001
00000000
00000000
00000000
00000010
00030000
00020000
00000000
00000010
00000000
00000000
00030000
00020001
00000000
00000000
00030000
,
00020100
00030000
00020000
00000000
00000100
00000000
00000000
00030000
00020100
00000000
00000000
00030000
00020001
00000000
00000000
00030000
,
00020010
00000000
00000000
00000000
00000001
00030000
00020000
00000000
00000001
00000000
00000000
00030000
00020100
00000000
00000000
00030000
,
00020010
00030000
00020000
00000000
00000100
00000000
00000000
00030000
00020001
00000000
00000000
00030000
00020010
00000000
00000000
00030000
,
00020001
00000000
00000000
00030000
00020001
00030000
00020000
00000000
00000001
00000000
00000000
00030000
00020001
00000000
00000000
00030000
,
00020010
00000000
00000000
00030000
00020010
00030000
00020000
00000000
00000010
00000000
00000000
00030000
00020010
00000000
00000000
00030000
,
00020100
00000000
00000000
00000000
00000100
00030000
00020000
00000000
00000100
00000000
00000000
00030000
00020100
00000000
00000000
00030000
,
00020001
00030000
00020000
00000000
00000001
00000000
00000000
00030000
00020001
00000000
00000000
00030000
00020001
00000000
00000000
00030000
,
00020001
00000000
00000000
00000000
00001000
00030000
00020000
00000000
00000010
00000000
00000000
00030000
00020001
00000000
00000000
00030000
,
00011000
00000000
00020000
00000000
00000100
00000000
00000000
00030000
00020010
00000000
00000000
00030000
00021000
00000000
00000000
00030000
,
00020001
00000000
00000000
00000000
00001000
00030000
00020000
00000000
00000100
00000000
00000000
00030000
00020001
00000000
00000000
00030000
,
00010010
00000000
00020000
00000000
00000001
00000000
00000000
00000000
00000010
00000000
00000000
00030000
00020100
00000000
00000000
00030000
,
00011001
00000000
00000000
00000000
,
10011001
00000000
00000000
00000000
,
00020010
00000000
00000000
00030000
00010010
00000000
00020000
00000000
00000010
00000000
00000000
00000000
00000010
00000000
00000000
00030000
,
00010000
00001000
00001000
00001000
,
00020010
00000000
00000000
00030000
00021000
00000000
00000000
00030000
00010010
00000000
00000000
00000000
00010001
00000000
00000000
00000000
,
00021000
00030001
00000001
00000001
,
00020010
00000000
00000000
00000000
00000000
00000000
00000000
00000000
00030000
00000000
00000000
00000000
00020001
00000000
00000000
00000000
00000000
00000000
00000000
00000000
00000000
00030000
00000000
00000000
00011000
00000000
00000000
00000000
00000000
00000000
00000000
00000000
00000000
00000000
00000000
00000000
00020001
00000000
00000000
00000000
00000000
00000000
00000000
00000000
00000000
00030000
00000000
00000000
,
00021000
00031000
00001000
00001000
,
00020001
00000000
00000000
00030000
00020010
00000000
00000000
00030000
00010100
00000000
00000000
00000000
00010001
00000000
00000000
00000000
,
00020001
00030001
00000001
00010001
,
00020010
00000000
00000000
00030000
00020001
00000000
00000000
00030000
00020010
00000000
00000000
00030000
00020001
00000000
00000000
00030000
,
00001010
00001010
00000101
00000101
,
00010000
00010000
00010000
00010000
,
00001001
00000000
00000000
00000000
00020000
00000000
00000000
00030000
00020000
00000000
00000000
00030000
00020000
00000000
00000000
00030000
,
00010000
00000000
00000000
00000000
00000000
00000000
00022000
00000000
00000000
00000000
00000000
00000000
00000000
00000000
00000000
00033000
,
00010001
00000000
00010000
00000000
00020002
00000000
00000000
00030003
00020002
00000000
00000000
00030003
00020002
00000000
00000000
00030003
,
00020002
00000000
00000000
00030003
00020200
00030300
00020200
00000000
00000000
00030300
00020200
00000000
00000000
00000000
00000000
00030300
,
00001001
00001001
00001001
00001001
,
00010000
00010000
00010000
00010000
,
00010100
00000100
00001000
00010001
,
00010010
00010010
00010010
00010010
,
00011000
00000000
00001000
00010000
00000001
00000000
00010100
00000000
,
00011000
00010100
00011000
00010010
,
00001000
00001000
00001000
00000100
,
00001000
00000001
00001000
00001000
,
00020010
00030000
00020000
00030000
00020001
00030000
00020000
00000000
00001000
00030000
00020000
00000000
00001000
00030000
00020000
00030000
,
00020010
00030000
00020000
00030000
00020001
00030000
00020000
00000000
00000001
00030000
00020000
00000000
00000001
00000000
00000000
00030000
,
00011000
00001000
00011000
00001000
,
00011000
00001000
00001000
00011000
,
00011000
00001000
00011000
00001000
,
00011000
00001000
00001000
00011000
,
00010010
00000001
00011000
00000100
,
00010001
00000001
00000100
00011010
,
00010001
00000010
00011000
00001000
,
00010001
00000000
00000000
00000000
00000010
00000000
00000000
00000000
00000001
00000000
00000000
00000000
00020001
00000000
00000000
00030000
,
00011000
00011000
00011000
00011000
,
00011000
00000000
00000000
00000000
00010100
00000000
00000000
00000000
00010100
00000000
00000000
00000000
00021000
00000000
00000000
00030000
,
00010001
00010001
00010100
00010001
,
00010100
00010010
00010100
00011000
,
00010001
00010100
00010010
00011000
,
00010001
00010100
00010001
00011000
,
00010001
00010010
00010001
00010010
,
00010100
00011000
00010100
00010100
,
00021000
00000000
00000000
00030000
00020000
00000000
00000000
00030000
00020000
00000000
00000000
00030000
00010001
00000000
00000000
00000000
,
00010100
00000000
00000000
00000000
00010010
00000000
00020000
00000000
00001000
00030000
00020000
00030000
00020100
00030000
00020000
00030000
,
00000002
00000023
00000230
00002300
,
00023000
00000000
00000000
00000000
00230000
00000000
02300000
00000000
00000000
03000000
00000000
00000000
00010000
00000000
00000000
00000000
,
00010000
00010100
00010001
00010100
,
00011000
00010010
00010100
00010001
,
00001000
00001000
00000100
00000010
,
00001000
00001000
00001000
00000001
,
00020001
00030000
00000010
00000000
00000001
00000000
00000010
00000000
,
00020100
00030000
00001000
00000000
00000100
00000000
00001000
00000000
,
00021000
00030000
00001000
00000000
00000010
00000000
00000100
00000000
,
00020010
00000000
00000000
00000000
00001000
00000000
00000000
00000000
00000001
00000000
00000000
00000000
00000001
00000000
00000000
00030000
,
00020001
00030000
00000010
00000000
00000001
00000000
00000010
00000000
,
00020010
00030000
00000100
00000000
00000100
00000000
00001000
00000000
,
00020001
00030000
00000100
00000000
00000001
00000000
00000001
00000000
,
00020001
00000000
00000000
00000000
00000001
00000000
00000000
00000000
00000100
00000000
00000000
00000000
00000001
00000000
00000000
00030000
,
00011000
00011000
00011000
00011000
,
00011000
00011000
00011000
00011000
,
00010100
00010100
00010100
00010100
,
00010100
00010100
00010100
00010100
,
00010010
00010010
00010010
00010010
,
00010010
00010010
00010010
00010010
,
00010001
00010001
00010001
00010001
,
00010001
00010001
00010001
00010001
,
00011001
00011000
00011000
00011000
,
00011000
00011000
00011000
00011000
,
00011000
00011000
00010010
00010010
,
00010010
00011000
00011000
00010010
,
00010001
00010001
00010001
00010001
,
00010001
00010001
00010001
00010001
,
00010001
00010001
00010001
00010010
,
00010100
00010010
00010001
00010010
,
00010100
00010001
00010100
00011000
,
00011000
00011000
00011000
00011000
,
00011000
00011000
00011000
00010100
,
00011000
00011000
00010100
00011000
,
00011000
00011000
00011000
00011000
,
00011000
00010010
00010010
00011000
,
00022000
00000000
00000000
00033000
00022000
00000000
00000000
00033000
00022000
00000000
00000000
00033000
00022000
00000000
00000000
00033000
,
00022000
00000000
00000000
00033000
00022000
00000000
00000000
00033000
00001000
00000000
00000000
00000000
00001000
00000000
00000000
00000000
,
00011000
00011000
00011000
00010010
,
00010100
00010010
00011000
00011000
,
00010001
00011000
00010001
00011000
,
00010001
00010100
00010100
00010001
,
00010001
00010001
00010010
00010001
,
00010100
00010100
00010001
00010001
,
00010001
00010010
00010100
00010100
,
00010100
00010001
00011000
00011000
,
00010001
00010001
00010001
00010001
,
00010100
00010100
00010100
00010100
,
00011000
00001000
00001000
00001000
,
00020001
00000000
00000000
00000000
00000001
00000000
00000000
00000000
00000001
00000000
00000000
00000000
00000001
00000000
00000000
00030000
,
00021000
00000000
00000000
00000000
00000001
00000000
00000000
00000000
00000001
00000000
00000000
00000000
00001000
00000000
00000000
00030000
,
00020010
00000000
00000000
00000000
00000001
00000000
00000000
00000000
00000010
00000000
00000000
00030000
00021000
00000000
00000000
00030000
,
00020100
00030000
00010010
00000000
00011000
00000000
00010001
00000000
,
00021000
00000000
00000000
00000000
00001000
00000000
00000000
00000000
00000100
00000000
00000000
00000000
00000100
00000000
00000000
00030000
,
00010010
00010010
00011000
00010100
,
00010001
00010001
00010001
00011000
,
00011000
00011000
00011000
00011000
,
00011000
00011000
00010001
00010010
,
00010001
00010001
00011000
00010001
,
00010001
00010100
00011000
00011000
,
00010010
00010010
00010100
00010001
,
00010001
00011000
00011000
00011000
,
00010001
00011000
00011000
00010001
,
00010001
00010100
00010001
00010100
,
00010100
00010001
00010010
00011000
,
00011000
00010010
00010001
00010001
,
00010001
00010001
00010001
00010010
,
00010010
00010010
00010010
00010010
,
00011000
00011000
00011000
00011000
,
00011000
00011000
00010001
00010001
,
00010001
00000001
00010001
00000001
,
00011000
00001000
00011000
00001000
,
00011000
00001000
00011000
00001000
,
00010100
00001000
00010010
00000010
,
00010001
00010010
00010100
00010010
,
00010010
00010001
00010001
00010010
,
00010100
00010010
00010001
00010001
,
00010010
00010010
00010001
00010001
,
00010100
00010001
00010010
00011000
,
00010001
00010010
00010010
00010010
,
00020001
00000000
00000000
00000000
00000001
00000000
00000000
00000000
00000001
00000000
00000000
00000000
00000001
00000000
00000000
00030000
,
00020001
00000000
00000000
00000000
00000001
00000000
00000000
00000000
00000001
00000000
00000000
00000000
00000001
00000000
00000000
00030000
,
00011000
00011000
00011000
00011000
,
00010100
00010100
00011000
00011000
,
00010100
00010100
00011000
00011000
,
00010010
00000000
00000000
00000000
00010010
00000000
00000000
00000000
00021000
00000000
00000000
00000000
00001000
00000000
00000000
00030000
,
00021000
00000000
00000000
00030000
00021000
00000000
00000000
00030000
00020010
00000000
00000000
00030000
00010100
00000000
00000000
00000000
,
00011000
00000000
00001000
00020000
00001000
00030000
00011000
00000000
,
00011000
00011000
00011000
00010100
,
00011000
00000000
00000000
00000000
00010100
00000000
00000000
00000000
00020200
00000000
00000000
00000000
00000000
00000000
00000000
00030300
,
00010001
00010001
00010001
00010001
,
00010001
00011000
00010100
00010001
,
00010010
00010010
00010001
00010001
,
00010001
00000000
00000000
00000000
00010100
00000000
00000000
00000000
00010010
00000000
00000000
00000000
00020001
00000000
00000000
00030000
,
00020100
00000000
00000000
00000000
00000001
00000000
00000000
00000000
00000001
00000000
00000000
00000000
00000010
00000000
00000000
00030000
,
00020010
00000000
00000000
00000000
00000001
00000000
00000000
00000000
00000010
00000000
00000000
00000000
00000100
00000000
00000000
00030000
,
00020001
00000000
00000000
00000000
00000100
00000000
00000000
00000000
00000100
00000000
00000000
00000000
00000001
00000000
00000000
00030000
,
00020001
00000000
00000000
00030000
00020001
00000000
00000000
00030000
00020001
00000000
00000000
00030000
00020001
00000000
00000000
00030000
,
00020200
00000000
00000000
00000000
00000300
00000000
00000200
00000000
00000000
00000000
00000300
00000000
00000100
00000000
00000000
00030000
,
00020100
00000000
00000100
00000000
00000000
00000000
00000000
00000000
00000100
00000000
00000000
00000000
00000100
00000000
00000000
00030000
,
00020100
00000000
00000000
00000000
00000000
00000000
00000100
00000000
00000000
00000000
00000000
00000000
00000100
00000000
00000000
00030000
,
00020100
00000000
00000100
00000000
00000000
00000000
00000000
00000000
00000100
00000000
00000000
00000000
00000100
00000000
00000000
00030000
,
00020100
00000000
00000100
00000100
00000000
00000000
00000100
00000000
,
00000100
00000000
00000000
00000000
00000100
00000000
00000100
00000000
00000000
00000000
00000000
00000000
00000100
00000000
00000000
00030000
,
00020001
00000000
00000000
00000000
00000001
00030000
00020000
00000000
00000001
00000000
00000000
00030000
00020001
00000000
00000000
00030000
,
00020001
00030000
00020000
00000000
00000010
00000000
00000000
00030000
00020001
00000000
00000000
00030000
00020010
00000000
00000000
00030000
,
00021000
00000000
00000000
00000000
00001000
00030000
00020000
00000000
00001000
00000000
00000000
00030000
00021000
00000000
00000000
00030000
,
00020100
00030000
00020000
00000000
00000100
00000000
00000000
00030000
00021000
00000000
00000000
00030000
00021000
00000000
00000000
00030000
,
00021000
00000000
00000000
00000000
00001000
00030000
00020000
00000000
00001000
00000000
00000000
00030000
00021000
00000000
00000000
00030000
,
00020100
00030000
00020000
00000000
00000100
00000000
00000000
00030000
00021000
00000000
00000000
00030000
00021000
00000000
00000000
00030000
,
00021000
00000000
00000000
00030000
00020010
00030000
00020000
00000000
00000010
00000000
00000000
00030000
00021000
00000000
00000000
00030000
,
00020010
00000000
00000000
00030000
00020010
00030000
00020000
00000000
00001000
00000000
00000000
00030000
00020010
00000000
00000000
00030000
,
00020010
00000000
00000000
00000000
00000010
00030000
00020000
00000000
00000010
00000000
00000000
00030000
00020010
00000000
00000000
00030000
,
00020001
00030000
00020000
00000000
00000001
00000000
00000000
00030000
00020001
00000000
00000000
00030000
00020001
00000000
00000000
00030000
,
00020001
00000000
00000000
00000000
00001000
00030000
00020000
00000000
00000010
00000000
00000000
00030000
00020001
00000000
00000000
00030000
,
00020010
00030000
00020000
00000000
00000010
00000000
00000000
00030000
00020010
00000000
00000000
00030000
00021000
00000000
00000000
00030000
,
00020010
00000000
00000000
00000000
00000100
00030000
00020000
00000000
00001000
00000000
00000000
00030000
00020010
00000000
00000000
00030000
,
00021000
00030000
00020000
00000000
00000001
00000000
00000000
00000000
00000010
00000000
00000000
00030000
00020001
00000000
00000000
00030000
,
00020100
00000000
00000000
00030000
00020001
00030000
00020000
00000000
00000001
00000000
00000000
00030000
00020001
00000000
00000000
00030000
,
00021000
00000000
00000000
00000000
00001000
00000000
00000000
00030000
00020001
00000000
00000000
00030000
00020010
00000000
00000000
00030000
,
00021000
00000000
00000000
00030000
00020100
00030000
00020000
00000000
00000100
00000000
00000000
00000000
00000010
00000000
00000000
00000000
,
00000100
00001000
00031000
00011000
,
00021001
00030000
00000000
00000000
00010000
00000000
00020000
00000000
00000000
00030000
00000000
00000000
00010000
00000000
00000000
00000000
,
00021001
00000000
00000000
00000000
00030000
00000000
00000000
00020000
00000000
00030000
00000000
00020000
00000000
00000000
00030000
00000000
,
00020001
00000000
00000000
00030000
00010001
00000000
00020000
00000000
00000001
00000000
00000000
00000000
00000001
00000000
00000000
00000000
,
00000010
00000000
00000000
00001000
00000000
00000000
00031000
00000000
00000000
20022002
00000000
00000000
00000000
00000000
00000000
00000000
,
00000000
30033003
00000000
00000000
00000000
00000000
00000000
00000000
;
