#TITLE:Help!Heaven!;
#SUBTITLE:Megachu OP;
#ARTIST:U;
#TITLETRANSLIT:;
#SUBTITLETRANSLIT:;
#ARTISTTRANSLIT:;
#CREDIT:clow;
#BANNER:MegachuOpening-bn.png;
#BACKGROUND:MegachuOpening-bg1.jpg;
#LYRICSPATH:;
#CDTITLE:Clow.png;
#MUSIC:MegachuOpening.mp3;
#OFFSET:1.160;
#SAMPLESTART:27.800;
#SAMPLELENGTH:12.000;
#SELECTABLE:YES;
#BPMS:0.000=115.000;
#STOPS:;
#BGCHANGES:2.250=MegachuOpening.avi=1.000=0=0=1,
194.583=MegachuOpening-bg2.jpg=1.000=0=0=1,
99999=-nosongbg-=1.000=0=0=0 // don't automatically add -songbackground-
;
// cache tags:
#FIRSTBEAT:4.500;
#LASTBEAT:194.583;
#SONGFILENAME:Songs/toune 6/[Clow]Help!Heaven! - Megachu/MegachuOpening.sm;
#HASMUSIC:1;
#HASBANNER:1;
#MUSICLENGTH:105.064;
// end cache tags

//---------------dance-single - ----------------
#NOTES:
     dance-single:
     :
     Hard:
     10:
     0.666,0.602,0.790,0.904,0.228,310.000,83.000,95.000,0.000,26.000:
0000
0000
0000
0000
,
0000
0000
1000
0100
0010
0001
1000
0100
0010
0001
1000
0100
0010
0000
1100
0000
,
1100
0000
0200
0300
0200
0300
0200
0300
0011
0011
0011
0000
1000
0000
1000
0000
,
1000
1000
0100
0100
0100
0022
0033
0000
,
0000
0022
0030
0023
0000
0230
0000
2000
,
3300
0000
0110
0000
0110
0000
0110
0000
1001
0000
1001
0000
0000
0000
0010
0100
,
2000
0022
0000
3200
0000
1000
1000
1000
,
1033
0022
0333
0022
0033
0220
0000
2000
,
3330
0022
0000
0000
0033
2200
0000
3300
,
0001
0010
0001
0010
0001
0020
0000
0200
,
0330
1001
0000
0110
0000
0001
0001
0010
,
0100
2000
0000
0200
0000
0020
0000
0002
,
3333
2222
0000
0000
3333
0220
0000
0330
,
1000
0000
0100
0000
0100
0000
0010
0000
0010
0000
0001
0000
0000
0000
0010
0100
,
1000
0000
0010
0001
0020
0000
0000
0000
0030
0000
0000
0000
0000
0000
0001
0001
,
0000
1000
0100
1000
0022
0000
0033
0000
0000
0000
0000
0000
0000
0000
1000
0100
,
1000
0000
0001
0001
0002
0000
0003
0000
0000
0000
0000
0000
0000
0000
1000
0100
,
1000
0000
0022
0000
0033
0000
0022
0000
0033
0000
0022
0000
0033
0000
0100
0010
,
0001
0000
1000
0000
1100
0000
0000
0000
0000
0000
0000
0000
0000
0000
0010
0100
,
1000
0000
0001
0000
0011
0000
0000
0000
0000
0000
0000
0000
0000
0000
1000
1000
,
1000
0001
0000
0010
2200
0000
3300
0000
0000
0000
0000
0000
0000
0000
0010
0100
,
1000
0002
0000
0020
0000
0200
0333
2000
,
0000
0000
3100
0000
0000
0000
0100
0010
0001
0010
0100
0000
1000
0000
1000
0000
,
0100
0010
0010
0001
0001
0000
0010
0100
,
1000
0000
0000
0000
0000
0000
0100
0010
0001
0000
0000
0000
1000
0100
1000
0100
,
0000
0011
0011
1100
2200
0000
3300
0022
,
1133
0000
1000
0000
1000
0000
0002
0003
0002
0000
0000
0000
0000
0000
0003
0000
,
0000
2000
0000
0002
0220
0000
3333
0110
,
1001
0000
0100
0000
0010
0000
0001
0000
1000
0100
0010
0001
1100
0000
1100
0000
,
0001
0011
0100
1000
1000
1000
0000
0010
,
0001
0000
0110
0000
0001
0000
0110
0000
1000
0100
0010
0000
1100
0000
1100
0000
,
0001
0010
0100
0000
0011
0000
0011
0000
1000
0000
1100
0000
0000
0000
0010
0100
,
1000
0000
0010
0100
1000
0000
0011
0000
1000
0100
0010
0000
1100
0000
1100
0000
,
0011
0000
0011
0000
1000
0100
1000
0000
0110
0000
0002
0000
0000
0000
0020
0000
,
0000
2033
0000
0200
0000
0020
0000
0002
,
3333
0000
1001
0000
0110
0000
0000
0000
0110
0000
1001
0000
0000
0000
1000
0100
,
1000
0000
0011
0000
1100
0000
0011
0000
1000
0100
0010
0000
1100
0000
1100
0000
,
0010
0000
1000
0000
1100
0000
0010
0000
0010
0000
0010
0000
0000
0000
0001
0010
,
0001
0000
1000
0000
1000
0000
1100
0000
0001
0010
0100
0000
0011
0000
0011
0000
,
1000
0100
0010
0000
1000
0000
1100
0000
1000
0000
1100
0000
0000
0000
0011
0000
,
0011
0000
0100
0000
0200
0300
0000
0000
1000
0100
0010
0100
0010
0001
1100
0000
,
0010
0010
0011
1100
1100
0002
0000
0020
,
0033
2002
0000
0220
3333
0220
0000
2002
,
3333
0000
1000
0000
0100
0000
0000
0000
0001
0000
0010
0000
0000
0000
0010
0100
,
1000
0100
0012
0000
0000
0000
0020
0000
0000
0000
2033
0000
0200
0000
0020
0000
,
3331
0002
0000
0020
0000
0200
0000
2000
,
3000
2333
0000
0000
0000
0200
0000
3300
,
0001
0010
0001
0010
0100
0011
0000
2200
,
0000
0000
0000
3322
0000
0000
0000
0000
0000
0000
0000
0000
0000
0000
0000
0000
0000
0000
0000
0000
0000
0000
0000
0000
0033
0000
0000
0000
1000
0100
0010
0001
0000
0000
0000
0000
0000
0000
0000
0000
0000
0000
0000
0000
0000
0000
0000
0000
;

//---------------dance-single - ----------------
#NOTES:
     dance-single:
     :
     Medium:
     7:
     0.457,0.439,0.038,0.695,0.043,259.000,4.000,73.000,0.000,1.000:
0000
0000
0000
0000
,
0000
0000
1000
0100
0010
0001
0010
0100
1000
0100
0010
0001
0010
0000
0100
0000
,
0100
0000
1000
0000
0100
0000
1000
0000
0010
0001
0010
0000
0100
0000
0100
0000
,
0100
0100
0010
0001
0010
0200
0300
0000
,
0000
0200
0300
0020
0000
0230
0000
2300
,
3000
0010
0010
0010
0100
0100
0000
2000
,
0000
0002
0000
3203
0000
0000
0000
0000
,
0000
0020
0330
0002
0003
0020
0000
0200
,
0330
2000
0000
0000
3000
0200
0000
0300
,
0001
0100
0001
0100
0001
0020
0030
0200
,
0300
0010
0000
0100
0000
0010
0001
0010
,
0100
0020
0000
0230
0000
2300
0000
3200
,
0300
0020
0000
0000
0030
0002
0000
0003
,
0010
0100
0010
0100
1000
0011
0000
2000
,
3000
0000
0002
0003
0020
0000
0000
0000
0030
0000
0000
0000
0000
0000
0200
0300
,
0000
2000
0000
3000
0020
0000
0030
0000
0000
0000
0000
0000
0000
0000
1000
0000
,
1000
0100
0020
0030
0000
0000
0000
2000
,
3000
0002
0003
0020
0030
0002
0003
1100
,
0001
0010
0100
0000
0000
0000
0000
0100
,
1000
0010
0010
0000
0000
0000
0000
2000
,
3000
0011
0000
0000
2200
0000
3300
0000
0000
0000
0000
0000
0000
0000
1000
0000
,
0100
0000
0200
0000
0000
0000
0320
0000
0000
0000
0032
0000
0000
0003
0020
0000
,
0000
0130
0000
1000
0010
0100
1000
1000
,
0100
0010
0010
0001
0001
0000
0010
0100
,
1000
0000
0000
0100
0010
0000
1000
0100
,
0000
0010
0010
0100
0200
0000
0300
0020
,
0130
1000
1000
0010
0002
0000
0000
0003
,
0000
2000
0000
3002
0203
0000
0300
0010
,
0001
0010
0100
0010
1000
0100
0010
0010
,
0001
0010
0100
1000
1000
1000
0000
0010
,
0001
0010
0100
0100
1000
0100
0010
0010
,
0001
0010
0100
0100
1000
0100
0000
0010
,
0100
0010
0001
0010
0100
1000
0100
0100
,
0010
0010
0100
1000
0100
0020
0000
0230
,
0000
2300
0000
3200
0000
0320
0000
0032
,
0003
1000
0100
0000
0010
0001
0000
2000
,
3000
0010
0100
0010
0001
0010
0100
0100
,
0010
0001
0001
0010
0100
0010
0000
0001
,
0001
0010
0100
0100
0010
0001
0010
0010
,
0100
0010
0100
0100
0010
0010
0000
0001
,
0001
0010
0010
0000
0100
1000
0100
0010
,
0100
1000
1000
0100
0100
0002
0000
0023
,
0030
2000
0000
0200
3300
0020
0000
0002
,
0033
1000
0100
0000
0001
0010
0000
2000
,
0000
3002
0000
0023
0000
2030
3200
0320
,
0031
0002
0000
0023
0000
0230
0000
2300
,
3000
0002
0000
0000
0000
0023
0000
0030
,
1000
0100
1000
0100
0010
0010
0000
0200
,
0300
0020
0000
0000
0000
0000
0000
0000
0030
0000
0000
0000
0000
0000
0000
0000
;

//---------------dance-single - ----------------
#NOTES:
     dance-single:
     :
     Easy:
     6:
     0.393,0.369,0.000,0.381,0.014,249.000,0.000,40.000,0.000,0.000:
0000
0000
0000
0000
,
0000
1000
0100
0010
0001
0010
0100
1000
,
0100
0010
0001
0010
0200
0300
0010
0001
,
0001
0010
0100
0010
0001
0020
0030
0000
,
0000
0100
0000
0100
0000
0020
0000
0031
,
0000
0100
0000
0010
0100
0100
0000
2000
,
0000
3010
0000
0200
0000
0000
0000
0000
,
0000
0310
0000
0001
0000
0020
0000
0130
,
0000
2000
0000
0000
3000
0100
0000
0000
,
0001
0100
0001
0100
0001
0010
0000
0100
,
0000
1000
0000
0100
0000
1000
0100
0010
,
0100
0020
0000
0130
0000
2000
0000
3100
,
0000
0020
0000
0000
0030
0001
0000
0000
,
0001
0010
0100
0010
0100
1000
0000
0200
,
0300
0000
0002
0000
0013
0000
0000
0000
0000
0000
0000
0000
0000
0000
0200
0300
,
0000
1000
0000
0000
0100
0000
0000
0000
0000
0000
0000
0000
0000
0000
0100
0000
,
0010
0001
0010
0000
0000
0000
0000
0100
,
0000
0020
0030
0200
0300
0020
0030
0100
,
0010
0100
1000
0000
0000
0000
0000
0100
,
1000
0001
0010
0000
0000
0000
0000
2000
,
0000
3100
0000
0000
0020
0000
0030
0000
0000
0000
0000
0000
0000
0000
0001
0000
,
0010
0200
0000
0310
0000
0001
0000
0020
,
0000
0130
0000
1000
0010
0100
0010
0100
,
1000
0100
0010
0001
0010
0000
0010
0100
,
1000
0000
0000
0100
0010
0000
1000
0100
,
0000
0010
0001
0010
0200
0000
0300
0020
,
0130
1000
0100
0010
0200
0000
0000
0300
,
0000
0020
0000
0031
0200
0000
0300
0010
,
0001
0010
0100
0010
1000
0100
0010
0001
,
0010
0100
0010
0001
0010
0001
0000
0100
,
0010
0001
0010
0001
0010
0100
1000
0100
,
0010
0100
0010
0001
0010
0100
0000
1000
,
0100
0010
0001
0010
0001
0010
0100
1000
,
0100
0010
0100
1000
0100
0020
0000
0130
,
0000
2000
0000
3100
0000
0020
0000
0031
,
0000
1000
0100
0000
0010
0001
0000
2000
,
0000
3100
0001
0010
0001
0010
0100
1000
,
0100
0010
0001
0010
0001
0010
0000
0100
,
1000
0100
0010
0100
0010
0001
0010
0100
,
1000
0100
0010
0100
0010
0001
0000
0200
,
0000
0310
0000
0000
0100
1000
0100
0010
,
0100
1000
0100
0010
0100
0002
0000
0013
,
0000
2000
0000
3100
0000
0020
0000
0031
,
0000
1000
0100
0000
0001
0010
0000
2000
,
0000
3001
0000
0020
0000
1030
0200
0310
,
0001
2000
0000
3100
0000
0020
0000
0031
,
0000
2000
0000
0000
0000
3100
0000
0000
,
0001
0010
1000
0100
0010
0001
0000
0100
,
0000
0020
0000
0000
0000
0000
0000
0000
0030
0000
0000
0000
0000
0000
0000
0000
;
