#TITLE:Future Stream;
#SUBTITLE:Hatsukoi Limited OP theme;
#ARTIST:Sphere;
#TITLETRANSLIT:;
#SUBTITLETRANSLIT:;
#ARTISTTRANSLIT:;
#CREDIT:ALICE_;
#BANNER:Future Stream.png;
#BACKGROUND:Future Stream.jpg;
#LYRICSPATH:;
#CDTITLE:cdtitle.png;
#MUSIC:Future Stream.mp3;
#OFFSET:1.680;
#SAMPLESTART:56.820;
#SAMPLELENGTH:12.000;
#SELECTABLE:YES;
#BPMS:0.000=133.000;
#STOPS:;
#BGCHANGES:2.500=Future Stream.avi=1.000=0=0=1,
202.000=Future Stream.jpg=1.000=1=0=1,
99999=-nosongbg-=1.000=0=0=0 // don't automatically add -songbackground-
;
// cache tags:
#FIRSTBEAT:4.000;
#LASTBEAT:202.500;
#SONGFILENAME:Songs/alice 4th complete step/Future Stream/Future Stream.sm;
#HASMUSIC:1;
#HASBANNER:1;
#MUSICLENGTH:89.739;
// end cache tags

//---------------dance-single - ----------------
#NOTES:
     dance-single:
     :
     Hard:
     7:
     0.543,0.591,0.345,0.178,0.100,294.000,31.000,16.000,0.000,0.000:
0000
0000
0000
0000
,
1001
0000
0000
0010
0010
0000
0000
0100
,
0100
0000
0000
1000
0010
0000
0000
0100
,
0001
0000
0000
1000
1000
0000
0000
0100
,
0100
0000
0000
0000
0000
0000
0010
0000
0001
0000
0000
0100
0000
0000
0010
0000
,
1001
0000
0100
1000
1000
0000
0010
0100
,
0100
0000
0001
0010
0010
0000
0100
0000
,
1000
0001
0100
0000
0001
1000
0100
0000
,
0010
0001
0100
0000
1001
0000
1001
0000
,
0100
0010
0000
0000
0000
0000
1001
0000
0000
0000
0000
0000
1000
0000
0000
0100
0000
0000
1000
0000
0000
0010
0000
0000
,
0100
0000
0001
0000
1000
0100
0001
0000
,
0100
1000
0010
0100
0001
0100
0010
1000
,
0002
0100
1003
0110
,
1000
0100
1000
0000
0101
0000
1000
0000
,
0001
0100
0001
0000
1010
0000
0100
0000
,
0001
0000
0000
0010
0000
0000
0100
0000
1000
0000
0000
0010
0000
0000
0100
0000
,
0001
0000
0000
1000
0000
0000
0001
0000
1000
0000
0000
0000
0001
0000
0000
0000
,
0100
0010
0000
0000
0000
0000
1001
0000
0000
0000
0000
0000
0001
0000
0000
0100
0000
0000
0001
0000
0000
0010
0000
0000
,
0100
0000
1000
0000
0001
0100
1000
0000
,
0100
0001
0010
0100
1000
0010
0100
0001
,
2000
0100
3010
0110
,
0001
0100
0001
0000
1010
0000
0100
0000
,
0001
0010
0001
0000
1100
0000
0010
0000
,
0100
0000
0000
0001
0000
0000
1000
0000
0001
0000
0000
0010
0000
0000
0001
0000
,
2000
3100
0011
0101
,
1010
0000
0000
0001
0000
0000
0100
0000
0010
0000
0000
0000
1000
0000
0000
0000
,
0011
0000
0000
1000
0000
0000
0100
0000
0010
0000
0000
0000
0001
0000
0000
0000
,
1000
0000
0000
0100
0000
0000
0001
0000
0100
0000
0000
0100
0000
0000
1000
0000
,
0010
0000
0000
0100
0000
0000
0001
0000
1000
0000
0000
0000
1001
0000
0000
0000
,
1000
0100
1000
0100
1000
0010
0100
0001
,
0001
0100
0001
0100
0001
0010
0100
1000
,
0010
0100
0010
0100
0001
1000
0100
0110
,
0000
0110
0110
0000
0000
0000
0000
0000
,
1000
0100
1000
0100
0001
0100
0001
0100
,
1000
0100
1000
0100
0010
0100
0010
0100
,
1000
0100
0001
0100
1000
0100
0010
0100
,
1000
0100
0010
0001
0100
0001
1000
0010
,
0100
0001
1000
0100
0010
0010
0100
0000
,
0100
1000
0010
0100
0001
0001
0010
0000
,
1100
0000
0000
0001
0000
0000
1000
0000
0010
0000
0000
0100
0000
0000
0001
0000
,
2000
3000
0200
0300
0020
0030
0002
0003
,
1001
0100
0001
0100
1000
0100
1000
0100
,
0001
0100
0001
0100
0010
1000
0010
1000
,
0100
0010
0001
0010
0100
0010
0001
0010
,
0100
1000
0010
0100
0001
0010
0100
1000
,
0010
0100
0010
0001
0010
1000
1000
0000
,
0101
0000
0000
1100
0000
0000
0010
0000
0110
0000
0000
1001
0000
0000
0110
0000
,
2000
0000
0200
0300
0020
0030
0002
3003
,
0102
0000
0000
0000
2003
0000
3000
0000
0110
0000
0000
0101
0000
0000
2010
0000
,
0000
3100
0010
0001
0010
0100
1000
0020
,
0000
0100
0230
0000
0300
0000
0000
0000
;

//---------------dance-single - ----------------
#NOTES:
     dance-single:
     :
     Medium:
     6:
     0.436,0.450,0.323,0.089,0.011,237.000,29.000,8.000,0.000,0.000:
0000
0000
0000
0000
,
0010
0000
1000
0100
1000
0000
0001
0100
,
0001
0000
0001
0100
1000
0000
0100
0000
,
0001
0000
1000
0010
1000
0000
0001
0010
,
0001
0000
1000
0010
0001
0000
0010
0000
,
1000
0000
0100
1000
0100
0000
1000
0000
,
0001
0000
0100
0001
0100
0000
0010
0000
,
2000
3100
0002
0103
,
1000
0010
0100
0001
1000
0000
1000
0000
,
1001
0000
0100
0000
0010
1000
0100
0000
,
0010
0000
0010
0000
0001
1000
0100
0000
,
1000
0010
0100
0001
,
1000
0100
0010
0001
,
1000
1100
1000
0010
,
0100
0101
0001
0010
,
1000
1100
0101
1010
,
1001
0100
0010
0001
,
1001
0000
0010
0000
0100
1000
0010
0000
,
0100
0000
0100
0000
0001
1000
0100
0000
,
0010
0000
0001
0000
1000
0010
0100
0001
,
0000
1000
0100
0010
,
0001
0101
0010
1000
,
0001
1100
0010
0001
,
1000
0000
1100
0000
0010
0100
0001
0010
,
0001
0000
1000
0000
0001
0010
1000
0010
,
0001
0000
0100
0000
0010
1000
0001
0000
,
1000
0000
0100
0000
0010
0001
1000
0000
,
0100
0000
0010
0000
1000
0001
0010
0000
,
0100
0000
1000
0000
0001
0100
1000
0000
,
0100
0101
0001
1001
,
1000
1010
0100
0110
,
1100
0000
0101
0000
1000
0001
0100
0001
,
0000
0010
0100
0000
0000
0000
1001
0000
,
1100
0010
0100
0101
,
0011
0100
1000
1010
,
0102
0000
1003
0000
2100
0000
3001
0010
,
0100
0100
1000
0001
,
1000
0000
0010
0100
0010
0000
1000
0000
,
0001
0000
0010
0100
0010
0000
0001
0000
,
1000
0100
0010
0001
0010
0100
1000
0001
,
0100
0010
1010
0011
,
1100
0000
0010
0000
0100
0001
0100
0000
,
0101
0000
0010
0000
0100
1000
0100
0000
,
2000
0000
3002
0000
1003
0100
0001
0100
,
1000
0010
0100
0001
,
0010
0000
0001
1000
0001
0000
0100
0000
,
0010
0000
0000
1000
0000
0000
0001
0000
1000
0000
0000
0000
0001
0000
0000
0000
,
1001
0000
0100
0000
0010
0001
0100
0001
,
0010
0000
0000
0000
0000
0000
0000
0000
0100
0000
0000
0100
0000
0000
0200
0000
,
0000
0000
1300
0000
0001
0000
0010
0100
,
0000
1000
0020
0000
0030
0000
0000
0000
;

//---------------dance-single - ----------------
#NOTES:
     dance-single:
     :
     Easy:
     2:
     0.247,0.280,0.167,0.011,0.000,139.000,15.000,1.000,0.000,0.000:
0000
0000
0000
0000
,
1001
0000
0100
0000
,
1000
0000
0010
0000
,
1001
0000
0100
0000
,
0001
0000
0010
0100
,
0010
0000
1000
0000
,
0001
0000
0100
0000
,
0001
0010
1000
0010
,
0001
1000
0001
1000
,
0001
0100
0000
1000
,
0000
0010
0000
1000
,
0000
0001
0000
0100
,
0010
1000
0100
0001
,
1000
0000
1000
0000
,
0001
0000
0001
0000
,
0100
0010
1000
0010
,
0100
0010
0001
0010
,
1001
0000
0100
0000
,
0001
0000
0100
0000
,
1000
0000
0010
0100
,
0001
0000
1000
0000
,
0101
0000
0010
0000
,
1100
0000
0010
0000
,
1000
0001
1000
0001
,
1000
0000
0010
0100
,
0001
0000
0000
0000
,
1000
0000
0000
0000
,
0100
0000
0000
0000
,
0010
0000
0001
0001
,
1000
0010
1000
0100
,
0010
0001
0010
0100
,
1000
0000
0000
0000
0002
0000
0000
0003
,
0000
0000
0000
0110
,
1001
0100
0010
1000
,
0001
0100
0010
0001
,
1000
1100
0001
0100
,
0010
1000
0100
0001
,
1000
1000
0100
0000
,
0001
0001
0100
0000
,
1000
0010
0001
0010
,
1000
0000
0001
0000
,
1001
0100
0010
0001
,
0100
0010
1000
0001
,
1100
0000
0101
0000
,
0110
0000
1001
0000
,
1000
0100
0010
0001
,
1000
1000
1000
1000
,
1001
0000
0000
0000
,
0100
0010
1000
0001
,
0100
0010
0100
0010
,
0000
1001
0000
0000
;

//---------------dance-single - Copied from----------------
#NOTES:
     dance-single:
     Copied from:
     Challenge:
     13:
     1.000,1.000,1.000,0.435,1.000,535.000,162.000,39.000,0.000,26.000:
0000
0000
0000
0000
,
2101
0000
0000
0010
0110
0000
0000
0100
,
0101
0000
0000
0001
0011
3000
0110
0011
,
2101
0000
0000
0010
0110
0000
0000
0100
,
0101
0000
0000
0000
0000
0000
3001
0000
0111
0000
0000
1101
0000
0000
1110
0000
,
1001
0000
0100
0010
0101
1000
0010
0100
0011
1000
0100
0010
1100
0000
0101
0000
,
1001
0000
0100
1000
0011
0100
0001
0010
0101
1000
0100
0010
2002
0000
3003
0000
,
0101
1000
0010
0001
0100
1000
0100
0010
1001
0100
0010
0001
0100
1000
0100
0010
,
1001
0100
0010
0001
0010
0100
0010
0001
1001
0000
0000
0000
1111
0000
0000
0000
,
1010
0100
0000
0001
0110
0000
1000
0100
0000
0001
0010
0000
1100
0001
0100
0010
,
1001
0100
0000
0001
0110
0000
1000
0100
0000
0001
0010
0000
0101
1000
0010
0100
,
1001
0010
0000
0001
0110
0000
1000
0100
0000
0001
0010
0000
0100
1000
0010
0001
,
2100
0010
0000
3002
0100
0003
2000
3010
0100
0001
1000
0000
0101
0000
0001
0000
,
1001
0100
0000
0001
1010
0000
0001
0100
0010
1000
0001
0100
0010
1000
0100
0000
,
1001
0010
0000
1000
0101
0000
1000
0010
0100
0001
1000
0010
0100
0001
0010
1000
,
0101
0000
0000
1100
0000
0000
0101
0000
1000
0011
0000
1000
0110
0000
0110
0000
,
2002
0000
3003
2200
0000
3300
0220
0330
2022
3033
0000
0000
2202
3303
0010
0010
,
1001
0000
0100
0000
0011
1000
0000
0001
0010
0000
0100
1000
0001
0100
0010
0000
,
1001
0100
0010
0000
1100
0001
0000
1000
0010
0000
0100
0001
0010
1000
0100
0000
,
1001
0010
0000
0001
1100
0000
0010
1000
0100
0000
0011
0000
0110
0000
2100
0000
,
0000
0000
0010
0000
0101
0000
3010
0010
1001
0100
0010
0000
1010
0000
1000
0001
,
0101
0010
0000
1000
0110
0000
0001
0010
1000
0010
0100
0000
0011
1000
0100
1000
,
0012
0000
0103
0000
2000
0000
3010
0000
0100
0001
1000
0100
0010
0001
0100
0000
,
1010
0000
0000
0101
0000
0000
1100
0000
0011
0000
1001
0000
0101
0000
0110
0010
,
1000
0001
0100
0001
1000
0010
0100
0001
1100
0010
0010
0010
1000
0001
0100
0010
,
1001
0000
0000
0101
0000
0000
0101
0000
2000
0000
0010
0000
3001
0000
0100
0000
,
1001
0000
0000
1010
0000
0000
1010
0000
0002
0000
0100
1000
0013
0000
0000
0000
,
0101
0000
0000
1100
0000
0000
0011
0000
1010
0000
0000
0000
1001
0000
0100
0100
,
1010
0000
0000
0011
0000
0000
1100
0000
0102
0000
0000
2003
0100
0000
3010
0000
,
1001
0010
0100
0000
0001
0010
0100
0000
1000
0100
0010
0000
0001
0010
0100
0000
,
1001
0100
0010
0000
1000
0100
0010
0000
0001
0010
0100
0000
1000
0100
0010
0000
,
1001
0100
1000
0100
0001
0010
0100
0010
0001
0100
0001
1000
0001
0010
2002
0000
,
3003
0000
0110
0000
0110
0000
1000
0001
0100
0010
2000
0000
3002
0000
0000
0000
,
1103
0010
0001
0010
0101
1000
0010
1000
0101
0010
1000
0100
1001
0000
0000
0000
,
0101
1000
0010
1000
0011
0100
1000
0100
0011
1000
0010
0100
1001
0000
0000
0000
,
1100
0010
0001
0010
1001
0100
0010
0100
0001
1000
0010
0100
1001
0000
0110
0010
,
2001
0000
3100
0000
1200
0000
0310
0010
1001
0100
0010
1000
0011
0100
0001
1000
,
0110
0001
1000
0010
0101
1000
0010
0001
0100
0010
1000
0001
0110
0000
0000
0000
,
0101
1000
0010
0100
1001
0010
0100
1000
0010
0100
0001
1000
0110
0000
0110
0000
,
1001
0000
0010
0000
1100
0000
0001
0001
0110
0000
1000
0000
0011
0000
0100
0100
,
1001
0010
0100
0100
1001
0010
0100
0010
1000
0001
0100
0010
1000
0001
1000
0001
,
0110
0000
1000
0000
0101
0000
1000
0000
0011
0100
0010
1000
0101
0000
0010
0000
,
1100
0001
0010
0001
0110
1000
0001
0010
1001
0100
0010
0001
1001
0000
0000
0000
,
2100
0000
0010
0000
0101
0000
3010
0000
1002
0100
0010
0000
1100
0000
1013
0010
,
0101
0000
1000
0000
0011
0000
0101
1000
0010
0001
0100
0000
1001
0010
0100
0010
,
1100
0001
0010
0001
1010
0100
1000
0001
0110
0001
1000
0100
1010
0000
0000
0000
,
1011
0000
0000
0111
0000
0000
1101
0000
1110
0000
0000
0111
0000
0000
1110
0000
,
0101
1000
0100
0010
1000
0001
0100
0010
1000
0001
0100
1000
0101
0010
1000
0001
,
0120
0000
0000
0000
1031
0000
0100
0010
0011
0000
0000
1100
0000
0000
1001
0000
,
0100
0010
1000
0100
0010
1000
0001
0010
1000
0100
0010
0001
0010
0100
2002
0000
,
0000
3113
0220
0000
0000
0330
0000
0000
;
