#TITLE:EUROMORROC;
#SUBTITLE:(Clean Edit);
#ARTIST:DJ LAIN;
#TITLETRANSLIT:;
#SUBTITLETRANSLIT:;
#ARTISTTRANSLIT:;
#CREDIT:;
#BANNER:EuroMorroc (Clean Edit).png;
#BACKGROUND:EuroMorroc (Clean Edit)-bg.png;
#LYRICSPATH:;
#CDTITLE:!toph-cdtitle.png;
#MUSIC:EuroMorroc (Clean Edit).mp3;
#OFFSET:-0.050;
#SAMPLESTART:71.150;
#SAMPLELENGTH:11.000;
#SELECTABLE:YES;
#BPMS:0.000=182.000,100.000=154.980,100.125=110.000,100.250=95.000,100.375=55.000,100.500=91.000,114.000=182.000,115.000=181.980,188.000=155.000,188.125=110.000,188.250=95.000,188.375=55.000,188.500=91.000,190.000=182.000;
#STOPS:114.000=0.330
,115.500=0.330
;
#BGCHANGES:;
// cache tags:
#FIRSTBEAT:5.500;
#LASTBEAT:268.000;
#SONGFILENAME:Songs/Ace Megapack/EuroMorroc/EuroMorroc (Clean Edit).sm;
#HASMUSIC:1;
#HASBANNER:1;
#MUSICLENGTH:97.658;
// end cache tags

//---------------dance-single - ----------------
#NOTES:
     dance-single:
     :
     Beginner:
     5:
     0.474,0.583,0.328,0.092,0.041,283.000,32.000,9.000,0.000,0.000:  // measure 1
0000
0000
0000
0000
,  // measure 2
0000
0000
0000
0000
,  // measure 3
0000
0000
0000
0000
,  // measure 4
0000
0000
0000
0000
,  // measure 5
1000
0000
0000
0000
,  // measure 6
0100
0000
0000
0000
,  // measure 7
0010
0000
0000
0000
,  // measure 8
0001
0000
0000
0000
,  // measure 9
0100
0000
0010
0000
,  // measure 10
1001
1000
0100
0010
,  // measure 11
1001
0100
0000
0010
0000
0001
0000
1000
,  // measure 12
0001
0000
0100
0000
0001
0000
0100
0000
0001
0000
0100
0000
,  // measure 13
0001
0000
0010
0100
1000
0000
0010
0000
,  // measure 14
0100
0000
0001
0000
1000
0000
0100
1000
,  // measure 15
0100
0010
0001
0100
,  // measure 16
1000
0000
0100
0000
1000
0000
0100
0000
1000
0000
0100
0000
,  // measure 17
0010
0001
0100
0010
,  // measure 18
1000
0000
0001
0000
0010
0000
0100
1000
,  // measure 19
0010
0100
0001
0100
,  // measure 20
0010
0000
1000
0001
0010
0000
0001
1000
,  // measure 21
0010
0100
0001
0010
,  // measure 22
0100
0000
1000
0001
0100
0000
0110
0000
,  // measure 23
1000
0100
0010
0001
,  // measure 24
1000
0000
0001
0000
0100
0000
0010
1000
,  // measure 25
0001
0010
0100
0010
,  // measure 26
2002
0000
0000
3003
0010
0010
0010
0010
,  // measure 27
0001
0001
0001
0001
1000
1000
1000
1000
,  // measure 28
0100
0100
0100
0100
0010
0001
0100
0010
,  // measure 29
1000
0001
0010
0100
1001
0000
1000
0001
,  // measure 30
1001
0000
1001
0000
1000
0001
1000
0000
,  // measure 31
1000
0000
0010
0000
0100
0000
0001
1000
,  // measure 32
0010
1000
0100
0010
,  // measure 33
1001
0100
0010
1000
,  // measure 34
0100
0000
1000
0001
0010
0000
0011
0000
,  // measure 35
0100
1000
0001
0100
,  // measure 36
0010
0000
1000
0001
0010
0000
0001
0100
,  // measure 37
0010
1001
0100
1001
,  // measure 38
0010
0000
1000
0000
0001
0010
0100
1000
,  // measure 39
0001
0100
0010
1000
,  // measure 40
0100
0000
1000
0000
0010
0100
0010
0100
,  // measure 41
0001
0010
0100
1000
,  // measure 42
0001
0000
1000
0000
0010
1000
0010
1000
,  // measure 43
0001
0000
0010
0000
0001
0000
0100
0010
,  // measure 44
1000
0000
0001
0000
1000
0000
0100
0010
,  // measure 45
0001
1010
0100
1010
,  // measure 46
0001
1100
0010
1100
,  // measure 47
0002
0010
0100
1003
,  // measure 48
0220
0330
0000
0000
0000
0100
0000
0100
,  // measure 49
0000
0010
0000
0010
0001
0000
1000
0000
,  // measure 50
0010
0100
1001
0010
,  // measure 51
0100
0000
0001
1000
0100
0000
0010
0000
,  // measure 52
0001
0000
0100
0010
0100
0000
0010
0000
,  // measure 53
1000
0000
0100
0010
0100
0000
1000
0000
,  // measure 54
0001
0100
1010
0001
,  // measure 55
1000
0000
0100
0010
0100
0000
1000
0000
,  // measure 56
0001
1000
0110
0001
,  // measure 57
1000
0000
0010
0100
0001
0000
0010
0000
,  // measure 58
0001
0100
0010
0000
1001
0000
1100
0000
,  // measure 59
0001
0101
0010
1010
,  // measure 60
0100
0110
1001
0100
,  // measure 61
0010
1100
0101
0010
,  // measure 62
1000
0001
1000
0001
0010
0000
1100
0000
,  // measure 63
0001
1000
0020
0130
,  // measure 64
0002
1003
0110
0001
,  // measure 65
1000
0010
0200
0301
,  // measure 66
2000
3100
0010
0001
,  // measure 67
0100
0010
1001
1001
,  // measure 68
0110
0000
0000
0000
;

//---------------dance-single - ----------------
#NOTES:
     dance-single:
     :
     Easy:
     7:
     0.644,0.926,0.625,0.061,0.261,373.000,61.000,6.000,0.000,0.000:  // measure 1
0000
0000
0000
0000
,  // measure 2
0000
0000
0000
0000
0000
0000
0010
0000
0010
0000
0000
0100
0000
0000
1000
0000
,  // measure 3
1000
0000
0000
0000
,  // measure 4
0000
0000
0000
0000
,  // measure 5
0001
0000
0000
0000
,  // measure 6
0100
0000
0000
0000
0000
0000
0010
0000
0010
0000
0000
1000
0000
0000
0001
0000
,  // measure 7
0001
1000
0100
0010
,  // measure 8
0001
0000
0100
0000
0010
0000
1000
0001
,  // measure 9
0010
0100
0010
0001
,  // measure 10
2002
0000
0000
0000
3003
0000
0010
0000
0010
0000
0000
1000
0000
0000
0100
0000
,  // measure 11
0100
0000
0010
0000
0001
0000
0100
0010
,  // measure 12
1000
0000
0100
0000
0010
0000
0001
0000
0100
0000
0010
0000
,  // measure 13
1000
0000
0001
0010
0100
0000
1000
0000
,  // measure 14
0001
0000
0000
0000
0100
0000
0010
0000
1000
0000
0000
0100
0000
0000
0010
0000
,  // measure 15
0001
0000
0100
0000
0010
0000
1000
0001
,  // measure 16
0010
0000
0100
0000
1000
0000
1000
0000
0010
0000
0100
0000
,  // measure 17
0001
0000
1000
0000
0100
0000
0010
0001
,  // measure 18
1000
0000
0010
0000
0100
0000
0001
0010
,  // measure 19
0100
0000
0000
1000
0000
0000
0001
0000
0100
0000
0000
0010
0000
0000
1000
0000
,  // measure 20
0100
0000
0000
1000
0000
0000
0010
0000
0100
0000
0000
0001
0000
0000
1000
0000
,  // measure 21
0100
0010
0001
1000
,  // measure 22
0010
0000
0100
0001
1001
0000
0110
0000
,  // measure 23
1000
0000
0000
0100
0000
0000
0100
0000
0010
0000
0000
0001
0000
0000
0001
0000
,  // measure 24
0100
0000
0000
0010
0000
0000
1000
0000
0100
0000
0000
0010
0000
0000
0001
0000
,  // measure 25
1000
0010
0100
0001
,  // measure 26
2002
0000
0000
0000
0000
0000
3003
0000
1000
0000
1000
0100
1000
0000
1000
0001
,  // measure 27
0100
0000
0110
0000
0100
0000
0100
0001
0010
0000
0010
0100
0010
0000
0010
1000
,  // measure 28
0001
0000
0011
0000
0001
0000
0001
0100
1001
0000
1000
0010
1000
0000
1000
0100
,  // measure 29
0101
0000
0001
0010
0001
0000
0001
0100
1000
0000
0000
0000
0100
0000
0100
0000
,  // measure 30
0010
0000
0010
0000
0010
0001
0100
0010
,  // measure 31
1000
0000
1100
0000
0001
0100
0010
0100
,  // measure 32
0001
0000
0000
1000
0010
0000
0100
0000
0001
0000
0000
0010
0100
0000
1000
0000
,  // measure 33
0001
0101
1000
1100
,  // measure 34
0010
0000
0011
0100
1010
0000
1001
0000
,  // measure 35
0100
0000
0000
0100
0010
0000
1000
0000
0001
0000
0000
0010
0001
0000
0100
0000
,  // measure 36
0010
0000
0000
1000
0001
0000
0010
0000
0001
0000
0000
0100
0010
0000
1000
0000
,  // measure 37
0001
0110
1000
0110
,  // measure 38
0001
0000
0000
0000
1100
0000
0010
0000
0001
0000
0000
0100
0010
0000
1000
0000
,  // measure 39
0001
0000
0000
0000
1100
0000
0010
0000
0001
0000
0000
0100
0010
0000
1000
0000
,  // measure 40
0001
0000
0000
0000
1010
0000
0100
0000
0001
0000
0000
1000
0100
0000
0010
0000
,  // measure 41
0001
0000
0000
0000
1001
0000
0100
0000
0010
0000
0000
0100
1000
0000
0001
0000
,  // measure 42
0100
0000
0000
0000
1010
0000
0001
0000
1000
0000
0000
0100
0010
0000
0100
0000
,  // measure 43
0001
0000
0000
0000
0101
0000
0000
0000
1000
0000
0000
0100
0010
0000
0001
0000
,  // measure 44
0100
0000
0000
0000
0110
0000
1000
0000
0001
0000
0000
0010
0001
0000
1000
0000
,  // measure 45
0010
0101
1000
0101
,  // measure 46
0010
0000
1100
0000
0001
0000
1100
0010
,  // measure 47
0001
0101
1000
1100
,  // measure 48
2002
3003
0000
0000
1001
0000
0110
0000
,  // measure 49
1001
0110
1010
0110
,  // measure 50
0101
1100
1010
1100
,  // measure 51
0010
0000
0000
0001
0100
0000
0010
0000
1000
0000
0000
0000
0011
0000
1000
0000
,  // measure 52
0100
0000
0000
0010
0001
0000
0100
0000
0010
0000
0000
0000
1001
0000
0000
0000
,  // measure 53
0100
0000
1001
0000
0010
0000
0101
1000
,  // measure 54
0100
0011
1000
0101
,  // measure 55
1000
0000
0000
0100
0010
0000
0001
0000
1000
0000
0000
0010
1000
0000
0100
0000
,  // measure 56
0010
0000
0000
0001
0100
0000
0010
0000
1000
0000
0000
0000
1001
0000
0000
0000
,  // measure 57
1000
0100
0010
0001
0100
0000
1001
0000
,  // measure 58
0010
0001
0100
0100
0010
0000
1010
0000
,  // measure 59
0010
0000
0000
0100
0010
0000
1000
0000
0010
0000
0000
1000
0100
0000
0010
0000
,  // measure 60
0001
0000
0000
1000
0010
0000
0100
0000
1001
0000
0000
0000
0011
0000
0000
0000
,  // measure 61
1001
1010
0110
0001
,  // measure 62
1100
0100
0010
0001
1000
0000
0110
0000
,  // measure 63
0001
1000
0010
1000
0100
0000
1001
0010
,  // measure 64
0100
0000
1100
0010
0001
0000
0110
0000
,  // measure 65
1000
0100
0010
0100
1000
0000
0101
0010
,  // measure 66
1000
0000
0011
0100
1000
0000
0001
0100
,  // measure 67
0010
0000
1000
0001
0010
0100
1000
0010
,  // measure 68
0001
0000
0000
0000
;

//---------------dance-single - ----------------
#NOTES:
     dance-single:
     :
     Medium:
     9:
     0.881,0.926,0.614,0.236,0.430,519.000,60.000,23.000,0.000,0.000:  // measure 1
0000
0000
0000
0000
,  // measure 2
0000
0000
0000
0000
0000
0000
0010
0000
0010
0000
0000
0100
0000
0000
1000
0000
,  // measure 3
1000
0000
0000
0000
,  // measure 4
0000
0000
0000
0000
,  // measure 5
1001
0000
0000
0000
,  // measure 6
0110
0000
0000
0000
0000
0000
1000
0000
1000
0000
0000
0001
0000
0000
0100
0000
,  // measure 7
0110
1000
0100
0010
0001
1000
0010
0100
,  // measure 8
1001
0010
0100
1000
0001
0100
0010
1000
,  // measure 9
0101
0010
1000
0001
0110
1000
0001
0100
,  // measure 10
2020
0000
0000
0000
3030
0000
0000
0000
1000
0100
1000
0100
0010
0001
0010
0001
,  // measure 11
1000
0010
0100
0010
1000
0100
0010
0100
,  // measure 12
1001
0000
0110
0000
1001
0000
0110
0000
1001
0000
0110
0000
,  // measure 13
1001
0100
0010
1000
0001
0010
0001
0100
,  // measure 14
0010
0000
1000
0000
0100
0000
0010
0001
0010
0000
0100
1000
0001
0000
0100
0000
,  // measure 15
0010
1000
0100
1000
0010
0100
0001
0010
,  // measure 16
1100
0000
1001
0000
0101
0000
0101
0000
1010
0000
1001
0000
,  // measure 17
0011
0100
1000
0010
0100
0001
1000
0100
,  // measure 18
1000
0000
0010
0100
0010
0000
1000
0000
0100
0000
0010
0000
0001
1000
0001
1000
,  // measure 19
0010
0000
0000
0100
0001
0000
0100
0000
0010
0000
0000
1000
0001
0000
1000
0000
,  // measure 20
0100
0000
0000
0010
0001
0000
0010
0000
0001
0000
0000
0100
0010
0000
1000
0000
,  // measure 21
0001
1000
0100
0010
0001
0100
0010
1000
,  // measure 22
0001
1000
0010
0100
0202
0303
2020
3030
,  // measure 23
1000
0000
0000
1000
0001
0000
0100
0000
0010
0000
0000
1000
0100
0000
1000
0000
,  // measure 24
0100
0000
0000
0010
0001
0000
0100
0000
0010
0000
0000
1000
0001
0000
0010
0000
,  // measure 25
0100
1000
0010
0100
0001
0010
0001
0100
,  // measure 26
2002
0000
0000
0000
3003
0000
0010
0000
1000
0000
0000
0010
0000
0000
0100
0001
0100
0000
0000
0000
0010
0000
0000
0000
1000
0000
0000
0000
0001
0000
0000
0000
,  // measure 27
0010
0000
0001
0000
0100
0000
0010
0000
1000
0000
0000
0100
0000
0000
0010
0001
0010
0000
0000
0000
0100
0000
0000
0000
1000
0000
0000
0000
0010
0000
0000
0000
,  // measure 28
0100
0000
0001
1000
0100
0000
0010
0000
0101
0000
0001
1010
0001
0000
0100
0000
,  // measure 29
1010
0000
1000
0011
1000
0000
0100
0000
1001
0000
0000
0000
1000
0000
1000
0000
,  // measure 30
1001
0000
0000
0000
1001
0000
0000
1000
0100
0000
0010
0000
0001
0000
0100
0000
,  // measure 31
1001
0000
0010
0000
1000
0000
0010
0000
0100
0000
0000
0001
1000
0000
0100
0000
,  // measure 32
0010
0000
0000
0001
1000
0000
0010
0000
0100
0000
0000
0001
0010
0000
0001
0000
,  // measure 33
0100
0010
1000
0100
1000
0010
0100
0001
,  // measure 34
1000
0100
0010
0001
2200
3300
0022
0033
,  // measure 35
1000
0000
0000
1000
0100
0000
0010
0000
0001
0000
0000
0100
0010
0000
0100
0000
,  // measure 36
0001
0000
0000
1000
0100
0000
1000
0000
0010
0000
0000
0100
0001
0000
0100
0000
,  // measure 37
0010
1000
0100
1000
0010
0100
0001
0010
,  // measure 38
0001
0000
0100
0000
0010
0000
1000
0000
0001
0000
0000
0001
0100
0000
0010
1000
,  // measure 39
0010
0000
1000
0000
0100
0000
0010
0001
1000
0000
0000
0010
0100
0000
0001
0010
,  // measure 40
0001
0000
1000
0000
0010
0000
1000
0000
0001
0000
0000
0010
0100
0000
1000
0001
,  // measure 41
1000
0000
0010
0000
0100
0000
0001
1000
0100
0000
0000
0010
0001
0000
0100
0010
,  // measure 42
0100
0000
0001
0000
0010
0000
0100
0000
1000
0000
0001
0100
0010
0000
1000
0100
,  // measure 43
0010
0000
0000
0010
0001
0000
0100
0000
0010
0000
0000
1000
0001
0000
1000
0000
,  // measure 44
0100
0000
0000
0010
0001
0000
0100
0000
0010
0000
0000
1000
0001
0000
1000
0000
,  // measure 45
0100
0010
0001
0100
0010
1000
0010
0100
,  // measure 46
0001
0000
0010
0000
1000
0000
0010
0000
0001
0000
0100
0000
0010
0000
1000
0001
,  // measure 47
0010
0000
0001
0000
0100
0000
0010
0000
1000
0000
0000
1000
0100
0000
0010
0000
,  // measure 48
2002
0000
0000
0000
3003
0000
0100
0000
0010
0000
0000
0001
0000
0000
0100
0000
0110
0000
0000
0000
1000
0000
0000
0000
0001
0000
0000
0000
1000
0000
0000
0000
,  // measure 49
0100
0010
0001
0100
2020
3030
0220
0330
,  // measure 50
0202
0303
0022
0033
2100
3001
0010
0100
,  // measure 51
1000
0000
0000
0001
0100
0000
0010
1000
0001
0000
0010
0000
0100
0000
0010
0000
,  // measure 52
0001
0000
0000
0001
0100
0000
0010
0000
1010
0000
0100
0000
1000
0000
0100
0000
,  // measure 53
0010
0000
0000
0001
0100
0000
0010
0000
1000
0000
0100
0000
0010
0000
0001
0000
,  // measure 54
0100
0010
1001
1100
0101
0010
1000
0010
,  // measure 55
0100
0000
0000
0001
0010
0000
0100
0000
1000
0000
0010
0000
0100
0000
0001
0000
,  // measure 56
1000
0000
0010
0100
0001
0000
1100
0000
0110
0000
0001
0000
1000
0000
0100
0000
,  // measure 57
0010
0000
0001
1000
0010
0000
0100
0000
1001
0000
0010
0000
0100
0000
0001
0000
,  // measure 58
1000
0100
0000
0000
1000
0100
1000
0100
0010
0000
0001
0000
0100
0000
0010
0000
,  // measure 59
1000
0000
0000
0001
0010
0000
0100
0000
1000
0000
0000
0010
1000
0000
0100
0000
,  // measure 60
0010
0000
0000
0010
0001
0000
0100
0000
0010
0000
1000
0000
0100
0000
1000
0000
,  // measure 61
0010
0100
0001
0010
0100
1000
0001
1000
,  // measure 62
0010
0000
1000
0100
1000
0100
1000
0100
0010
0000
0001
0000
1100
0000
0001
0000
,  // measure 63
0010
0100
1001
0100
0010
1000
0101
0010
,  // measure 64
1000
0001
0110
1000
0001
1000
0110
0001
,  // measure 65
0010
0100
1001
0010
0100
0010
1001
0100
,  // measure 66
0010
0100
1001
0010
1000
0100
1001
0010
,  // measure 67
0001
0100
1001
0010
0100
0001
1100
0010
,  // measure 68
1001
0000
0000
0000
;

//---------------dance-single - ----------------
#NOTES:
     dance-single:
     :
     Hard:
     11:
     1.000,1.000,1.000,0.236,0.712,608.000,203.000,23.000,0.000,0.000:  // measure 1
0000
0000
0000
0000
,  // measure 2
0000
0000
0000
0000
0000
0000
0010
0000
0010
0000
0000
0100
0000
0000
1000
0000
,  // measure 3
1000
0000
0000
0000
,  // measure 4
0000
0000
0000
0000
,  // measure 5
0001
0000
0000
0000
,  // measure 6
0100
0000
0000
0000
0000
0000
0010
0000
0010
0000
0000
0100
0000
0000
1000
0000
,  // measure 7
1001
0010
0001
0010
0001
0010
0001
0010
,  // measure 8
1001
0010
0001
0010
0001
0010
0001
0010
,  // measure 9
0101
0010
0001
0010
0101
0010
0001
0010
,  // measure 10
2002
0000
0000
0000
3003
0000
0010
0000
1001
0100
0010
0001
1000
0010
0100
0001
,  // measure 11
0110
0000
1000
0000
0100
0000
0010
0000
0001
0000
1000
0010
0100
0000
1001
0000
,  // measure 12
1100
0000
0011
0000
1100
0000
0011
0000
1100
0000
0011
0000
,  // measure 13
1100
0000
0010
0000
0001
0000
1010
0000
0110
0000
0001
0100
0010
1000
0010
0100
,  // measure 14
0001
0000
0010
0000
0100
0000
1000
0001
1000
0000
0010
0100
0001
0000
1010
0000
,  // measure 15
0101
0000
0010
1000
0100
0000
0011
0000
1100
0000
0001
0100
0010
0000
1001
0000
,  // measure 16
0110
0000
1010
0000
0101
0000
0101
0000
1100
0000
0110
0000
,  // measure 17
0011
0000
0100
0000
1000
0000
0001
0000
0100
0000
0010
1000
0001
0000
0110
0000
,  // measure 18
1001
0000
0010
0001
1000
0000
0010
0000
0100
0000
0001
0000
1000
0100
1000
0100
,  // measure 19
0011
0000
1000
0001
0100
0000
1010
0000
0101
0000
0010
1000
0100
0000
1001
0000
,  // measure 20
0110
0000
0001
1000
0100
0000
0011
0000
1100
0000
0001
0100
0010
0000
1100
0000
,  // measure 21
0011
0000
1000
0000
0001
0000
0100
0000
0010
0000
1000
0100
0010
0001
0010
0100
,  // measure 22
1000
0000
0010
0000
0100
0000
0001
0000
2200
0000
0000
3300
0022
0000
0000
0033
,  // measure 23
1010
0000
1000
0010
0100
0000
1010
0000
1001
0000
0010
0100
0001
0000
1010
0000
,  // measure 24
0101
0000
1000
0100
0010
0000
1001
0000
0110
0000
0001
1000
0100
0000
0110
0000
,  // measure 25
0011
1000
0001
0100
0010
1000
0100
0010
,  // measure 26
2002
0000
0000
0000
3003
0000
0010
0000
0001
0000
0000
0010
0000
0000
0100
1000
0101
0000
0000
0000
0001
0000
0010
0000
0001
0000
0000
0000
0001
0000
1000
0000
,  // measure 27
1001
0000
0100
0000
1001
0000
0100
0000
0011
0000
0000
0100
0001
0000
1000
0100
1001
0000
0000
0000
0001
0000
1000
0000
0001
0000
0000
0000
0001
0000
1000
0000
,  // measure 28
1001
0000
0001
0010
0101
0000
1001
0000
1100
0000
1100
0011
1100
0010
0100
0001
,  // measure 29
1010
0000
1010
0101
1010
0100
0010
0001
1001
0000
0000
0000
1001
0000
1010
0000
,  // measure 30
1001
0000
0000
0000
1001
0000
0000
1000
1000
0000
1000
0000
0100
0000
0010
0000
,  // measure 31
1001
0000
0010
0000
0101
0000
0010
0000
1001
0000
0100
0010
1001
0000
0100
0000
,  // measure 32
1100
0000
0100
0010
1001
0000
0100
0000
0011
0000
0100
0010
1001
0000
0100
0000
,  // measure 33
0110
1000
0101
1000
0010
1000
0101
0010
,  // measure 34
1000
0000
0010
0000
0101
0000
0010
0000
2002
0000
0000
3003
0220
0000
0000
0330
,  // measure 35
1001
0000
0010
0001
1100
0000
0010
0000
1001
0000
0010
0100
0011
0000
0100
0000
,  // measure 36
1100
0000
0010
1000
0101
0000
0010
0000
1001
0000
0010
0100
1010
0000
1100
0000
,  // measure 37
1001
0000
0010
0000
0101
0000
0010
0000
1000
0000
0001
0100
0010
1000
0010
0100
,  // measure 38
0001
0000
0010
0000
1100
0000
0010
0000
0101
0000
0001
0100
0001
0000
1100
0010
,  // measure 39
1100
0000
0010
0000
0101
0000
0010
1000
0001
0000
0010
0100
1001
0000
0010
1000
,  // measure 40
0001
0000
0010
0000
1100
0000
0010
0000
1001
0000
0010
0100
0011
0000
1000
0100
,  // measure 41
1001
0000
0010
0000
0101
0000
1000
0100
0010
0000
1000
0100
1001
0000
0010
0100
,  // measure 42
0010
0000
1000
0000
0101
0000
0010
0000
1100
0000
0001
1000
0110
0000
0011
1000
,  // measure 43
0101
0000
0010
0100
1001
0000
0110
0000
0101
0000
1000
0010
0101
0000
0110
0000
,  // measure 44
1001
0000
0010
1000
0101
0000
1010
0000
0101
0000
0010
0000
1100
0000
0100
0000
,  // measure 45
1001
0010
1100
0010
0001
0100
1001
0010
,  // measure 46
1000
0000
0000
0000
0100
0000
0000
0000
0011
0000
0000
0000
1000
0000
0000
0000
0001
0000
0000
0000
0100
0000
0000
0000
1010
0000
0000
0000
0001
0010
0100
1000
,  // measure 47
0010
0000
0001
0000
1100
0000
0010
0000
0101
0000
0001
0100
0010
0000
0110
0000
,  // measure 48
2002
0000
0000
0000
3003
0000
0010
0000
0001
0000
0000
0100
0000
0000
1010
0000
1001
0000
0000
0000
0100
0000
0000
0000
1010
0000
0000
0000
0100
0000
0000
0000
,  // measure 49
1000
0100
0011
0100
2002
3003
2020
3030
,  // measure 50
0220
0330
0202
0303
0012
0103
1010
0100
,  // measure 51
1001
0000
0010
1000
0011
0000
0100
0010
0001
0000
0100
0000
1010
0000
0100
0000
,  // measure 52
0011
0000
0010
1000
0101
0000
0011
0000
1001
0000
0010
0000
1100
0000
0010
0000
,  // measure 53
0100
0000
0001
1000
0101
0000
0010
0000
1100
0000
0010
0000
1001
0000
0100
0000
,  // measure 54
0010
1000
0101
0011
1001
0010
1100
0010
,  // measure 55
1001
0000
0010
0100
0011
0000
1100
0000
0101
0000
0010
0000
1100
0000
0001
0000
,  // measure 56
0100
0000
0010
0100
1001
0000
1100
0000
0110
0000
0001
0000
1100
0000
0010
0000
,  // measure 57
1001
0000
0001
0010
1100
0000
0101
0000
0011
0000
0100
0000
1001
0000
0010
0000
,  // measure 58
1001
1000
0010
0000
1001
0100
1000
0100
0011
0000
1000
0000
0101
0000
0010
0000
,  // measure 59
1001
0000
1000
0100
0011
0000
0101
0000
1001
0000
0010
1000
0101
0000
1010
0000
,  // measure 60
1001
0000
1000
0001
0110
0000
1010
0000
0101
0000
0010
0000
1100
0000
0010
0000
,  // measure 61
1001
0010
0101
0010
1100
0001
1010
0100
,  // measure 62
1001
0000
1000
0100
0010
0001
0100
0010
1001
0000
0010
1000
0100
1000
0010
0100
,  // measure 63
0001
0000
1000
0100
0010
0001
0100
0010
1001
0000
0010
1000
0100
1000
0010
0100
,  // measure 64
0011
0000
0001
0010
0100
1000
0001
0100
1010
0000
0001
0100
0010
1000
0100
0010
,  // measure 65
0001
0000
1000
0010
0100
0001
0010
0100
1001
0000
0001
0100
0010
0100
0001
0010
,  // measure 66
1100
0000
1000
0001
0100
0001
1000
0010
0101
0000
0001
0010
0100
0010
0001
1000
,  // measure 67
0010
0000
1000
0100
0010
0001
0100
0010
1100
0000
0100
0010
0001
1000
0101
0010
,  // measure 68
1001
0000
0000
0000
;
