#TITLE:Booty;
#SUBTITLE:(DJ Motion Party Remix);
#ARTIST:De La Ghetto ft. Randy;
#TITLETRANSLIT:;
#SUBTITLETRANSLIT:;
#ARTISTTRANSLIT:;
#CREDIT:;
#BANNER:banner.JPG;
#BACKGROUND:;
#LYRICSPATH:;
#CDTITLE:!tizaTitle.png;
#MUSIC:De La Ghetto Ft[1]. Randy - Booty (Party ReMiX By Dj Motion) (www.FlowExclusivo.Com).ogg;
#OFFSET:-0.040;
#SAMPLESTART:149.901;
#SAMPLELENGTH:20.100;
#SELECTABLE:YES;
#BPMS:0.000=96.000;
#STOPS:380.000=5.000
;
#BGCHANGES:;
// cache tags:
#FIRSTBEAT:14.000;
#LASTBEAT:395.750;
#SONGFILENAME:Songs/Reggaeton and more/Booty/Pollinosis.sm;
#HASMUSIC:1;
#HASBANNER:1;
#MUSICLENGTH:252.547;
// end cache tags

//---------------dance-single - Blank----------------
#NOTES:
     dance-single:
     Blank:
     Challenge:
     11:
     0.605,0.803,0.554,0.036,0.659,901.000,140.000,9.000,0.000,25.000:

0000
0000
0000
0000
,
0000
0000
0000
0000
,
0000
0000
0000
0000
,
0000
0000
0000
0000
0000
0000
0000
0000
1000
0100
0010
0000
0001
0100
0010
0000
,
1001
0000
0000
0100
0000
0000
0010
0000
0001
0000
0000
0100
0000
0000
0010
0000
,
0100
0000
0000
0001
0000
0000
0010
0000
0001
0000
0000
1000
0000
0000
1001
0000
,
0010
0000
0000
1000
0000
0000
0100
0000
0110
0000
0000
0010
0000
0000
0001
0000
,
1001
0000
0000
1000
0000
0000
0010
0000
0101
0000
0000
0000
0000
0000
0000
0000
,
1000
0100
1000
0010
0100
0001
0010
0001
0100
0010
1000
0100
0010
0001
0010
0100
,
1000
0010
0100
0001
1000
0100
0010
0001
0010
0100
0010
0001
0100
0010
0100
0000
,
0101
0001
1001
1000
1100
0100
1100
1000
,
1010
0010
0101
0001
0011
0001
1001
1000
,
1010
0000
0000
0000
0100
0000
0000
0000
0001
0000
0000
0000
0010
0000
0000
0000
0100
0000
0000
0000
1000
0000
0000
0000
0010
0000
0000
0000
0100
0001
0100
0000
,
0010
0000
0000
0000
1000
0000
0000
0000
0010
0000
0000
0000
0100
0000
0000
0000
0001
0000
0000
0000
0010
0000
0000
0000
0100
0000
0000
0000
1000
0100
1000
0000
,
0010
0100
0001
0010
0100
1000
0100
0010
0001
0100
0010
1000
0010
0100
0001
0000
,
1000
0000
0000
0000
0000
0000
0100
0000
0000
0000
0000
0000
1000
0000
0000
0000
0000
0000
0000
0000
0000
0000
0000
0000
0100
0000
0000
0000
0000
0000
1000
0000
0000
0000
0000
0000
0100
0000
0000
0000
0000
0000
0000
0000
0000
0000
0000
0000
1000
0000
0000
0000
0000
0000
0001
0000
0000
0000
0000
0000
1000
0000
0000
0000
0000
0000
0000
0000
0000
0000
0000
0000
0001
0000
0000
0000
0000
0000
1000
0000
0000
0000
0000
0000
0001
0000
0000
0000
0000
0000
0000
0000
0000
0000
0000
0000
0100
0000
0000
0000
0000
0000
0001
0000
0000
0000
0000
0000
0100
0000
0000
0000
0000
0000
0000
0000
0000
0000
0000
0000
0001
0000
0000
0000
0000
0000
0100
0000
0000
0000
0000
0000
0001
0000
0000
0000
0000
0000
0000
0000
0000
0000
0000
0000
0100
0000
0000
0000
0000
0000
0000
0000
0001
0000
0000
0000
0000
0000
0000
0000
0010
0000
0000
0000
0000
0000
0000
0000
0100
0000
0000
0000
0000
0000
0000
0000
0010
0000
0000
0000
0000
0000
0000
0000
0001
0000
0000
0000
0000
0000
0000
0000
,
1000
0000
0100
0010
0001
0010
0100
0000
1001
0000
1000
0010
0100
0000
0010
0000
,
1010
0000
1000
0010
0100
0001
0010
0100
0010
0100
0010
0001
0010
0000
1010
0000
,
1001
0000
0001
0100
0010
1000
0100
0000
0110
0000
0010
0001
1000
0000
1001
0000
,
0001
0000
0000
0000
1000
0000
0100
0000
0010
0000
0001
0000
1000
0000
0010
0000
0100
0000
0000
0000
0110
0000
0000
0000
0010
1000
0010
1000
0001
0100
0001
0100
,
0001
0000
0000
0100
0010
0000
1000
0000
0100
0000
0000
0010
0001
0000
0010
0000
,
1100
0000
0000
0100
0010
0000
0001
0000
1001
0000
0000
0001
0100
0000
0010
0000
,
0100
0000
0000
0001
0010
0100
1000
0000
1001
0000
0000
1000
0010
0100
0001
0000
,
0011
0000
0000
1000
0010
1000
0100
0000
0011
0000
0000
0001
0010
0001
0100
0000
,
0000
1100
0110
0011
1001
0000
0011
1100
,
0000
0110
1001
0110
1001
0000
0101
1010
,
0000
0110
1001
0110
1001
0000
1100
1010
,
0000
0000
1000
0010
0100
0000
0001
0010
0100
1000
0100
0010
0001
0000
1000
0000
,
1001
0000
1000
0001
1000
0010
0001
0000
1001
0000
0001
0010
1000
0000
0000
0000
,
1100
0000
0100
0010
0001
0010
0100
0000
0110
0000
0100
1000
0010
0000
1000
0001
,
1000
0000
1000
0100
1000
0001
1000
0000
1000
0000
1000
0010
1000
0000
1001
0000
,
0101
0000
0001
0100
0001
0010
0001
0000
0001
0010
0001
1000
0001
0100
0001
1000
,
0010
0000
0000
0000
0000
0000
0000
0000
1110
0000
0000
0000
0000
0000
0000
0000
1011
0000
0000
0000
0000
0000
0000
0000
1001
0000
0000
0000
1000
0100
1000
0000
,
1001
0000
0000
0000
0111
0000
0000
0000
1101
0000
0000
0000
0110
0000
1000
0010
,
0100
1111
1111
1111
,
1100
0000
0000
0011
0000
0000
0101
0000
0000
1010
0000
0000
1000
0100
0010
0001
0100
0010
1000
0010
0100
0001
0010
0100
,
1000
0000
1000
0010
0001
0010
1000
0000
1001
0000
1000
0100
0001
0000
0000
0000
,
1001
0000
0001
0100
1000
0010
0001
1000
0100
0001
0010
0100
1000
0000
1001
0000
,
0001
0101
1000
1100
0110
0011
1000
1010
,
0110
0000
0101
0000
1001
0000
1000
0100
0010
0000
0011
0000
1001
0000
1000
0100
,
0010
0000
0100
0000
1000
0000
0010
0000
0100
0000
0010
0000
1000
0000
0100
0000
0010
0000
0001
0000
0010
0000
0100
0000
1000
0000
0100
0000
0010
0001
0010
0000
,
0001
0000
0010
0000
0100
0000
1000
0000
0001
0000
0100
0000
0010
0000
1000
0000
0100
0000
0010
0000
0001
0000
0010
0000
0100
0000
0010
0000
0001
0010
0001
0000
,
0100
0010
1000
0100
0010
0001
0100
0010
0100
0001
0010
0100
0001
0100
1000
0010
,
0100
0000
0000
0000
0000
0000
0001
0000
0000
0000
0000
0000
0100
0000
0000
0000
0000
0000
0000
0000
0000
0000
0000
0000
0010
0000
0000
0000
0000
0000
1000
0000
0000
0000
0000
0000
0010
0000
0000
0000
0000
0000
0000
0000
0000
0000
0000
0000
0100
0000
0000
0000
0000
0000
0001
0000
0000
0000
0000
0000
0100
0000
0000
0000
0000
0000
0000
0000
0000
0000
0000
0000
0010
0000
0000
0000
0000
0000
1000
0000
0000
0000
0000
0000
0010
0000
0000
0000
0000
0000
0000
0000
0000
0000
0000
0000
1000
0000
0000
0000
0000
0000
0100
0000
0000
0000
0000
0000
1000
0000
0000
0000
0000
0000
0000
0000
0000
0000
0000
0000
0001
0000
0000
0000
0000
0000
0100
0000
0000
0000
0000
0000
0001
0000
0000
0000
0000
0000
0000
0000
0000
0000
0000
0000
1000
0000
0000
0000
0000
0000
0000
0000
0010
0000
0000
0000
0000
0000
0000
0000
0100
0000
0000
0000
0000
0000
0000
0000
0001
0000
0000
0000
0000
0000
0000
0000
0100
0000
0000
0000
0000
0000
0000
0000
0010
0000
0000
0000
0000
0000
0000
0000
,
1000
0000
1010
0000
0101
0000
0011
0000
0110
0000
1100
0000
1001
0000
0100
0010
,
1000
0100
0010
0100
1000
0001
0100
0010
0100
0001
0010
0100
0010
0001
1000
0001
,
0000
0000
1010
0000
0110
0000
0101
0000
1001
0000
1100
0000
0110
0000
0010
0001
,
0100
0010
1000
0010
0100
0001
0000
1001
0000
1000
0100
0010
0000
0001
1000
0000
,
0000
0000
1100
0000
0001
0000
0101
0000
0011
0000
1000
0000
1010
0000
0010
1000
,
0001
0010
0100
1000
0001
0100
0010
1000
0001
0010
0100
0010
0001
1000
0000
1001
,
0000
1100
0010
0101
1000
0110
1001
0000
,
0000
0000
0000
0000
,
0000
0000
0000
0000
0000
0000
1000
0000
0000
0000
0000
0000
0000
0000
0001
0000
0000
0000
0000
0000
0000
0000
0000
0000
0000
0000
0000
0000
0000
0000
0000
0000
0000
0000
0000
0000
0000
0000
0000
0000
0000
0000
0000
0000
0000
1000
0000
0000
,
0100
0000
0000
0000
0010
0000
0000
0000
0100
0000
0000
0000
1000
0000
0000
0000
0010
0000
0000
0000
0100
0000
0000
0000
0001
0000
0000
0000
1000
0000
0000
0000
0000
0000
0000
0000
0000
0000
0000
0000
0000
0000
0000
0000
0000
0000
0000
0000
0000
0000
0000
0000
0000
1001
0000
0000
0000
0000
0000
0000
0000
0000
0000
0000
,
0000
0000
0000
0000
,
1001
0000
0010
0100
1000
0000
0010
0100
0001
0000
0010
0100
1000
0000
0000
0000
,
1000
0010
0100
0001
1000
0100
0010
0001
1000
0100
0001
1000
0010
0001
0100
0010
,
1000
0100
0010
0001
0010
0100
1000
0010
0001
1000
0100
0001
0010
0100
1000
0000
,
0001
0000
0000
1000
1010
0000
0000
0001
,
1001
0000
0000
1111
0000
0000
0000
0000
,
1000
0000
0000
1000
0000
0000
0100
0000
0000
0010
0000
0000
0002
0000
0000
0000
0000
0000
0000
0000
0000
0000
0000
0000
1000
0000
0000
0000
0000
0000
0010
0000
0000
0013
0000
0000
0001
0000
0010
0000
0100
0000
1000
0000
0010
0000
0100
0000
,
0001
0100
0010
1000
0100
1000
0010
0100
0001
0010
0001
0100
1000
0100
0001
0000
,
0010
0000
0000
0100
1000
0000
0000
0010
,
0100
0000
0000
0000
0000
0000
1001
0000
0000
0000
1000
0100
0001
0000
0100
0000
,
1000
0100
0010
0001
1000
0100
0010
0001
1000
0010
0100
0001
1000
0010
0100
0001
,
1000
0100
0001
0100
1000
0100
0001
0100
1000
0010
0001
0010
1000
0010
0001
0000
,
0010
1000
0100
1000
0100
0001
1000
0010
,
0001
0000
1000
0000
0001
0000
1001
0000
1000
0100
1000
0100
1000
0010
1000
0010
,
0000
0110
1001
0110
0000
1001
0000
0110
,
0000
1001
0110
1001
0000
0110
0000
1001
,
0000
0110
1001
0110
0000
1001
0000
0110
,
0000
1001
0110
1001
0000
0110
0000
1001
,
1000
0000
0000
0000
0100
0000
0000
0000
0010
0000
0000
0000
0001
0000
0000
0000
1000
0000
0000
0000
0001
0000
0000
0000
0010
0000
0000
0000
0100
1000
0001
0000
,
0010
0000
0000
0000
0100
0000
0000
0000
1000
0000
0000
0000
0100
0000
0000
0000
0010
0000
0000
0000
0001
0000
0000
0000
0100
0000
0000
0000
0010
1000
0001
0000
,
0010
0100
0010
0100
0010
0001
1000
0010
0100
0010
1000
0010
1000
0100
0010
0000
,
0001
0000
0000
0000
0000
0000
0100
0000
0000
0000
0000
0000
0010
0000
0000
0000
0000
0000
0000
0000
0000
0000
0000
0000
1000
0000
0000
0000
0000
0000
0100
0000
0000
0000
0000
0000
0010
0000
0000
0000
0000
0000
0000
0000
0000
0000
0000
0000
0001
0000
0000
0000
0000
0000
0010
0000
0000
0000
0000
0000
0100
0000
0000
0000
0000
0000
0000
0000
0000
0000
0000
0000
1000
0000
0000
0000
0000
0000
0010
0000
0000
0000
0000
0000
0100
0000
0000
0000
0000
0000
0000
0000
0000
0000
0000
0000
0001
0000
0000
0000
0000
0000
1000
0000
0000
0000
0000
0000
0001
0000
0000
0000
0000
0000
0000
0000
0000
0000
0000
0000
1000
0000
0000
0000
0000
0000
0001
0000
0000
0000
0000
0000
1000
0000
0000
0000
0000
0000
0000
0000
0000
0000
0000
0000
1000
0000
0000
0000
0000
0000
0000
0000
0100
0000
0000
0000
0000
0000
0000
0000
0010
0000
0000
0000
0000
0000
0000
0000
0100
0000
0000
0000
0000
0000
0000
0000
1000
0000
0000
0000
0000
0000
0000
0000
0001
0000
0000
0000
0000
0000
0000
0000
,
1000
1000
0010
1000
0010
0100
0001
0000
,
0000
0000
0000
0000
,
0000
0001
0100
0001
0100
0010
1000
0000
,
1000
0000
0000
0000
0000
0000
0100
0000
0000
0000
0000
0000
1000
0000
0000
0000
0000
0000
0000
0000
0000
0000
0000
0000
0100
0000
0000
0000
0000
0000
0010
0000
0000
0000
0000
0000
0100
0000
0000
0000
0000
0000
0000
0000
0000
0000
0000
0000
0010
0000
0000
0000
0000
0000
0001
0000
0000
0000
0000
0000
0010
0000
0000
0000
0000
0000
0000
0000
0000
0000
0000
0000
0001
0000
0000
0000
0000
0000
1000
0000
0000
0000
0000
0000
0001
0000
0000
0000
0000
0000
0000
0000
0000
0000
0000
0000
1000
0000
0000
0000
0000
0000
0010
0000
0000
0000
0000
0000
1000
0000
0000
0000
0000
0000
0000
0000
0000
0000
0000
0000
0010
0000
0000
0000
0000
0000
0100
0000
0000
0000
0000
0000
0010
0000
0000
0000
0000
0000
0000
0000
0000
0000
0000
0000
0100
0000
0000
0000
0000
0000
0000
0000
0000
0000
0000
0000
0000
0000
0000
0000
0001
0000
0000
0000
0000
0000
0000
0000
0000
0000
0000
0000
0000
0000
0000
0000
1000
0000
0000
0000
0000
0000
0000
0000
0000
0000
0000
0000
0000
0000
0000
0000
,
0010
0101
0000
0111
,
0000
0000
1010
0101
0000
0000
1111
0000
,
0000
1011
0000
1101
,
0000
0000
0101
1001
0000
0000
1011
0000
,
2012
0000
0010
0003
0200
0000
0001
3000
,
0020
0000
0001
0300
0002
0000
1000
0230
,
0010
0000
1000
0003
0020
0000
1000
0000
,
0001
0300
2000
0000
0100
0000
3031
0000
,
0000
0000
0000
0000
0000
0000
1001
0000
0010
0100
0001
1000
,
0001
0000
0001
0000
1000
0010
0100
0001
1000
0000
0100
0000
,
0010
0001
0100
0010
1000
0000
0010
0000
0100
0001
0100
0001
,
0100
0000
0010
0000
1000
0100
1000
0100
1000
0000
0001
0000
,
1000
0100
0010
0001
0010
0100
1000
0000
0001
0100
0010
1000
0010
0100
0001
0000
,
1000
0010
0100
0001
0100
0010
1000
0000
0001
0010
0100
1000
0100
0010
0001
0000
,
1000
0100
0010
0001
1000
0100
0010
0000
0001
0100
0010
1000
0001
0100
0010
0000
,
1001
1000
0000
0000
0000
0000
0000
0000
0000
0000
0000
0000
0000
0000
0000
0000
0000
0000
0000
0000
0000
0000
0000
0000
0100
0000
0000
0000
0000
0000
0000
0000
0000
0000
0000
0000
0000
0000
0000
0000
0000
0000
0000
0000
0000
0000
0000
0000
0000
0000
0000
0000
0000
0000
0000
0000
0000
0000
0000
0000
0000
0000
0000
0000
0000
0000
0000
0000
0000
0000
0000
0000
0000
0000
0000
0000
0000
0000
0000
0000
0000
0000
0000
0000
0000
0000
0000
0000
0000
0000
0000
0000
0000
0000
0000
0000
0010
0000
0000
0000
0000
0000
0000
0000
0000
0000
0000
0000
0000
0000
0000
0000
0000
0000
0000
0000
0000
0000
0000
0000
0001
0000
0000
0000
0000
0000
0000
0000
0000
0000
0000
0000
0000
0000
0000
0000
0000
0000
0000
0000
0000
0000
0000
0000
0000
0000
0000
0000
0000
0000
0000
0000
0000
0000
0000
0000
0000
0000
0000
0000
0000
0000
0000
0000
0000
0000
0000
0000
0000
0000
0000
0000
0000
0000
0000
0000
0000
0000
0000
0000
0000
0000
0000
0000
0000
0000
0000
0000
0000
0000
0000
0000
,
0001
0100
0000
0000
0010
1000
0000
0000
,
1000
0100
0000
0000
0010
0001
0000
0000
,
0100
0000
0010
0000
0000
0000
0000
0000
0001
0000
1000
0000
0000
0000
0000
0110
;
